osu file format v14

[General]
AudioFilename: ave;new feat. Sakura Saori - Pist SMILE NonstoP!! ~Kagayake Ashita no Star Daisakusen~ (Short Ver.).mp3
AudioLeadIn: 1000
PreviewTime: 52993
Countdown: 0
SampleSet: Soft
StackLeniency: 0.6
Mode: 0
LetterboxInBreaks: 0
WidescreenStoryboard: 1

[Editor]
Bookmarks: 12370,17181,20436,21710,22842,22983,24681,24964,26945,27512,27653,29493,29634,31049,31191,31332,35295,37134,37559,37983,38125,39398,39823,40389,40672,40955,41096,41379,41662,41804,42087,42512,43219,43644,44068,50861,51851,51993,53125,54681,54823,55247,55530,56379,56662,58078,58219,61898,62181,62747,63313,66214,68549,68974,71238,80295,83549,84681,87512,88078,88644,88785,89210,89351,89634,89776,90059,91615,91898,92040,92323,92606
DistanceSpacing: 1.5
BeatDivisor: 4
GridSize: 4
TimelineZoom: 3.800004

[Metadata]
Title:Piste SMILE Non-stop!!
TitleUnicode:ぴすとっ☆SMILE♪ノンすとっP!!
Artist:ave;new feat. Sakura Saori
ArtistUnicode:ave;new feat. 佐倉 紗織
Creator:krykson
Version:Smile!
Source:ぴすとっ☆
Tags:krykson Piste Smile! Piststar 1112deng Suzuki_1112 x Arrow
BeatmapID:1412743
BeatmapSetID:657090

[Difficulty]
HPDrainRate:7
CircleSize:4
OverallDifficulty:9
ApproachRate:9.5
SliderMultiplier:1.6
SliderTickRate:1

[Events]
//Background and Video events
0,0,"PistStar.full.1115044.jpg",0,0
//Break Periods
//Storyboard Layer 0 (Background)
//Storyboard Layer 1 (Fail)
//Storyboard Layer 2 (Pass)
//Storyboard Layer 3 (Foreground)
//Storyboard Sound Samples

[TimingPoints]
1049.77301936292,283.018867924528,4,2,0,70,1,0
2960,-100,4,2,0,70,0,0
8903,-100,4,2,0,70,0,0
9681,-50,4,2,0,70,0,0
9823,-100,4,2,0,70,0,0
11167,-100,4,2,0,70,0,0
11945,-50,4,2,0,70,0,0
12087,-100,4,2,0,70,0,0
12370,-100,4,2,0,70,0,0
14210,-50,4,2,0,70,0,0
14351,-100,4,2,0,70,0,0
16191,-100,4,2,0,70,0,0
16474,-50,4,2,0,70,0,0
16828,-100,4,2,0,70,0,0
25672,-50,4,2,0,70,0,0
26096,-100,4,2,0,70,0,0
30695,-133.333333333333,4,2,0,70,0,0
31403,-100,4,2,0,70,0,0
34445,-100,4,2,0,70,0,0
35012,-133.333333333333,4,2,0,70,0,0
35153,-133.333333333333,4,2,0,70,0,0
42946,-133.333333333333,4,2,0,70,0,0
44078,-100,4,2,0,70,0,0
50578,-50,4,2,0,70,0,0
50719,-100,4,2,0,70,0,0
53125,-100,4,2,0,70,0,1
55247,-100,4,2,0,70,0,1
56379,-66.6666666666667,4,2,0,70,0,1
57653,-100,4,2,0,70,0,1
59917,-66.6666666666667,4,2,0,70,0,1
60979,-50,4,2,0,70,0,1
61332,-100,4,2,0,70,0,1
62111,-100,4,2,0,70,0,1
63738,-66.6666666666667,4,2,0,70,0,1
64304,-50,4,2,0,70,0,1
64729,-100,4,2,0,70,0,1
66710,-100,4,2,0,70,0,0
82134,-50,4,2,0,70,0,0
82559,-100,4,2,0,70,0,0
84823,-100,4,2,0,70,0,0

[Colours]
Combo1 : 170,227,255
Combo2 : 255,255,170

[HitObjects]
60,32,1049,6,0,P|63:51|78:78,1,40,4|0,0:0|0:0,0:0:0:0:
137,49,1191,2,0,P|149:69|152:89,1,40
85,111,1332,2,0,P|88:131|100:151,1,40
170,134,1474,2,0,P|180:150|184:170,1,40
117,193,1615,2,0,P|121:216|137:235,1,40
204,216,1757,2,0,P|214:232|218:252,1,40
152,270,1898,2,0,P|156:293|172:312,1,40
244,292,2040,2,0,P|254:308|258:328,1,40
397,333,2181,6,0,P|402:309|397:270,1,40,4|0,0:0|0:0,0:0:0:0:
314,275,2323,2,0,P|309:245|314:221,1,40
402,226,2464,2,0,P|407:201|402:172,1,40
314,162,2606,2,0,P|309:138|314:113,1,40
402,118,2747,2,0,P|407:89|397:59,1,40,4|0,0:0|0:0,0:0:0:0:
324,44,2889,1,0,0:0:0:0:
148,40,3030,2,0,P|112:48|104:92,1,80,4|0,0:0|0:0,0:0:0:0:
156,236,3313,6,0,P|204:276|232:280,2,80,4|0|8,0:0|0:0|0:0,0:0:0:0:
196,80,3738,2,0,P|224:48|284:44,1,80
376,128,4021,1,0,0:0:0:0:
220,280,4162,1,8,0:0:0:0:
376,128,4304,6,0,P|412:96|420:56,2,80
144,140,4729,1,0,0:0:0:0:
324,264,4870,1,0,0:0:0:0:
144,140,5012,2,0,P|192:176|296:196,1,160
328,188,5365,1,0,0:0:0:0:
364,168,5436,1,0,0:0:0:0:
100,80,5578,6,0,P|112:136|204:200,1,160
416,200,6002,2,0,B|384:244|344:276|272:268,1,160
244,260,6356,1,0,0:0:0:0:
204,244,6427,1,8,0:0:0:0:
116,124,6568,5,0,0:0:0:0:
308,72,6710,1,0,0:0:0:0:
108,92,6851,1,0,0:0:0:0:
300,156,6993,1,0,0:0:0:0:
100,164,7134,1,0,0:0:0:0:
296,116,7276,2,0,L|160:184,1,120
108,228,7559,2,0,L|192:260,1,80,8|0,0:0|0:0,0:0:0:0:
400,256,7842,5,8,0:0:0:0:
260,60,7983,1,0,0:0:0:0:
112,252,8125,1,8,0:0:0:0:
160,100,8266,1,0,0:0:0:0:
448,84,8408,5,8,0:0:0:0:
284,260,8549,1,0,0:0:0:0:
216,72,8691,1,8,0:0:0:0:
372,156,8832,1,0,0:0:0:0:
184,176,8974,5,8,0:0:0:0:
184,176,9045,1,0,0:0:0:0:
184,176,9115,1,4,0:0:0:0:
164,152,9186,1,0,0:0:0:0:
152,112,9257,1,8,0:0:0:0:
172,64,9328,1,0,0:0:0:0:
224,40,9398,2,0,B|252:28|324:40|352:60,1,120,4|0,0:0|0:0,0:0:0:0:
396,88,9681,6,0,L|424:164,1,80
460,260,9823,1,0,0:0:0:0:
52,276,10106,5,8,0:0:0:0:
96,40,10247,1,0,0:0:0:0:
124,280,10389,1,8,0:0:0:0:
164,84,10530,1,0,0:0:0:0:
348,276,10672,5,2,0:0:0:0:
308,40,10813,1,0,0:0:0:0:
276,280,10955,1,8,0:0:0:0:
232,84,11096,1,0,0:0:0:0:
348,276,11238,5,8,0:0:0:0:
348,276,11309,1,0,0:0:0:0:
348,276,11379,1,4,0:0:0:0:
376,276,11450,1,0,0:0:0:0:
412,254,11521,1,8,0:0:0:0:
444,212,11592,1,0,0:0:0:0:
468,160,11662,2,0,B|480:124|412:56|380:64,1,120,4|0,0:0|0:0,0:0:0:0:
320,40,11945,6,0,L|232:40,1,80
140,40,12087,1,0,0:0:0:0:
167,275,12370,5,8,0:0:0:0:
268,56,12512,1,0,0:0:0:0:
92,220,12653,1,8,0:0:0:0:
284,156,12795,1,0,0:0:0:0:
52,48,12936,5,8,0:0:0:0:
203,235,13078,1,0,0:0:0:0:
346,43,13219,1,8,0:0:0:0:
162,125,13361,1,0,0:0:0:0:
352,48,13502,5,8,0:0:0:0:
352,48,13573,1,0,0:0:0:0:
352,48,13644,1,4,0:0:0:0:
382,42,13715,1,0,0:0:0:0:
423,51,13786,1,8,0:0:0:0:
455,91,13857,1,0,0:0:0:0:
451,148,13927,2,0,B|447:178|402:235|371:250,1,120,4|0,0:0|0:0,0:0:0:0:
320,276,14210,6,0,L|228:312,1,80
148,332,14351,1,8,0:0:0:0:
72,72,14634,5,8,0:0:0:0:
308,112,14776,1,0,0:0:0:0:
72,144,14917,1,4,0:0:0:0:
256,60,15059,1,0,0:0:0:0:
72,240,15200,5,8,0:0:0:0:
308,188,15342,1,0,0:0:0:0:
68,184,15483,1,4,0:0:0:0:
260,236,15625,1,0,0:0:0:0:
136,80,15766,5,8,0:0:0:0:
136,80,15837,1,0,0:0:0:0:
136,80,15908,1,4,0:0:0:0:
154,55,15979,1,0,0:0:0:0:
191,35,16050,1,8,0:0:0:0:
242,44,16121,1,0,0:0:0:0:
276,90,16191,2,0,B|293:114|296:187|283:219,1,120,4|0,0:0|0:0,0:0:0:0:
236,252,16474,6,0,L|164:308,2,80
432,132,16757,1,0,0:0:0:0:
348,84,16898,2,0,L|256:76,1,80,8|0,0:0|0:0,0:0:0:0:
336,184,17181,6,0,B|416:220|428:324,1,160
284,320,17606,1,2,0:0:0:0:
284,320,17747,1,2,0:0:0:0:
108,284,17889,1,0,0:0:0:0:
40,208,18030,2,0,P|12:180|16:128,1,80
120,72,18313,1,0,0:0:0:0:
184,144,18455,1,2,0:0:0:0:
236,224,18596,2,0,P|276:256|340:232,1,120,8|0,0:0|0:0,0:0:0:0:
368,280,18879,2,0,P|440:240|464:188,1,120,8|0,0:0|0:0,0:0:0:0:
344,168,19162,5,0,0:0:0:0:
460,112,19304,1,0,0:0:0:0:
312,144,19445,1,4,0:0:0:0:
384,36,19587,1,0,0:0:0:0:
272,140,19729,1,0,0:0:0:0:
256,36,19870,1,0,0:0:0:0:
240,160,20012,1,4,0:0:0:0:
108,52,20153,2,0,L|192:124,1,80,0|8,0:0|0:0,0:0:0:0:
240,160,20436,5,0,0:0:0:0:
240,160,20578,1,4,0:0:0:0:
240,160,20719,1,0,0:0:0:0:
352,68,20861,1,8,0:0:0:0:
392,224,21002,1,0,0:0:0:0:
132,302,21144,2,0,P|107:271|107:232,1,80,4|0,0:0|0:0,0:0:0:0:
216,180,21427,1,8,0:0:0:0:
324,124,21568,1,0,0:0:0:0:
344,344,21710,6,0,P|380:336|404:292,1,80,2|0,0:0|0:0,0:0:0:0:
162,283,21993,2,0,P|138:275|106:223,1,80,2|0,0:0|0:0,0:0:0:0:
64,60,22276,1,4,0:0:0:0:
304,44,22417,2,0,B|376:20|436:60|464:100|468:116,1,160
412,324,22842,1,4,0:0:0:0:
132,308,22983,1,2,0:0:0:0:
111,273,23053,1,0,0:0:0:0:
102,235,23125,1,2,0:0:0:0:
105,195,23195,1,0,0:0:0:0:
121,158,23266,1,0,0:0:0:0:
132,308,23408,2,0,P|172:284|204:260,1,80,4|0,0:0|0:0,0:0:0:0:
412,80,23691,5,2,0:0:0:0:
195,266,23832,1,0,0:0:0:0:
425,89,23974,5,4,0:0:0:0:
187,254,24115,1,8,0:0:0:0:
432,101,24257,5,8,0:0:0:0:
182,243,24398,1,0,0:0:0:0:
438,113,24540,5,4,0:0:0:0:
176,228,24681,2,0,L|84:220,2,80,0|8|8,0:0|0:0|0:0,0:0:0:0:
320,240,25106,1,8,0:0:0:0:
364,236,25247,1,8,0:0:0:0:
404,216,25389,1,8,0:0:0:0:
436,192,25530,1,8,0:0:0:0:
464,160,25672,6,0,P|476:108|336:172,1,320,4|4,0:0|0:0,0:0:0:0:
316,220,26096,1,0,0:0:0:0:
456,272,26238,6,0,L|392:332,1,80,8|0,0:0|0:0,0:0:0:0:
316,220,26521,2,0,L|244:280,1,80,8|0,0:0|0:0,0:0:0:0:
136,268,26804,1,4,0:0:0:0:
132,148,26945,2,0,L|224:192,1,80,0|8,0:0|0:0,0:0:0:0:
216,40,27229,2,0,L|264:128,1,80,0|8,0:0|0:0,0:0:0:0:
388,48,27512,2,0,L|348:136,1,80,0|8,0:0|0:0,0:0:0:0:
340,152,27724,1,0,0:0:0:0:
328,176,27795,1,0,0:0:0:0:
312,204,27865,1,0,0:0:0:0:
296,232,27936,2,0,P|268:264|220:280,1,80,4|0,0:0|0:0,0:0:0:0:
76,240,28219,5,8,0:0:0:0:
274,32,28361,1,0,0:0:0:0:
66,230,28502,5,4,0:0:0:0:
283,41,28644,1,0,0:0:0:0:
56,220,28785,5,8,0:0:0:0:
293,51,28927,1,0,0:0:0:0:
51,205,29068,5,4,0:0:0:0:
304,76,29210,2,0,P|328:76|332:144,2,80,0|8|0,0:0|0:0|0:0,0:0:0:0:
224,112,29634,2,0,P|212:104|200:152,1,80,8|0,0:0|0:0,0:0:0:0:
252,216,29917,2,0,P|264:232|176:288,1,160,8|4,0:0|0:0,0:0:0:0:
112,104,30483,2,0,P|90:140|91:194,1,80,8|0,0:0|0:0,0:0:0:0:
316,296,30766,6,0,P|360:288|412:208,1,120.000004577637,8|8,0:0|0:0,0:0:0:0:
288,204,31191,2,0,P|312:184|320:136,1,60.0000022888184,0|4,0:0|0:0,0:0:0:0:
224,148,31474,2,0,P|244:124|244:76,1,80,0|8,0:0|0:0,0:0:0:0:
96,84,31757,1,0,0:0:0:0:
128,172,31898,1,4,0:0:0:0:
196,236,32040,1,0,0:0:0:0:
284,268,32181,2,0,P|348:260|392:248,2,80,8|0|4,0:0|0:0|0:0,0:0:0:0:
180,268,32606,1,0,0:0:0:0:
88,168,32747,5,8,0:0:0:0:
156,52,32889,1,0,0:0:0:0:
292,40,33030,1,4,0:0:0:0:
388,136,33172,1,0,0:0:0:0:
424,296,33313,1,8,0:0:0:0:
424,296,33384,1,0,0:0:0:0:
424,296,33455,1,0,0:0:0:0:
368,220,33596,1,4,0:0:0:0:
320,152,33738,1,0,0:0:0:0:
256,72,33879,6,0,L|228:40,2,40,8|0|0,0:0|0:0|0:0,0:0:0:0:
320,152,34162,1,4,0:0:0:0:
368,220,34304,1,0,0:0:0:0:
424,296,34445,1,8,0:0:0:0:
393,321,34515,1,0,0:0:0:0:
356,336,34586,1,8,0:0:0:0:
316,340,34657,1,0,0:0:0:0:
278,331,34728,1,4,0:0:0:0:
243,311,34798,1,0,0:0:0:0:
216,281,34869,1,0,0:0:0:0:
104,160,35012,2,0,P|104:132|124:96,1,60.0000022888184,4|0,0:0|0:0,0:0:0:0:
224,96,35295,6,0,P|184:136|188:200,1,120.000004577637,0|2,0:0|0:0,0:0:0:0:
424,184,35861,2,0,P|421:240|370:280,1,120.000004577637,0|2,0:0|0:0,0:0:0:0:
280,88,36427,1,0,0:0:0:0:
128,96,36710,2,0,B|92:116|92:116|136:212,1,120.000004577637,2|2,0:0|0:0,0:0:0:0:
376,88,37276,2,0,B|400:156|400:156|368:220,1,120.000004577637,2|0,0:0|0:0,0:0:0:0:
220,284,37700,2,0,B|180:272|180:272|144:248,1,60.0000022888184,2|2,0:0|0:0,0:0:0:0:
44,132,37983,1,0,0:0:0:0:
216,76,38125,2,0,L|296:56,1,60.0000022888184,2|0,0:0|0:0,0:0:0:0:
440,84,38408,2,0,B|480:132|496:196|468:264|468:264|444:276|444:276|416:292|416:292|360:272|299:227|287:179,1,420.000016021729,4|0,0:0|0:0,0:0:0:0:
440,84,39540,1,4,0:0:0:0:
432,256,39823,6,0,P|392:328|348:348,2,120.000004577637,0|2|4,0:0|0:0|0:0,0:0:0:0:
178,282,40672,2,0,L|122:226,2,60.0000022888184,2|0|0,0:0|0:0|0:0,0:0:0:0:
352,264,41096,2,0,L|388:208,2,60.0000022888184,2|8|0,0:0|0:0|0:0,0:0:0:0:
260,312,41521,1,2,0:0:0:0:
136,240,41662,1,0,0:0:0:0:
148,96,41804,2,0,P|200:67|259:63,1,120.000004577637,2|0,0:0|0:0,0:0:0:0:
300,180,42229,2,0,P|240:184|180:220,1,120.000004577637,2|0,0:0|0:0,0:0:0:0:
248,316,42653,2,0,P|264:296|316:296,1,60.0000022888184,2|0,0:0|0:0,0:0:0:0:
400,348,42936,2,0,P|432:352|460:320,1,60.0000022888184,4|0,0:0|0:0,0:0:0:0:
468,216,43219,1,2,0:0:0:0:
461,186,43289,1,0,0:0:0:0:
450,158,43360,1,2,0:0:0:0:
436,132,43431,1,0,0:0:0:0:
418,108,43502,1,2,0:0:0:0:
397,87,43572,1,0,0:0:0:0:
373,69,43644,2,0,P|356:52|312:32,1,60.0000022888184,2|4,0:0|0:0,0:0:0:0:
304,232,44068,6,0,L|272:176,1,60.0000022888184,8|0,0:0|0:0,0:0:0:0:
274,179,44351,2,0,B|250:142|250:142|213:166,1,80,8|0,0:0|0:0,0:0:0:0:
231,224,44634,2,0,B|191:243|191:243|171:204,1,80,8|0,0:0|0:0,0:0:0:0:
226,172,44917,2,0,B|205:133|205:133|244:112,1,80,8|0,0:0|0:0,0:0:0:0:
220,54,45200,2,0,B|259:34|259:34|279:73,1,80,0|8,0:0|0:0,0:0:0:0:
237,116,45483,2,0,B|199:139|199:139|176:102,1,80,4|0,0:0|0:0,0:0:0:0:
125,142,45766,2,0,B|147:179|147:179|185:157,1,80,8|0,0:0|0:0,0:0:0:0:
210,216,46049,2,0,B|246:190|246:190|271:226,1,80,8|0,0:0|0:0,0:0:0:0:
362,77,46332,6,0,P|342:73|246:73,1,80,8|0,0:0|0:0,0:0:0:0:
283,70,46615,2,4,P|263:66|203:114,1,80
225,106,46898,2,8,P|205:102|192:160,1,80
180,146,47181,2,0,P|219:147|256:164,1,80,8|0,0:0|0:0,0:0:0:0:
255,163,47464,2,0,P|224:172|204:240,1,80,8|0,0:0|0:0,0:0:0:0:
199,210,47747,2,0,P|240:196|249:145,1,80,8|0,0:0|0:0,0:0:0:0:
252,164,48030,2,0,P|247:123|363:111,1,160,0|4,0:0|0:0,0:0:0:0:
340,84,48455,1,0,0:0:0:0:
400,312,48596,5,8,0:0:0:0:
400,312,48737,1,0,0:0:0:0:
188,200,48879,1,8,0:0:0:0:
188,200,49020,1,0,0:0:0:0:
424,148,49162,5,8,0:0:0:0:
424,148,49303,1,0,0:0:0:0:
200,64,49445,1,8,0:0:0:0:
200,64,49587,1,0,0:0:0:0:
260,296,49728,5,8,0:0:0:0:
260,296,49870,1,0,0:0:0:0:
368,80,50012,1,8,0:0:0:0:
368,80,50153,1,0,0:0:0:0:
136,148,50295,5,8,0:0:0:0:
136,148,50436,1,0,0:0:0:0:
136,148,50578,2,0,P|88:164|144:268,1,160,4|0,0:0|0:0,0:0:0:0:
256,328,50861,5,8,0:0:0:0:
364,180,51002,1,0,0:0:0:0:
220,296,51144,5,8,0:0:0:0:
332,152,51285,1,0,0:0:0:0:
184,264,51427,5,8,0:0:0:0:
300,120,51568,1,0,0:0:0:0:
156,236,51710,5,8,0:0:0:0:
268,88,51851,1,0,0:0:0:0:
128,208,51993,2,0,L|72:192,1,40
32,160,52134,2,0,B|80:112|144:96|208:160|208:160|272:96|336:112|384:160,1,400
180,272,53125,5,8,0:0:0:0:
177,121,53266,1,0,0:0:0:0:
314,182,53408,1,8,0:0:0:0:
177,269,53549,1,0,0:0:0:0:
176,8,53691,5,8,0:0:0:0:
404,80,53832,1,0,0:0:0:0:
332,308,53974,1,0,0:0:0:0:
104,236,54115,1,0,0:0:0:0:
324,40,54257,5,8,0:0:0:0:
468,228,54398,1,0,0:0:0:0:
276,372,54540,1,8,0:0:0:0:
128,156,54681,1,0,0:0:0:0:
40,244,54823,6,0,L|100:252,1,40,8|0,0:0|0:0,0:0:0:0:
136,332,54964,2,0,L|208:340,1,40
256,276,55106,2,0,L|320:284,1,40,8|0,0:0|0:0,0:0:0:0:
376,340,55247,6,0,P|408:348|432:232,1,160
280,96,55672,2,0,P|311:71|350:66,1,80,8|0,0:0|0:0,0:0:0:0:
384,232,55955,2,0,P|352:256|296:256,1,80,8|0,0:0|0:0,0:0:0:0:
84,118,56238,1,8,0:0:0:0:
372,172,56379,2,0,P|418:282|328:332,1,240.000009155274
220,300,56804,1,0,0:0:0:0:
185,286,56874,1,0,0:0:0:0:
151,273,56945,1,0,0:0:0:0:
117,259,57016,1,0,0:0:0:0:
83,246,57087,1,0,0:0:0:0:
92,68,57229,1,2,0:0:0:0:
399,221,57370,1,2,0:0:0:0:
280,248,57653,6,0,B|224:252|200:168|260:152|260:152|180:84,1,240,8|0,0:0|0:0,0:0:0:0:
308,64,58219,2,0,B|364:60|388:144|328:160|328:160|408:228,1,240,8|0,0:0|0:0,0:0:0:0:
240,280,58785,1,8,0:0:0:0:
240,280,58856,1,0,0:0:0:0:
240,280,58927,2,0,B|216:272|180:244|164:208|152:160|156:156,1,120
163,192,59210,2,0,B|171:148|187:112|223:84|271:64,1,160
416,52,59634,2,0,P|447:61|460:119,1,80,4|0,0:0|0:0,0:0:0:0:
376,240,59917,6,0,P|288:224|264:200,1,120.000004577637,8|0,0:0|0:0,0:0:0:0:
116,112,60200,1,8,0:0:0:0:
416,52,60342,1,0,0:0:0:0:
380,304,60483,1,8,0:0:0:0:
116,112,60625,1,0,0:0:0:0:
416,52,60766,1,8,0:0:0:0:
380,304,60908,1,0,0:0:0:0:
164,264,61049,6,0,L|240:240,1,80,4|0,0:0|0:0,0:0:0:0:
152,212,61191,2,0,L|232:188,1,80
144,160,61332,1,8,0:0:0:0:
184,144,61402,1,0,0:0:0:0:
216,132,61473,1,0,0:0:0:0:
256,128,61544,1,0,0:0:0:0:
296,136,61615,1,8,0:0:0:0:
336,144,61685,1,0,0:0:0:0:
373,158,61756,1,0,0:0:0:0:
407,179,61827,1,0,0:0:0:0:
437,205,61898,1,8,0:0:0:0:
48,304,62181,5,8,0:0:0:0:
132,36,62323,1,0,0:0:0:0:
220,300,62464,1,8,0:0:0:0:
460,156,62606,1,0,0:0:0:0:
208,36,62747,5,8,0:0:0:0:
36,244,62889,1,0,0:0:0:0:
308,288,63030,1,8,0:0:0:0:
460,32,63172,1,0,0:0:0:0:
384,100,63313,5,8,0:0:0:0:
358,130,63383,1,0,0:0:0:0:
331,160,63454,1,0,0:0:0:0:
300,185,63525,1,0,0:0:0:0:
266,206,63596,1,4,0:0:0:0:
232,227,63666,1,0,0:0:0:0:
196,244,63738,2,0,L|136:272,1,60.0000022888184
60,272,63879,5,8,0:0:0:0:
70,237,63950,1,0,0:0:0:0:
84,204,64020,1,0,0:0:0:0:
104,176,64091,1,0,0:0:0:0:
128,148,64162,1,4,0:0:0:0:
152,120,64233,1,0,0:0:0:0:
176,92,64304,2,0,P|208:68|324:40,1,160,0|8,0:0|0:0,0:0:0:0:
424,108,64587,5,0,0:0:0:0:
452,144,64658,1,0,0:0:0:0:
472,180,64728,1,8,0:0:0:0:
472,224,64799,1,0,0:0:0:0:
460,264,64870,1,0,0:0:0:0:
248,258,65012,2,0,L|204:192,1,80,8|0,0:0|0:0,0:0:0:0:
132,92,65295,5,4,0:0:0:0:
168,128,65436,1,0,0:0:0:0:
208,160,65578,1,8,0:0:0:0:
248,192,65719,1,0,0:0:0:0:
288,224,65861,2,0,P|312:248|384:160,1,160,8|8,0:0|0:0,0:0:0:0:
132,100,66285,1,0,0:0:0:0:
396,190,66427,1,8,0:0:0:0:
356,56,66710,6,0,L|408:128,2,80,8|0|8,0:0|0:0|0:0,0:0:0:0:
120,280,67276,2,0,L|60:208,2,80,8|0|8,0:0|0:0|0:0,0:0:0:0:
156,84,67700,1,0,0:0:0:0:
314,218,67841,1,8,0:0:0:0:
332,254,67912,1,0,0:0:0:0:
364,275,67982,1,8,0:0:0:0:
399,276,68053,1,0,0:0:0:0:
416,244,68124,1,8,0:0:0:0:
399,210,68195,1,0,0:0:0:0:
362,197,68266,2,8,P|320:168|208:172,1,160
68,248,68691,1,4,0:0:0:0:
228,198,68974,5,2,0:0:0:0:
360,36,69115,1,0,0:0:0:0:
348,244,69257,1,4,0:0:0:0:
252,56,69398,1,0,0:0:0:0:
428,184,69540,5,2,0:0:0:0:
200,168,69681,1,0,0:0:0:0:
396,72,69823,1,4,0:0:0:0:
272,248,69964,1,0,0:0:0:0:
288,36,70106,5,2,0:0:0:0:
112,156,70247,1,8,0:0:0:0:
240,332,70389,1,0,0:0:0:0:
416,208,70530,1,0,0:0:0:0:
288,32,70672,1,2,0:0:0:0:
112,156,70813,2,0,L|36:212,2,80,0|4|0,0:0|0:0|0:0,0:0:0:0:
332,256,71238,5,8,0:0:0:0:
184,68,71379,1,0,0:0:0:0:
332,256,71521,1,8,0:0:0:0:
212,100,71662,1,0,0:0:0:0:
464,192,71804,5,8,0:0:0:0:
227,159,71945,1,0,0:0:0:0:
464,192,72087,1,8,0:0:0:0:
265,169,72229,1,8,0:0:0:0:
160,156,72370,5,8,0:0:0:0:
160,156,72441,1,0,0:0:0:0:
160,156,72511,1,4,0:0:0:0:
133,188,72582,1,0,0:0:0:0:
120,227,72653,1,8,0:0:0:0:
130,274,72724,1,0,0:0:0:0:
168,312,72794,2,0,B|224:358|287:339,1,120,4|0,0:0|0:0,0:0:0:0:
348,309,73078,2,0,L|417:255,2,80,0|8|0,0:0|0:0|0:0,0:0:0:0:
168,312,73502,5,8,0:0:0:0:
276,96,73644,1,0,0:0:0:0:
40,136,73785,1,8,0:0:0:0:
232,188,73927,1,0,0:0:0:0:
36,344,74068,5,8,0:0:0:0:
116,124,74210,1,0,0:0:0:0:
284,292,74351,1,8,0:0:0:0:
384,116,74493,1,0,0:0:0:0:
284,292,74634,5,8,0:0:0:0:
284,292,74705,1,0,0:0:0:0:
284,292,74775,1,4,0:0:0:0:
266,317,74846,1,0,0:0:0:0:
231,344,74917,1,8,0:0:0:0:
181,346,74988,1,0,0:0:0:0:
123,330,75058,2,0,B|48:316|21:248,1,120,4|0,0:0|0:0,0:0:0:0:
13,194,75341,2,0,L|-2:107,2,80,0|8|0,0:0|0:0|0:0,0:0:0:0:
168,108,75766,5,8,0:0:0:0:
352,108,75908,1,0,0:0:0:0:
352,292,76049,1,8,0:0:0:0:
168,292,76191,1,0,0:0:0:0:
252,108,76332,5,8,0:0:0:0:
380,216,76474,1,0,0:0:0:0:
268,340,76615,1,8,0:0:0:0:
140,232,76757,1,0,0:0:0:0:
252,108,76898,5,8,0:0:0:0:
256,112,76969,1,0,0:0:0:0:
256,112,77040,1,4,0:0:0:0:
291,111,77111,1,0,0:0:0:0:
334,114,77181,1,8,0:0:0:0:
392,126,77252,1,0,0:0:0:0:
444,160,77323,2,0,P|468:200|476:252,1,80,4|0,0:0|0:0,0:0:0:0:
372,256,77606,2,0,L|421:319,2,80,0|8|0,0:0|0:0|0:0,0:0:0:0:
164,72,78030,5,8,0:0:0:0:
420,68,78172,1,0,0:0:0:0:
284,284,78313,1,8,0:0:0:0:
120,168,78455,1,0,0:0:0:0:
397,166,78596,5,8,0:0:0:0:
172,292,78738,1,0,0:0:0:0:
172,36,78879,1,8,0:0:0:0:
36,180,79021,1,0,0:0:0:0:
172,292,79162,5,8,0:0:0:0:
172,292,79233,1,0,0:0:0:0:
172,292,79304,1,4,0:0:0:0:
170,257,79375,1,0,0:0:0:0:
179,231,79445,1,8,0:0:0:0:
191,193,79516,1,0,0:0:0:0:
203,155,79587,2,0,P|216:125|264:88,1,80,4|0,0:0|0:0,0:0:0:0:
356,20,79870,1,8,0:0:0:0:
476,64,80012,1,8,0:0:0:0:
500,188,80153,1,8,0:0:0:0:
365,170,80295,6,0,B|364:132|320:108,2,80,8|0|2,0:0|0:0|0:0,0:0:0:0:
104,208,80719,2,0,B|112:263|176:281,1,80,8|0,0:0|0:0,0:0:0:0:
340,276,81002,1,0,0:0:0:0:
164,80,81144,1,4,0:0:0:0:
340,276,81285,6,0,P|352:296|412:328,2,80,8|0|2,0:0|0:0|0:0,0:0:0:0:
228,56,81710,1,2,0:0:0:0:
464,56,81851,1,2,0:0:0:0:
228,56,81993,1,2,0:0:0:0:
316,188,82134,2,0,P|322:219|338:167,1,160,0|4,0:0|0:0,0:0:0:0:
192,88,82417,1,0,0:0:0:0:
392,104,82559,6,0,P|428:120|472:168,2,80,8|0|2,0:0|0:0|0:0,0:0:0:0:
188,168,82983,2,0,P|158:141|100:120,2,80,8|0|8,0:0|0:0|0:0,0:0:0:0:
292,228,83408,1,2,0:0:0:0:
400,276,83549,5,8,0:0:0:0:
408,156,83691,1,8,0:0:0:0:
328,64,83832,1,8,0:0:0:0:
208,44,83974,1,2,0:0:0:0:
112,116,84115,1,2,0:0:0:0:
139,236,84257,2,0,P|147:260|271:296,1,160
192,176,84823,6,0,L|136:240,2,80,8|0|2,0:0|0:0|0:0,0:0:0:0:
340,32,85247,1,8,0:0:0:0:
388,268,85389,1,0,0:0:0:0:
44,200,85530,1,8,0:0:0:0:
252,40,85672,1,4,0:0:0:0:
336,256,85813,6,0,B|352:304|408:328,2,80,8|0|2,0:0|0:0|0:0,0:0:0:0:
344,64,86238,1,8,0:0:0:0:
337,103,86308,1,0,0:0:0:0:
314,135,86379,1,8,0:0:0:0:
280,156,86450,1,0,0:0:0:0:
244,164,86521,2,0,P|208:160|144:116,2,80,8|0|2,0:0|0:0|0:0,0:0:0:0:
356,144,86945,1,0,0:0:0:0:
228,292,87087,5,8,0:0:0:0:
280,56,87229,1,8,0:0:0:0:
404,260,87370,1,8,0:0:0:0:
280,56,87512,2,0,P|296:56|368:116,1,80,8|0,0:0|0:0,0:0:0:0:
380,184,87795,2,0,P|384:200|352:260,1,80,8|4,0:0|0:0,0:0:0:0:
76,152,88078,5,8,0:0:0:0:
228,316,88219,1,8,0:0:0:0:
432,224,88361,1,8,0:0:0:0:
280,56,88502,1,8,0:0:0:0:
52,60,88644,1,8,0:0:0:0:
100,276,88785,6,0,B|200:252|200:220|184:196|160:196|144:220|144:252|240:276,1,240
316,188,89351,2,2,P|312:152|192:108,1,160
236,176,89776,2,2,P|259:249|333:271,1,160
316,188,90342,1,6,0:0:0:0:
120,344,90625,5,2,0:0:0:0:
84,148,90766,1,2,0:0:0:0:
256,44,90908,1,2,0:0:0:0:
428,148,91049,1,2,0:0:0:0:
384,344,91191,1,2,0:0:0:0:
120,344,91332,1,2,0:0:0:0:
84,148,91474,1,2,0:0:0:0:
292,260,91615,6,2,P|218:238|194:164,1,160,0|0,0:0|0:0,0:0:0:0:
171,88,92040,2,2,P|245:105|274:176,1,160,0|0,0:0|0:0,0:0:0:0:
193,165,92606,1,14,0:0:0:0:
