osu file format v14

[General]
AudioFilename: audio.mp3
AudioLeadIn: 0
PreviewTime: 77875
Countdown: 0
SampleSet: Soft
StackLeniency: 0.7
Mode: 0
LetterboxInBreaks: 0
EpilepsyWarning: 1
WidescreenStoryboard: 1

[Editor]
Bookmarks: 38240,65933,94317,125010,153394,182933,209933,239471
DistanceSpacing: 1
BeatDivisor: 4
GridSize: 32
TimelineZoom: 1.9

[Metadata]
Title:KIZUGUCHI
TitleUnicode:傷口 -KIZUGUCHI-
Artist:ave;new feat. Sakura Saori
ArtistUnicode:ave;new feat. 佐倉紗織
Creator:App
Version:Insane
Source:
Tags:mirash heatherfield japanese pop jpop j-pop wound inscribe WWWWWWWWWWWWWW
BeatmapID:4501719
BeatmapSetID:2135594

[Difficulty]
HPDrainRate:4
CircleSize:4
OverallDifficulty:8
ApproachRate:8
SliderMultiplier:2.2
SliderTickRate:0.5

[Events]
//Background and Video events
0,0,"o.jpg",0,0
//Break Periods
2,256779,259952
//Storyboard Layer 0 (Background)
//Storyboard Layer 1 (Fail)
//Storyboard Layer 2 (Pass)
//Storyboard Layer 3 (Foreground)
Sprite,Foreground,Centre,"sb/glow.png",0,0 S,2,80702,81532,1,0.2 F,2,80702,81532,1,0 P,0,80702,81532,A C,0,80702,,242,113,193 M,0,80702,80817,525,168,531.3973,236.4517 M,0,80817,80932,531.3973,236.4517,550.1331,300.9425
Sprite,Foreground,Centre,"sb/glow.png",0,0 S,2,81048,81878,1,0.2 F,2,81048,81878,1,0 P,0,81048,81878,A C,0,81048,,242,113,193 M,0,81048,81163,550,300,484.095,281.5105 M,0,81163,81278,484.095,281.5105,420.9686,274.2371
Sprite,Foreground,Centre,"sb/glow.png",406,313 S,2,81394,81994,1,0.2 F,2,81394,81994,1,0 P,0,81394,81994,A C,0,81394,,242,113,193
Sprite,Foreground,Centre,"sb/glow.png",0,0 S,2,81625,82455,1,0.2 F,2,81625,82455,1,0 P,0,81625,82455,A C,0,81625,,242,113,193 M,0,81625,81740,300,279,265.9495,337.7279 M,0,81740,81855,265.9495,337.7279,201.3521,328.7618
Sprite,Foreground,Centre,"sb/glow.png",0,0 S,2,81971,82801,1,0.2 F,2,81971,82801,1,0 P,0,81971,82801,A C,0,81971,,242,113,193 M,0,81971,82086,175,349,117.8099,312.3918 M,0,82086,82201,117.8099,312.3918,137.1107,253.3931
Sprite,Foreground,Centre,"sb/glow.png",185,245 S,2,82317,82917,1,0.2 F,2,82317,82917,1,0 P,0,82317,82917,A C,0,82317,,255,157,206
Sprite,Foreground,Centre,"sb/glow.png",201,191 S,2,82433,83033,1,0.2 F,2,82433,83033,1,0 P,0,82433,83033,A C,0,82433,,255,157,206
Sprite,Foreground,Centre,"sb/glow.png",0,0 S,2,82548,83609,1,0.2 F,2,82548,83609,1,0 P,0,82548,83609,A C,0,82548,,255,157,206 M,0,82548,82663,254,205,319.1002,226.7795 M,0,82663,82778,319.1002,226.7795,376.1923,264.7224 M,0,82778,82894,376.1923,264.7224,436.0176,298.0703 M,0,82894,83009,436.0176,298.0703,501.7788,317.9465
Sprite,Foreground,Centre,"sb/glow.png",538,122 S,2,83240,83840,1,0.2 F,2,83240,83840,1,0 P,0,83240,83840,A C,0,83240,,255,157,206
Sprite,Foreground,Centre,"sb/glow.png",0,0 S,2,83356,84186,1,0.2 F,2,83356,84186,1,0 P,0,83356,84186,A C,0,83356,,255,157,206 M,0,83356,83471,573,157,512.6919,186.9687 M,0,83471,83586,512.6919,186.9687,456.0157,223.0832
Sprite,Foreground,Centre,"sb/glow.png",456,223 S,2,83702,84302,1,0.2 F,2,83702,84302,1,0 P,0,83702,84302,A C,0,83702,,255,157,206
Sprite,Foreground,Centre,"sb/glow.png",0,0 S,2,83933,84648,1,0.2 F,2,83933,84648,1,0 P,0,83933,84648,A C,0,83933,,119,0,119 M,0,83933,84048,191,291,243.7092,328.798
Sprite,Foreground,Centre,"sb/glow.png",0,0 S,2,84164,84879,1,0.2 F,2,84164,84879,1,0 P,0,84164,84879,A C,0,84164,,119,0,119 M,0,84164,84279,130,249,141.1395,315.7649
Sprite,Foreground,Centre,"sb/glow.png",0,0 S,2,84394,85109,1,0.2 F,2,84394,85109,1,0 P,0,84394,85109,A C,0,84394,,119,0,119 M,0,84394,84509,89,188
Sprite,Foreground,Centre,"sb/glow.png",99,390 S,2,84740,85340,1,0.2 F,2,84740,85340,1,0 P,0,84740,85340,A C,0,84740,,242,113,193
Sprite,Foreground,Centre,"sb/glow.png",0,0 S,2,84856,85686,1,0.2 F,2,84856,85686,1,0 P,0,84856,85686,A C,0,84856,,242,113,193 M,0,84856,84971,99,390,155.241,427.0914 M,0,84971,85086,155.241,427.0914,222.3842,421.4201
Sprite,Foreground,Centre,"sb/glow.png",0,0 S,2,85202,86148,1,0.2 F,2,85202,86148,1,0 P,0,85202,86148,A C,0,85202,,242,113,193 M,0,85202,85317,260,430,257.0668,382.0589 M,0,85317,85432,257.0668,382.0589,290.752,322.8748 M,0,85432,85548,290.752,322.8748,297.8711,254.8154
Sprite,Foreground,Centre,"sb/glow.png",340,227 S,2,85664,86264,1,0.2 F,2,85664,86264,1,0 P,0,85664,86264,A C,0,85664,,242,113,193
Sprite,Foreground,Centre,"sb/glow.png",0,0 S,2,85779,86494,1,0.2 F,2,85779,86494,1,0 P,0,85779,86494,A C,0,85779,,242,113,193 M,0,85779,85894,289,207,248.9869,260.8601
Sprite,Foreground,Centre,"sb/glow.png",0,0 S,2,86010,86725,1,0.2 F,2,86010,86725,1,0 P,0,86010,86725,A C,0,86010,,242,113,193 M,0,86010,86125,390,243,430.0131,189.1399
Sprite,Foreground,Centre,"sb/glow.png",0,0 S,2,86240,87070,1,0.2 F,2,86240,87070,1,0 P,0,86240,87070,A C,0,86240,,255,157,206 M,0,86240,86355,566,351,499.3431,341.8838 M,0,86355,86470,499.3431,341.8838,442.6213,377.8862
Sprite,Foreground,Centre,"sb/glow.png",497,425 S,2,86587,87187,1,0.2 F,2,86587,87187,1,0 P,0,86587,87187,A C,0,86587,,255,157,206
Sprite,Foreground,Centre,"sb/glow.png",514,414 S,2,86702,87302,1,0.2 F,2,86702,87302,1,0 P,0,86702,87302,A C,0,86702,,255,157,206
Sprite,Foreground,Centre,"sb/glow.png",0,0 S,2,86933,87590,1,0.2 F,2,86933,87590,1,0 P,0,86933,87590,A C,0,86933,,255,157,206 M,0,86933,86990,322,342,332.045,374.8746
Sprite,Foreground,Centre,"sb/glow.png",476,264 S,2,87164,87764,1,0.2 F,2,87164,87764,1,0 P,0,87164,87764,A C,0,87164,,255,157,206
Sprite,Foreground,Centre,"sb/glow.png",336,136 S,2,87394,87994,1,0.2 F,2,87394,87994,1,0 P,0,87394,87994,A C,0,87394,,255,157,206
Sprite,Foreground,Centre,"sb/glow.png",120,229 S,2,87625,88225,1,0.2 F,2,87625,88225,1,0 P,0,87625,88225,A C,0,87625,,119,0,119
Sprite,Foreground,Centre,"sb/glow.png",120,229 S,2,87740,88340,1,0.2 F,2,87740,88340,1,0 P,0,87740,88340,A C,0,87740,,119,0,119
Sprite,Foreground,Centre,"sb/glow.png",120,229 S,2,87856,88456,1,0.2 F,2,87856,88456,1,0 P,0,87856,88456,A C,0,87856,,119,0,119
Sprite,Foreground,Centre,"sb/glow.png",120,229 S,2,87971,88571,1,0.2 F,2,87971,88571,1,0 P,0,87971,88571,A C,0,87971,,119,0,119
Sprite,Foreground,Centre,"sb/glow.png",120,229 S,2,88087,88687,1,0.2 F,2,88087,88687,1,0 P,0,88087,88687,A C,0,88087,,119,0,119
Sprite,Foreground,Centre,"sb/glow.png",439,279 S,2,88433,89033,1,0.2 F,2,88433,89033,1,0 P,0,88433,89033,A C,0,88433,,119,0,119
Sprite,Foreground,Centre,"sb/glow.png",0,0 S,2,88548,89378,1,0.2 F,2,88548,89378,1,0 P,0,88548,89378,A C,0,88548,,242,113,193 M,0,88548,88663,467,302,398.6705,309.5922 M,0,88663,88778,398.6705,309.5922,364.6341,252.4647
Sprite,Foreground,Centre,"sb/glow.png",0,0 S,2,88894,89840,1,0.2 F,2,88894,89840,1,0 P,0,88894,89840,A C,0,88894,,242,113,193 M,0,88894,89009,394,186,333.7864,187.1668 M,0,89009,89124,333.7864,187.1668,274.4085,218.3571 M,0,89124,89240,274.4085,218.3571,221.0654,199.3374
Sprite,Foreground,Centre,"sb/glow.png",231,169 S,2,89356,89956,1,0.2 F,2,89356,89956,1,0 P,0,89356,89956,A C,0,89356,,242,113,193
Sprite,Foreground,Centre,"sb/glow.png",0,0 S,2,89471,90301,1,0.2 F,2,89471,90301,1,0 P,0,89471,90301,A C,0,89471,,242,113,193 M,0,89471,89586,186,189,155.2308,242.5385 M,0,89586,89701,155.2308,242.5385,186,189
Sprite,Foreground,Centre,"sb/glow.png",0,0 S,2,89933,90879,1,0.2 F,2,89933,90879,1,0 P,0,89933,90879,A C,0,89933,,255,157,206 M,0,89933,90048,545,345,496.9193,298.8334 M,0,90048,90163,496.9193,298.8334,430.6184,287.3309 M,0,90163,90279,430.6184,287.3309,473.5928,316.2023
Sprite,Foreground,Centre,"sb/glow.png",0,0 S,2,90394,91109,1,0.2 F,2,90394,91109,1,0 P,0,90394,91109,A C,0,90394,,255,157,206 M,0,90394,90509,487,389,428.0274,406.4401
Sprite,Foreground,Centre,"sb/glow.png",0,0 S,2,90625,91340,1,0.2 F,2,90625,91340,1,0 P,0,90625,91340,A C,0,90625,,255,157,206 M,0,90625,90740,335,437,318.3725,370.3501
Sprite,Foreground,Centre,"sb/glow.png",277,249 S,2,90856,91456,1,0.2 F,2,90856,91456,1,0 P,0,90856,91456,A C,0,90856,,255,157,206
Sprite,Foreground,Centre,"sb/glow.png",115,230 S,2,91087,91687,1,0.2 F,2,91087,91687,1,0 P,0,91087,91687,A C,0,91087,,255,157,206
Sprite,Foreground,Centre,"sb/glow.png",115,230 S,2,91202,91802,1,0.2 F,2,91202,91802,1,0 P,0,91202,91802,A C,0,91202,,255,157,206
Sprite,Foreground,Centre,"sb/glow.png",0,0 S,2,91317,92147,1,0.2 F,2,91317,92147,1,0 P,0,91317,92147,A C,0,91317,,255,157,206 M,0,91317,91432,115,230,96.53106,288.8503 M,0,91432,91547,96.53106,288.8503,115,230
Sprite,Foreground,Centre,"sb/glow.png",0,0 S,2,91779,92725,1,0.2 F,2,91779,92725,1,0 P,0,91779,92725,A C,0,91779,,119,0,119 M,0,91779,91894,318,370,255.8224,359.6936 M,0,91894,92009,255.8224,359.6936,194.853,390.1934 M,0,92009,92125,194.853,390.1934,126.7332,389.1681
Sprite,Foreground,Centre,"sb/glow.png",0,0 S,2,92240,93186,1,0.2 F,2,92240,93186,1,0 P,0,92240,93186,A C,0,92240,,242,113,193 M,0,92240,92355,352,336,342.3345,274.1358 M,0,92355,92470,342.3345,274.1358,374.0838,213.7633 M,0,92470,92586,374.0838,213.7633,371.3262,145.9956
Sprite,Foreground,Centre,"sb/glow.png",0,0 S,2,92702,93648,1,0.2 F,2,92702,93648,1,0 P,0,92702,93648,A C,0,92702,,255,157,206 M,0,92702,92817,360,391,422.1776,380.6935 M,0,92817,92932,422.1776,380.6935,483.147,411.1934 M,0,92932,93048,483.147,411.1934,551.2667,410.1681
Sprite,Foreground,Centre,"sb/glow.png",535,367 S,2,93164,93764,1,0.2 F,2,93164,93764,1,0 P,0,93164,93764,A C,0,93164,,119,0,119
Sprite,Foreground,Centre,"sb/glow.png",502,342 S,2,93279,93879,1,0.2 F,2,93279,93879,1,0 P,0,93279,93879,A C,0,93279,,119,0,119
Sprite,Foreground,Centre,"sb/glow.png",501,296 S,2,93394,93994,1,0.2 F,2,93394,93994,1,0 P,0,93394,93994,A C,0,93394,,119,0,119
Sprite,Foreground,Centre,"sb/glow.png",470,251 S,2,93510,94110,1,0.2 F,2,93510,94110,1,0 P,0,93510,94110,A C,0,93510,,119,0,119
Sprite,Foreground,Centre,"sb/glow.png",0,0 S,2,93625,94455,1,0.2 F,2,93625,94455,1,0 P,0,93625,94455,A C,0,93625,,119,0,119 M,0,93625,93740,425,236,446.0248,279.5717 M,0,93740,93855,446.0248,279.5717,444.9153,231.4108
Sprite,Foreground,Centre,"sb/glow.png",0,0 S,2,93971,94801,1,0.2 F,2,93971,94801,1,0 P,0,93971,94801,A C,0,93971,,119,0,119 M,0,93971,94086,434,197,415.1434,152.1581 M,0,94086,94201,415.1434,152.1581,413.2396,200.699
Sprite,Foreground,Centre,"sb/glow.png",518,193 S,2,94317,94917,1,0.2 F,2,94317,94917,1,0 P,0,94317,94917,A C,0,94317,,242,113,193
Sprite,Foreground,Centre,"sb/glow.png",0,0 S,2,94548,95263,1,0.2 F,2,94548,95263,1,0 P,0,94548,95263,A C,0,94548,,242,113,193 M,0,94548,94663,549,326,559.553,258.0648
Sprite,Foreground,Centre,"sb/glow.png",456,347 S,2,94779,95379,1,0.2 F,2,94779,95379,1,0 P,0,94779,95379,A C,0,94779,,242,113,193
Sprite,Foreground,Centre,"sb/glow.png",465,384 S,2,94894,95494,1,0.2 F,2,94894,95494,1,0 P,0,94894,95494,A C,0,94894,,242,113,193
Sprite,Foreground,Centre,"sb/glow.png",0,0 S,2,95010,95725,1,0.2 F,2,95010,95725,1,0 P,0,95010,95725,A C,0,95010,,242,113,193 M,0,95010,95125,495,407,433.8497,436.6182
Sprite,Foreground,Centre,"sb/glow.png",0,0 S,2,95240,95955,1,0.2 F,2,95240,95955,1,0 P,0,95240,95955,A C,0,95240,,242,113,193 M,0,95240,95355,250,400,318.5234,405.5775
Sprite,Foreground,Centre,"sb/glow.png",0,0 S,2,95471,96301,1,0.2 F,2,95471,96301,1,0 P,0,95471,96301,A C,0,95471,,255,157,206 M,0,95471,95586,174,308,242.6084,312.4106 M,0,95586,95701,242.6084,312.4106,311.2168,316.8211
Sprite,Foreground,Centre,"sb/glow.png",362,319 S,2,95817,96417,1,0.2 F,2,95817,96417,1,0 P,0,95817,96417,A C,0,95817,,255,157,206
Sprite,Foreground,Centre,"sb/glow.png",496,229 S,2,96048,96648,1,0.2 F,2,96048,96648,1,0 P,0,96048,96648,A C,0,96048,,255,157,206
Sprite,Foreground,Centre,"sb/glow.png",463,259 S,2,96164,96764,1,0.2 F,2,96164,96764,1,0 P,0,96164,96764,A C,0,96164,,255,157,206
Sprite,Foreground,Centre,"sb/glow.png",468,287 S,2,96279,96879,1,0.2 F,2,96279,96879,1,0 P,0,96279,96879,A C,0,96279,,255,157,206
Sprite,Foreground,Centre,"sb/glow.png",0,0 S,2,96394,97224,1,0.2 F,2,96394,97224,1,0 P,0,96394,97224,A C,0,96394,,255,157,206 M,0,96394,96509,481,302,460.1981,237.9718 M,0,96509,96624,460.1981,237.9718,403.2626,202.1837
Sprite,Foreground,Centre,"sb/glow.png",0,0 S,2,96740,97570,1,0.2 F,2,96740,97570,1,0 P,0,96740,97570,A C,0,96740,,255,157,206 M,0,96740,96855,260,134,328.4702,128.2263 M,0,96855,96970,328.4702,128.2263,397.1572,130.0392
Sprite,Foreground,Centre,"sb/glow.png",511,101 S,2,97087,97687,1,0.2 F,2,97087,97687,1,0 P,0,97087,97687,A C,0,97087,,255,157,206
Sprite,Foreground,Centre,"sb/glow.png",0,0 S,2,97202,98263,1,0.2 F,2,97202,98263,1,0 P,0,97202,98263,A C,0,97202,,255,157,206 M,0,97202,97317,511,101,509.7684,168.135 M,0,97317,97432,509.7684,168.135,477.2119,228.6094 M,0,97432,97548,477.2119,228.6094,475.6044,295.4739 M,0,97548,97663,475.6044,295.4739,526.2023,338.4473
Sprite,Foreground,Centre,"sb/glow.png",0,0 S,2,97779,98609,1,0.2 F,2,97779,98609,1,0 P,0,97779,98609,A C,0,97779,,255,157,206 M,0,97779,97894,547,264,478.2679,265.571 M,0,97894,98009,478.2679,265.571,409.5359,267.142
Sprite,Foreground,Centre,"sb/glow.png",0,0 S,2,98125,98955,1,0.2 F,2,98125,98955,1,0 P,0,98125,98955,A C,0,98125,,119,0,119 M,0,98125,98240,293,296,325.9303,353.8619 M,0,98240,98355,325.9303,353.8619,390.9335,367.5403
Sprite,Foreground,Centre,"sb/glow.png",442,348 S,2,98471,99071,1,0.2 F,2,98471,99071,1,0 P,0,98471,99071,A C,0,98471,,119,0,119
Sprite,Foreground,Centre,"sb/glow.png",465,297 S,2,98587,99187,1,0.2 F,2,98587,99187,1,0 P,0,98587,99187,A C,0,98587,,119,0,119
Sprite,Foreground,Centre,"sb/glow.png",436,250 S,2,98702,99302,1,0.2 F,2,98702,99302,1,0 P,0,98702,99302,A C,0,98702,,119,0,119
Sprite,Foreground,Centre,"sb/glow.png",403,205 S,2,98817,99417,1,0.2 F,2,98817,99417,1,0 P,0,98817,99417,A C,0,98817,,119,0,119
Sprite,Foreground,Centre,"sb/glow.png",413,150 S,2,98933,99533,1,0.2 F,2,98933,99533,1,0 P,0,98933,99533,A C,0,98933,,119,0,119
Sprite,Foreground,Centre,"sb/glow.png",460,122 S,2,99048,99648,1,0.2 F,2,99048,99648,1,0 P,0,99048,99648,A C,0,99048,,119,0,119
Sprite,Foreground,Centre,"sb/glow.png",0,0 S,2,99164,100110,1,0.2 F,2,99164,100110,1,0 P,0,99164,100110,A C,0,99164,,242,113,193 M,0,99164,99279,513,137,450.6686,108.7345 M,0,99279,99394,450.6686,108.7345,382.6473,101.3666 M,0,99394,99510,382.6473,101.3666,315.7222,115.5876
Sprite,Foreground,Centre,"sb/glow.png",256,152 S,2,99625,100225,1,0.2 F,2,99625,100225,1,0 P,0,99625,100225,A C,0,99625,,242,113,193
Sprite,Foreground,Centre,"sb/glow.png",96,227 S,2,99856,100456,1,0.2 F,2,99856,100456,1,0 P,0,99856,100456,A C,0,99856,,242,113,193
Sprite,Foreground,Centre,"sb/glow.png",0,0 S,2,99971,100801,1,0.2 F,2,99971,100801,1,0 P,0,99971,100801,A C,0,99971,,242,113,193 M,0,99971,100086,136,218,183.7566,262.6747 M,0,100086,100201,183.7566,262.6747,246.1,243.0305
Sprite,Foreground,Centre,"sb/glow.png",0,0 S,2,100317,101032,1,0.2 F,2,100317,101032,1,0 P,0,100317,101032,A C,0,100317,,242,113,193 M,0,100317,100432,419,267,434.8474,277.4861
Sprite,Foreground,Centre,"sb/glow.png",0,0 S,2,100548,101263,1,0.2 F,2,100548,101263,1,0 P,0,100548,101263,A C,0,100548,,242,113,193 M,0,100548,100663,437,407,417.894,414.3594
Sprite,Foreground,Centre,"sb/glow.png",0,0 S,2,100779,101494,1,0.2 F,2,100779,101494,1,0 P,0,100779,101494,A C,0,100779,,242,113,193 M,0,100779,100894,306,353,306.9542,332.5076
Sprite,Foreground,Centre,"sb/glow.png",0,0 S,2,101010,101840,1,0.2 F,2,101010,101840,1,0 P,0,101010,101840,A C,0,101010,,255,157,206 M,0,101010,101125,387,342,454.4149,355.483 M,0,101125,101240,454.4149,355.483,521.8298,368.966
Sprite,Foreground,Centre,"sb/glow.png",0,0 S,2,101356,102186,1,0.2 F,2,101356,102186,1,0 P,0,101356,102186,A C,0,101356,,255,157,206 M,0,101356,101471,531,291,463.5851,277.517 M,0,101471,101586,463.5851,277.517,396.1702,264.034
Sprite,Foreground,Centre,"sb/glow.png",0,0 S,2,101702,102532,1,0.2 F,2,101702,102532,1,0 P,0,101702,102532,A C,0,101702,,255,157,206 M,0,101702,101817,397,183,464.4149,196.483 M,0,101817,101932,464.4149,196.483,531.8298,209.966
Sprite,Foreground,Centre,"sb/glow.png",478,196 S,2,102048,102648,1,0.2 F,2,102048,102648,1,0 P,0,102048,102648,A C,0,102048,,255,157,206
Sprite,Foreground,Centre,"sb/glow.png",456,144 S,2,102164,102764,1,0.2 F,2,102164,102764,1,0 P,0,102164,102764,A C,0,102164,,255,157,206
Sprite,Foreground,Centre,"sb/glow.png",474,92 S,2,102279,102879,1,0.2 F,2,102279,102879,1,0 P,0,102279,102879,A C,0,102279,,255,157,206
Sprite,Foreground,Centre,"sb/glow.png",0,0 S,2,102394,103224,1,0.2 F,2,102394,103224,1,0 P,0,102394,103224,A C,0,102394,,255,157,206 M,0,102394,102509,528,88,554.3082,70.17088 M,0,102509,102624,554.3082,70.17088,485.6191,67.2787
Sprite,Foreground,Centre,"sb/glow.png",0,0 S,2,102856,103686,1,0.2 F,2,102856,103686,1,0 P,0,102856,103686,A C,0,102856,,119,0,119 M,0,102856,102971,199,124,266.1559,138.7191 M,0,102971,103086,266.1559,138.7191,333.3117,153.4382
Sprite,Foreground,Centre,"sb/glow.png",0,0 S,2,103202,104032,1,0.2 F,2,103202,104032,1,0 P,0,103202,104032,A C,0,103202,,119,0,119 M,0,103202,103317,375,87,354.8248,143.0163 M,0,103317,103432,354.8248,143.0163,371.8235,208.3107
Sprite,Foreground,Centre,"sb/glow.png",355,261 S,2,103548,104148,1,0.2 F,2,103548,104148,1,0 P,0,103548,104148,A C,0,103548,,119,0,119
Sprite,Foreground,Centre,"sb/glow.png",479,363 S,2,103779,104379,1,0.2 F,2,103779,104379,1,0 P,0,103779,104379,A C,0,103779,,119,0,119
Sprite,Foreground,Centre,"sb/glow.png",479,363 S,2,103894,104494,1,0.2 F,2,103894,104494,1,0 P,0,103894,104494,A C,0,103894,,119,0,119
Sprite,Foreground,Centre,"sb/glow.png",0,0 S,2,104010,104725,1,0.2 F,2,104010,104725,1,0 P,0,104010,104725,A C,0,104010,,119,0,119 M,0,104010,104125,518,325,449.4247,320.1018
Sprite,Foreground,Centre,"sb/glow.png",0,0 S,2,104240,104955,1,0.2 F,2,104240,104955,1,0 P,0,104240,104955,A C,0,104240,,119,0,119 M,0,104240,104355,291,371,359,375
Sprite,Foreground,Centre,"sb/glow.png",203,411 S,2,104471,105071,1,0.2 F,2,104471,105071,1,0 P,0,104471,105071,A C,0,104471,,119,0,119
Sprite,Foreground,Centre,"sb/glow.png",180,360 S,2,104587,105187,1,0.2 F,2,104587,105187,1,0 P,0,104587,105187,A C,0,104587,,119,0,119
Sprite,Foreground,Centre,"sb/glow.png",0,0 S,2,104702,105648,1,0.2 F,2,104702,105648,1,0 P,0,104702,105648,A C,0,104702,,119,0,119 M,0,104702,104817,209,313,185.3788,248.4353 M,0,104817,104932,185.3788,248.4353,222.4236,206.2482 M,0,104932,105048,222.4236,206.2482,244.9728,155.2003
Sprite,Foreground,Centre,"sb/glow.png",0,0 S,2,105164,105994,1,0.2 F,2,105164,105994,1,0 P,0,105164,105994,A C,0,105164,,119,0,119 M,0,105164,105279,154,132,188.7197,75.12334 M,0,105279,105394,188.7197,75.12334,254.036,62.68316
Sprite,Foreground,Centre,"sb/glow.png",82,87 S,2,105625,106225,1,0.2 F,2,105625,106225,1,0 P,0,105625,106225,A C,0,105625,,242,113,193
Sprite,Foreground,Centre,"sb/glow.png",165,378 S,2,105971,106571,1,0.2 F,2,105971,106571,1,0 P,0,105971,106571,A C,0,105971,,242,113,193
Sprite,Foreground,Centre,"sb/glow.png",497,144 S,2,106317,106917,1,0.2 F,2,106317,106917,1,0 P,0,106317,106917,A C,0,106317,,242,113,193
Sprite,Foreground,Centre,"sb/glow.png",493,272 S,2,106548,107148,1,0.2 F,2,106548,107148,1,0 P,0,106548,107148,A C,0,106548,,242,113,193
Sprite,Foreground,Centre,"sb/glow.png",445,263 S,2,106664,107264,1,0.2 F,2,106664,107264,1,0 P,0,106664,107264,A C,0,106664,,242,113,193
Sprite,Foreground,Centre,"sb/glow.png",401,283 S,2,106779,107379,1,0.2 F,2,106779,107379,1,0 P,0,106779,107379,A C,0,106779,,242,113,193
Sprite,Foreground,Centre,"sb/glow.png",374,323 S,2,106894,107494,1,0.2 F,2,106894,107494,1,0 P,0,106894,107494,A C,0,106894,,242,113,193
Sprite,Foreground,Centre,"sb/glow.png",0,0 S,2,107010,107956,1,0.2 F,2,107010,107956,1,0 P,0,107010,107956,A C,0,107010,,242,113,193 M,0,107010,107125,373,371,314.251,398.2127 M,0,107125,107240,314.251,398.2127,373,371 M,0,107240,107356,373,371,314.251,398.2127
Sprite,Foreground,Centre,"sb/glow.png",98,363 S,2,107471,108071,1,0.2 F,2,107471,108071,1,0 P,0,107471,108071,A C,0,107471,,255,157,206
Sprite,Foreground,Centre,"sb/glow.png",124,340 S,2,107587,108187,1,0.2 F,2,107587,108187,1,0 P,0,107587,108187,A C,0,107587,,255,157,206
Sprite,Foreground,Centre,"sb/glow.png",155,326 S,2,107702,108302,1,0.2 F,2,107702,108302,1,0 P,0,107702,108302,A C,0,107702,,255,157,206
Sprite,Foreground,Centre,"sb/glow.png",189,324 S,2,107817,108417,1,0.2 F,2,107817,108417,1,0 P,0,107817,108417,A C,0,107817,,255,157,206
Sprite,Foreground,Centre,"sb/glow.png",0,0 S,2,107933,108879,1,0.2 F,2,107933,108879,1,0 P,0,107933,108879,A C,0,107933,,255,157,206 M,0,107933,108048,222,332,287.4719,312.6501 M,0,108048,108163,287.4719,312.6501,222,332 M,0,108163,108279,222,332,287.4719,312.6501
Sprite,Foreground,Centre,"sb/glow.png",480,278 S,2,108394,108994,1,0.2 F,2,108394,108994,1,0 P,0,108394,108994,A C,0,108394,,119,0,119
Sprite,Foreground,Centre,"sb/glow.png",448,232 S,2,108510,109110,1,0.2 F,2,108510,109110,1,0 P,0,108510,109110,A C,0,108510,,119,0,119
Sprite,Foreground,Centre,"sb/glow.png",400,205 S,2,108625,109225,1,0.2 F,2,108625,109225,1,0 P,0,108625,109225,A C,0,108625,,119,0,119
Sprite,Foreground,Centre,"sb/glow.png",345,201 S,2,108740,109340,1,0.2 F,2,108740,109340,1,0 P,0,108740,109340,A C,0,108740,,119,0,119
Sprite,Foreground,Centre,"sb/glow.png",0,0 S,2,108856,109571,1,0.2 F,2,108856,109571,1,0 P,0,108856,109571,A C,0,108856,,119,0,119 M,0,108856,108971,290,212,222.7433,214.7176
Sprite,Foreground,Centre,"sb/glow.png",0,0 S,2,109087,109802,1,0.2 F,2,109087,109802,1,0 P,0,109087,109802,A C,0,109087,,119,0,119 M,0,109087,109202,108,163,133.0699,154.4405
Sprite,Foreground,Centre,"sb/glow.png",186,369 S,2,109317,109917,1,0.2 F,2,109317,109917,1,0 P,0,109317,109917,A C,0,109317,,242,113,193
Sprite,Foreground,Centre,"sb/glow.png",247,378 S,2,109433,110033,1,0.2 F,2,109433,110033,1,0 P,0,109433,110033,A C,0,109433,,242,113,193
Sprite,Foreground,Centre,"sb/glow.png",298,344 S,2,109548,110148,1,0.2 F,2,109548,110148,1,0 P,0,109548,110148,A C,0,109548,,242,113,193
Sprite,Foreground,Centre,"sb/glow.png",316,284 S,2,109664,110264,1,0.2 F,2,109664,110264,1,0 P,0,109664,110264,A C,0,109664,,242,113,193
Sprite,Foreground,Centre,"sb/glow.png",314,222 S,2,109779,110379,1,0.2 F,2,109779,110379,1,0 P,0,109779,110379,A C,0,109779,,242,113,193
Sprite,Foreground,Centre,"sb/glow.png",338,165 S,2,109894,110494,1,0.2 F,2,109894,110494,1,0 P,0,109894,110494,A C,0,109894,,242,113,193
Sprite,Foreground,Centre,"sb/glow.png",398,151 S,2,110010,110610,1,0.2 F,2,110010,110610,1,0 P,0,110010,110610,A C,0,110010,,242,113,193
Sprite,Foreground,Centre,"sb/glow.png",455,173 S,2,110125,110725,1,0.2 F,2,110125,110725,1,0 P,0,110125,110725,A C,0,110125,,242,113,193
Sprite,Foreground,Centre,"sb/glow.png",0,0 S,2,139779,140609,1,0.2 F,2,139779,140609,1,0 P,0,139779,140609,A C,0,139779,,242,113,193 M,0,139779,139894,361,345,424.7322,370.5296 M,0,139894,140009,424.7322,370.5296,487.3896,356.8065
Sprite,Foreground,Centre,"sb/glow.png",0,0 S,2,140125,140955,1,0.2 F,2,140125,140955,1,0 P,0,140125,140955,A C,0,140125,,242,113,193 M,0,140125,140240,532,366,549.6444,308.1703 M,0,140240,140355,549.6444,308.1703,532,366
Sprite,Foreground,Centre,"sb/glow.png",471,276 S,2,140471,141071,1,0.2 F,2,140471,141071,1,0 P,0,140471,141071,A C,0,140471,,255,157,206
Sprite,Foreground,Centre,"sb/glow.png",459,255 S,2,140587,141187,1,0.2 F,2,140587,141187,1,0 P,0,140587,141187,A C,0,140587,,255,157,206
Sprite,Foreground,Centre,"sb/glow.png",0,0 S,2,140702,141532,1,0.2 F,2,140702,141532,1,0 P,0,140702,141532,A C,0,140702,,255,157,206 M,0,140702,140817,440,240,374.3334,221.0514 M,0,140817,140932,374.3334,221.0514,366.7158,250.3635
Sprite,Foreground,Centre,"sb/glow.png",0,0 S,2,141048,141878,1,0.2 F,2,141048,141878,1,0 P,0,141048,141878,A C,0,141048,,255,157,206 M,0,141048,141163,317,273,259.2537,238.2165 M,0,141163,141278,259.2537,238.2165,317,273
Sprite,Foreground,Centre,"sb/glow.png",245,314 S,2,141394,141994,1,0.2 F,2,141394,141994,1,0 P,0,141394,141994,A C,0,141394,,119,0,119
Sprite,Foreground,Centre,"sb/glow.png",173,286 S,2,141510,142110,1,0.2 F,2,141510,142110,1,0 P,0,141510,142110,A C,0,141510,,119,0,119
Sprite,Foreground,Centre,"sb/glow.png",0,0 S,2,141625,142571,1,0.2 F,2,141625,142571,1,0 P,0,141625,142571,A C,0,141625,,119,0,119 M,0,141625,141740,125,314,88.31546,341.3266 M,0,141740,141855,88.31546,341.3266,92.06804,272.8025 M,0,141855,141971,92.06804,272.8025,82.70212,204.7815
Sprite,Foreground,Centre,"sb/glow.png",0,0 S,2,142087,142917,1,0.2 F,2,142087,142917,1,0 P,0,142087,142917,A C,0,142087,,242,113,193 M,0,142087,142202,64,133,131.6989,131.3593 M,0,142202,142317,131.6989,131.3593,193.3014,161.0968
Sprite,Foreground,Centre,"sb/glow.png",0,0 S,2,142433,143263,1,0.2 F,2,142433,143263,1,0 P,0,142433,143263,A C,0,142433,,242,113,193 M,0,142433,142548,271,174,203.9251,183.9186 M,0,142548,142663,203.9251,183.9186,222.4924,189.3657
Sprite,Foreground,Centre,"sb/glow.png",0,0 S,2,142779,143494,1,0.2 F,2,142779,143494,1,0 P,0,142779,143494,A C,0,142779,,255,157,206 M,0,142779,142894,271,174,319.2833,216.2572
Sprite,Foreground,Centre,"sb/glow.png",0,0 S,2,143010,143725,1,0.2 F,2,143010,143725,1,0 P,0,143010,143725,A C,0,143010,,255,157,206 M,0,143010,143125,378,174,444.072,166.6006
Sprite,Foreground,Centre,"sb/glow.png",0,0 S,2,143240,143955,1,0.2 F,2,143240,143955,1,0 P,0,143240,143955,A C,0,143240,,255,157,206 M,0,143240,143355,507,123,501.3978,118.6696
Sprite,Foreground,Centre,"sb/glow.png",397,77 S,2,143471,144071,1,0.2 F,2,143471,144071,1,0 P,0,143471,144071,A C,0,143471,,119,0,119
Sprite,Foreground,Centre,"sb/glow.png",0,0 S,2,143933,144763,1,0.2 F,2,143933,144763,1,0 P,0,143933,144763,A C,0,143933,,119,0,119 M,0,143933,144048,504,330,439.1649,308.2737 M,0,144048,144163,439.1649,308.2737,377.8903,337.1386
Sprite,Foreground,Centre,"sb/glow.png",395,367 S,2,144279,144879,1,0.2 F,2,144279,144879,1,0 P,0,144279,144879,A C,0,144279,,119,0,119
Sprite,Foreground,Centre,"sb/glow.png",0,0 S,2,144394,145224,1,0.2 F,2,144394,145224,1,0 P,0,144394,145224,A C,0,144394,,119,0,119 M,0,144394,144509,348,387,290.4933,349.3232 M,0,144509,144624,290.4933,349.3232,295.2854,416.955
Sprite,Foreground,Centre,"sb/glow.png",0,0 S,2,144856,145571,1,0.2 F,2,144856,145571,1,0 P,0,144856,145571,A C,0,144856,,242,113,193 M,0,144856,144971,69,282,130.6647,307.0458
Sprite,Foreground,Centre,"sb/glow.png",199,279 S,2,145087,145687,1,0.2 F,2,145087,145687,1,0 P,0,145087,145687,A C,0,145087,,242,113,193
Sprite,Foreground,Centre,"sb/glow.png",199,279 S,2,145317,145917,1,0.2 F,2,145317,145917,1,0 P,0,145317,145917,A C,0,145317,,242,113,193
Sprite,Foreground,Centre,"sb/glow.png",251,261 S,2,145433,146033,1,0.2 F,2,145433,146033,1,0 P,0,145433,146033,A C,0,145433,,242,113,193
Sprite,Foreground,Centre,"sb/glow.png",297,232 S,2,145548,146148,1,0.2 F,2,145548,146148,1,0 P,0,145548,146148,A C,0,145548,,242,113,193
Sprite,Foreground,Centre,"sb/glow.png",350,246 S,2,145664,146264,1,0.2 F,2,145664,146264,1,0 P,0,145664,146264,A C,0,145664,,242,113,193
Sprite,Foreground,Centre,"sb/glow.png",0,0 S,2,145779,146609,1,0.2 F,2,145779,146609,1,0 P,0,145779,146609,A C,0,145779,,242,113,193 M,0,145779,145894,404,253,415.6673,319.9435 M,0,145894,146009,415.6673,319.9435,392.7606,383.8676
Sprite,Foreground,Centre,"sb/glow.png",0,0 S,2,146240,147070,1,0.2 F,2,146240,147070,1,0 P,0,146240,147070,A C,0,146240,,242,113,193 M,0,146240,146355,557,271,545.3328,204.0564 M,0,146355,146470,545.3328,204.0564,568.2394,140.1324
Sprite,Foreground,Centre,"sb/glow.png",426,61 S,2,146702,147302,1,0.2 F,2,146702,147302,1,0 P,0,146702,147302,A C,0,146702,,255,157,206
Sprite,Foreground,Centre,"sb/glow.png",371,60 S,2,146817,147417,1,0.2 F,2,146817,147417,1,0 P,0,146817,147417,A C,0,146817,,255,157,206
Sprite,Foreground,Centre,"sb/glow.png",315,87 S,2,146933,147533,1,0.2 F,2,146933,147533,1,0 P,0,146933,147533,A C,0,146933,,255,157,206
Sprite,Foreground,Centre,"sb/glow.png",283,147 S,2,147048,147648,1,0.2 F,2,147048,147648,1,0 P,0,147048,147648,A C,0,147048,,255,157,206
Sprite,Foreground,Centre,"sb/glow.png",303,220 S,2,147164,147764,1,0.2 F,2,147164,147764,1,0 P,0,147164,147764,A C,0,147164,,255,157,206
Sprite,Foreground,Centre,"sb/glow.png",0,0 S,2,147625,148340,1,0.2 F,2,147625,148340,1,0 P,0,147625,148340,A C,0,147625,,119,0,119 M,0,147625,147740,303,220,291.6976,287.8146
Sprite,Foreground,Centre,"sb/glow.png",321,357 S,2,147856,148456,1,0.2 F,2,147856,148456,1,0 P,0,147856,148456,A C,0,147856,,119,0,119
Sprite,Foreground,Centre,"sb/glow.png",0,0 S,2,147971,148917,1,0.2 F,2,147971,148917,1,0 P,0,147971,148917,A C,0,147971,,119,0,119 M,0,147971,148086,279,381,215.7633,355.6887 M,0,148086,148201,215.7633,355.6887,150.245,373.2818 M,0,148201,148317,150.245,373.2818,155.7504,420.4577
Sprite,Foreground,Centre,"sb/glow.png",140,440 S,2,148433,149033,1,0.2 F,2,148433,149033,1,0 P,0,148433,149033,A C,0,148433,,119,0,119
Sprite,Foreground,Centre,"sb/glow.png",183,413 S,2,148548,149148,1,0.2 F,2,148548,149148,1,0 P,0,148548,149148,A C,0,148548,,119,0,119
Sprite,Foreground,Centre,"sb/glow.png",0,0 S,2,148779,149494,1,0.2 F,2,148779,149494,1,0 P,0,148779,149494,A C,0,148779,,242,113,193 M,0,148779,148894,75,268,56.02832,332.6524
Sprite,Foreground,Centre,"sb/glow.png",0,0 S,2,149010,150071,1,0.2 F,2,149010,150071,1,0 P,0,149010,150071,A C,0,149010,,242,113,193 M,0,149010,149125,148,216,205.0239,245.914 M,0,149125,149240,205.0239,245.914,261.8029,275.9088 M,0,149240,149356,261.8029,275.9088,329.4371,277.0229 M,0,149356,149471,329.4371,277.0229,392.9655,298.9415
Sprite,Foreground,Centre,"sb/glow.png",553,166 S,2,149702,150302,1,0.2 F,2,149702,150302,1,0 P,0,149702,150302,A C,0,149702,,242,113,193
Sprite,Foreground,Centre,"sb/glow.png",553,166 S,2,149817,150417,1,0.2 F,2,149817,150417,1,0 P,0,149817,150417,A C,0,149817,,242,113,193
Sprite,Foreground,Centre,"sb/glow.png",0,0 S,2,149933,150648,1,0.2 F,2,149933,150648,1,0 P,0,149933,150648,A C,0,149933,,242,113,193 M,0,149933,150048,527,192,462.184,169.0773
Sprite,Foreground,Centre,"sb/glow.png",343,110 S,2,150164,150764,1,0.2 F,2,150164,150764,1,0 P,0,150164,150764,A C,0,150164,,242,113,193
Sprite,Foreground,Centre,"sb/glow.png",343,110 S,2,150279,150879,1,0.2 F,2,150279,150879,1,0 P,0,150279,150879,A C,0,150279,,242,113,193
Sprite,Foreground,Centre,"sb/glow.png",0,0 S,2,150394,151224,1,0.2 F,2,150394,151224,1,0 P,0,150394,151224,A C,0,150394,,242,113,193 M,0,150394,150509,384,102,354.6408,162.3672 M,0,150509,150624,354.6408,162.3672,384,102
Sprite,Foreground,Centre,"sb/glow.png",0,0 S,2,150856,151802,1,0.2 F,2,150856,151802,1,0 P,0,150856,151802,A C,0,150856,,255,157,206 M,0,150856,150971,279,260,215.9448,234.8039 M,0,150971,151086,215.9448,234.8039,148.7384,244.3844 M,0,151086,151202,148.7384,244.3844,95.61604,286.6393
Sprite,Foreground,Centre,"sb/glow.png",0,0 S,2,151317,152263,1,0.2 F,2,151317,152263,1,0 P,0,151317,152263,A C,0,151317,,119,0,119 M,0,151317,151432,251,300,225.8039,236.9448 M,0,151432,151547,225.8039,236.9448,235.3844,169.7384 M,0,151547,151663,235.3844,169.7384,277.6393,116.616
Sprite,Foreground,Centre,"sb/glow.png",0,0 S,2,151779,152725,1,0.2 F,2,151779,152725,1,0 P,0,151779,152725,A C,0,151779,,242,113,193 M,0,151779,151894,208,312,261.5296,353.7936 M,0,151894,152009,261.5296,353.7936,328.7512,363.0452 M,0,152009,152125,328.7512,363.0452,391,338
Sprite,Foreground,Centre,"sb/glow.png",405,319 S,2,152240,152840,1,0.2 F,2,152240,152840,1,0 P,0,152240,152840,A C,0,152240,,242,113,193
Sprite,Foreground,Centre,"sb/glow.png",449,328 S,2,152356,152956,1,0.2 F,2,152356,152956,1,0 P,0,152356,152956,A C,0,152356,,242,113,193
Sprite,Foreground,Centre,"sb/glow.png",484,292 S,2,152471,153071,1,0.2 F,2,152471,153071,1,0 P,0,152471,153071,A C,0,152471,,242,113,193
Sprite,Foreground,Centre,"sb/glow.png",527,311 S,2,152587,153187,1,0.2 F,2,152587,153187,1,0 P,0,152587,153187,A C,0,152587,,242,113,193
Sprite,Foreground,Centre,"sb/glow.png",0,0 S,2,152702,153532,1,0.2 F,2,152702,153532,1,0 P,0,152702,153532,A C,0,152702,,255,157,206 M,0,152702,152817,576,261,554.1985,196.2992 M,0,152817,152932,554.1985,196.2992,527.7679,210.676
Sprite,Foreground,Centre,"sb/glow.png",0,0 S,2,153048,153878,1,0.2 F,2,153048,153878,1,0 P,0,153048,153878,A C,0,153048,,255,157,206 M,0,153048,153163,576,261,554.1985,325.7007 M,0,153163,153278,554.1985,325.7007,527.7679,311.324
Sprite,Foreground,Centre,"sb/glow.png",527,311 S,2,153394,153994,1,0.2 F,2,153394,153994,1,0 P,0,153394,153994,A C,0,153394,,119,0,119
Sprite,Foreground,Centre,"sb/glow.png",354,308 S,2,153625,154225,1,0.2 F,2,153625,154225,1,0 P,0,153625,154225,A C,0,153625,,119,0,119
Sprite,Foreground,Centre,"sb/glow.png",361,288 S,2,153740,154340,1,0.2 F,2,153740,154340,1,0 P,0,153740,154340,A C,0,153740,,119,0,119
Sprite,Foreground,Centre,"sb/glow.png",0,0 S,2,153856,154571,1,0.2 F,2,153856,154571,1,0 P,0,153856,154571,A C,0,153856,,119,0,119 M,0,153856,153971,313,265,299.8542,332.4815
Sprite,Foreground,Centre,"sb/glow.png",215,390 S,2,154087,154687,1,0.2 F,2,154087,154687,1,0 P,0,154087,154687,A C,0,154087,,119,0,119
Sprite,Foreground,Centre,"sb/glow.png",194,359 S,2,154202,154802,1,0.2 F,2,154202,154802,1,0 P,0,154202,154802,A C,0,154202,,119,0,119
Sprite,Foreground,Centre,"sb/glow.png",0,0 S,2,154317,155032,1,0.2 F,2,154317,155032,1,0 P,0,154317,155032,A C,0,154317,,119,0,119 M,0,154317,154432,238,319,218.2048,255.057
Sprite,Foreground,Centre,"sb/glow.png",0,0 S,2,154548,155378,1,0.2 F,2,154548,155378,1,0 P,0,154548,155378,A C,0,154548,,242,113,193 M,0,154548,154663,83,274,149.8609,258.4523 M,0,154663,154778,149.8609,258.4523,218.4337,255.4731
Sprite,Foreground,Centre,"sb/glow.png",0,0 S,2,154894,155609,1,0.2 F,2,154894,155609,1,0 P,0,154894,155609,A C,0,154894,,242,113,193 M,0,154894,155009,292,186,320.8597,248.3994
Sprite,Foreground,Centre,"sb/glow.png",0,0 S,2,155240,156070,1,0.2 F,2,155240,156070,1,0 P,0,155240,156070,A C,0,155240,,242,113,193 M,0,155240,155355,320,248,388.1464,247.3727 M,0,155355,155470,388.1464,247.3727,449.2587,217.2959
Sprite,Foreground,Centre,"sb/glow.png",0,0 S,2,155702,156417,1,0.2 F,2,155702,156417,1,0 P,0,155702,156417,A C,0,155702,,242,113,193 M,0,155702,155817,558,198,526.5155,136.883
Sprite,Foreground,Centre,"sb/glow.png",526,136 S,2,156048,156648,1,0.2 F,2,156048,156648,1,0 P,0,156048,156648,A C,0,156048,,255,157,206
Sprite,Foreground,Centre,"sb/glow.png",505,179 S,2,156164,156764,1,0.2 F,2,156164,156764,1,0 P,0,156164,156764,A C,0,156164,,255,157,206
Sprite,Foreground,Centre,"sb/glow.png",515,213 S,2,156279,156879,1,0.2 F,2,156279,156879,1,0 P,0,156279,156879,A C,0,156279,,255,157,206
Sprite,Foreground,Centre,"sb/glow.png",0,0 S,2,156394,157224,1,0.2 F,2,156394,157224,1,0 P,0,156394,157224,A C,0,156394,,255,157,206 M,0,156394,156509,536,228,557.6871,292.7129 M,0,156509,156624,557.6871,292.7129,552.426,360.7566
Sprite,Foreground,Centre,"sb/glow.png",502,394 S,2,156740,157340,1,0.2 F,2,156740,157340,1,0 P,0,156740,157340,A C,0,156740,,255,157,206
Sprite,Foreground,Centre,"sb/glow.png",0,0 S,2,156856,157802,1,0.2 F,2,156856,157802,1,0 P,0,156856,157802,A C,0,156856,,255,157,206 M,0,156856,156971,443,385,375.7127,384.9442 M,0,156971,157086,375.7127,384.9442,443,385 M,0,157086,157202,443,385,375.7127,384.9442
Sprite,Foreground,Centre,"sb/glow.png",283,417 S,2,157317,157917,1,0.2 F,2,157317,157917,1,0 P,0,157317,157917,A C,0,157317,,119,0,119
Sprite,Foreground,Centre,"sb/glow.png",236,387 S,2,157433,158033,1,0.2 F,2,157433,158033,1,0 P,0,157433,158033,A C,0,157433,,119,0,119
Sprite,Foreground,Centre,"sb/glow.png",236,339 S,2,157548,158148,1,0.2 F,2,157548,158148,1,0 P,0,157548,158148,A C,0,157548,,119,0,119
Sprite,Foreground,Centre,"sb/glow.png",262,298 S,2,157664,158264,1,0.2 F,2,157664,158264,1,0 P,0,157664,158264,A C,0,157664,,119,0,119
Sprite,Foreground,Centre,"sb/glow.png",288,266 S,2,157779,158379,1,0.2 F,2,157779,158379,1,0 P,0,157779,158379,A C,0,157779,,119,0,119
Sprite,Foreground,Centre,"sb/glow.png",287,224 S,2,157894,158494,1,0.2 F,2,157894,158494,1,0 P,0,157894,158494,A C,0,157894,,119,0,119
Sprite,Foreground,Centre,"sb/glow.png",264,197 S,2,158010,158610,1,0.2 F,2,158010,158610,1,0 P,0,158010,158610,A C,0,158010,,119,0,119
Sprite,Foreground,Centre,"sb/glow.png",237,189 S,2,158125,158725,1,0.2 F,2,158125,158725,1,0 P,0,158125,158725,A C,0,158125,,119,0,119
Sprite,Foreground,Centre,"sb/glow.png",0,0 S,2,158240,159186,1,0.2 F,2,158240,159186,1,0 P,0,158240,159186,A C,0,158240,,242,113,193 M,0,158240,158355,213,201,277.2977,223.5446 M,0,158355,158470,277.2977,223.5446,345.3281,216.9903 M,0,158470,158586,345.3281,216.9903,373.7257,167.4465
Sprite,Foreground,Centre,"sb/glow.png",0,0 S,2,158702,159417,1,0.2 F,2,158702,159417,1,0 P,0,158702,159417,A C,0,158702,,242,113,193 M,0,158702,158817,375,99,373.6114,167.736
Sprite,Foreground,Centre,"sb/glow.png",0,0 S,2,158933,159648,1,0.2 F,2,158933,159648,1,0 P,0,158933,159648,A C,0,158933,,242,113,193 M,0,158933,159048,454,303,455.9919,234.2789
Sprite,Foreground,Centre,"sb/glow.png",466,172 S,2,159164,159764,1,0.2 F,2,159164,159764,1,0 P,0,159164,159764,A C,0,159164,,242,113,193
Sprite,Foreground,Centre,"sb/glow.png",444,229 S,2,159279,159879,1,0.2 F,2,159279,159879,1,0 P,0,159279,159879,A C,0,159279,,242,113,193
Sprite,Foreground,Centre,"sb/glow.png",470,284 S,2,159394,159994,1,0.2 F,2,159394,159994,1,0 P,0,159394,159994,A C,0,159394,,242,113,193
Sprite,Foreground,Centre,"sb/glow.png",443,340 S,2,159510,160110,1,0.2 F,2,159510,160110,1,0 P,0,159510,160110,A C,0,159510,,242,113,193
Sprite,Foreground,Centre,"sb/glow.png",0,0 S,2,159625,160340,1,0.2 F,2,159625,160340,1,0 P,0,159625,160340,A C,0,159625,,242,113,193 M,0,159625,159740,463,398,531.5667,403.0171
Sprite,Foreground,Centre,"sb/glow.png",0,0 S,2,159856,160571,1,0.2 F,2,159856,160571,1,0 P,0,159856,160571,A C,0,159856,,242,113,193 M,0,159856,159971,373,419,304.5085,413.0442
Sprite,Foreground,Centre,"sb/glow.png",0,0 S,2,160087,160917,1,0.2 F,2,160087,160917,1,0 P,0,160087,160917,A C,0,160087,,255,157,206 M,0,160087,160202,64,358,129.4986,376.5163 M,0,160202,160317,129.4986,376.5163,196.1236,362.7901
Sprite,Foreground,Centre,"sb/glow.png",0,0 S,2,160433,161263,1,0.2 F,2,160433,161263,1,0 P,0,160433,161263,A C,0,160433,,255,157,206 M,0,160433,160548,242,302,310.5383,307.3907 M,0,160548,160663,310.5383,307.3907,379.0767,312.7813
Sprite,Foreground,Centre,"sb/glow.png",484,302 S,2,160779,161379,1,0.2 F,2,160779,161379,1,0 P,0,160779,161379,A C,0,160779,,255,157,206
Sprite,Foreground,Centre,"sb/glow.png",554,318 S,2,160894,161494,1,0.2 F,2,160894,161494,1,0 P,0,160894,161494,A C,0,160894,,255,157,206
Sprite,Foreground,Centre,"sb/glow.png",561,390 S,2,161010,161610,1,0.2 F,2,161010,161610,1,0 P,0,161010,161610,A C,0,161010,,255,157,206
Sprite,Foreground,Centre,"sb/glow.png",493,418 S,2,161125,161725,1,0.2 F,2,161125,161725,1,0 P,0,161125,161725,A C,0,161125,,255,157,206
Sprite,Foreground,Centre,"sb/glow.png",0,0 S,2,161240,161955,1,0.2 F,2,161240,161955,1,0 P,0,161240,161955,A C,0,161240,,255,157,206 M,0,161240,161355,446,363,458.1356,296.1943
Sprite,Foreground,Centre,"sb/glow.png",0,0 S,2,161471,162186,1,0.2 F,2,161471,162186,1,0 P,0,161471,162186,A C,0,161471,,255,157,206 M,0,161471,161586,464,174,396.1687,185.2015
Sprite,Foreground,Centre,"sb/glow.png",0,0 S,2,161702,162417,1,0.2 F,2,161702,162417,1,0 P,0,161702,162417,A C,0,161702,,255,157,206 M,0,161702,161817,546,88,568.8428,152.8442
Sprite,Foreground,Centre,"sb/glow.png",0,0 S,2,161933,162648,1,0.2 F,2,161933,162648,1,0 P,0,161933,162648,A C,0,161933,,119,0,119 M,0,161933,162048,420,70,351.4275,65.06278
Sprite,Foreground,Centre,"sb/glow.png",278,94 S,2,162164,162764,1,0.2 F,2,162164,162764,1,0 P,0,162164,162764,A C,0,162164,,119,0,119
Sprite,Foreground,Centre,"sb/glow.png",300,143 S,2,162279,162879,1,0.2 F,2,162279,162879,1,0 P,0,162279,162879,A C,0,162279,,119,0,119
Sprite,Foreground,Centre,"sb/glow.png",0,0 S,2,162394,163455,1,0.2 F,2,162394,163455,1,0 P,0,162394,163455,A C,0,162394,,119,0,119 M,0,162394,162509,245,141,239.3267,209.5155 M,0,162509,162624,239.3267,209.5155,233.6535,278.0311 M,0,162624,162740,233.6535,278.0311,239.3267,209.5155 M,0,162740,162855,239.3267,209.5155,245,141
Sprite,Foreground,Centre,"sb/glow.png",0,0 S,2,163087,163917,1,0.2 F,2,163087,163917,1,0 P,0,163087,163917,A C,0,163087,,119,0,119 M,0,163087,163202,137,408,118.8516,341.6886 M,0,163202,163317,118.8516,341.6886,137.5869,284.4582
Sprite,Foreground,Centre,"sb/glow.png",233,278 S,2,163433,164033,1,0.2 F,2,163433,164033,1,0 P,0,163433,164033,A C,0,163433,,119,0,119
Sprite,Foreground,Centre,"sb/glow.png",0,0 S,2,163548,164378,1,0.2 F,2,163548,164378,1,0 P,0,163548,164378,A C,0,163548,,119,0,119 M,0,163548,163663,261,305,329.6904,307.8621 M,0,163663,163778,329.6904,307.8621,398.3808,310.7242
Sprite,Foreground,Centre,"sb/glow.png",440,312 S,2,163894,164494,1,0.2 F,2,163894,164494,1,0 P,0,163894,164494,A C,0,163894,,242,113,193
Sprite,Foreground,Centre,"sb/glow.png",440,312 S,2,164010,164610,1,0.2 F,2,164010,164610,1,0 P,0,164010,164610,A C,0,164010,,242,113,193
Sprite,Foreground,Centre,"sb/glow.png",440,312 S,2,164125,164725,1,0.2 F,2,164125,164725,1,0 P,0,164125,164725,A C,0,164125,,242,113,193
Sprite,Foreground,Centre,"sb/glow.png",0,0 S,2,164240,165070,1,0.2 F,2,164240,165070,1,0 P,0,164240,165070,A C,0,164240,,242,113,193 M,0,164240,164355,440,312,507.9693,311.3186 M,0,164355,164470,507.9693,311.3186,531.1658,257.3619
Sprite,Foreground,Centre,"sb/glow.png",479,106 S,2,164702,165302,1,0.2 F,2,164702,165302,1,0 P,0,164702,165302,A C,0,164702,,242,113,193
Sprite,Foreground,Centre,"sb/glow.png",517,91 S,2,164817,165417,1,0.2 F,2,164817,165417,1,0 P,0,164817,165417,A C,0,164817,,242,113,193
Sprite,Foreground,Centre,"sb/glow.png",308,140 S,2,165048,165648,1,0.2 F,2,165048,165648,1,0 P,0,165048,165648,A C,0,165048,,242,113,193
Sprite,Foreground,Centre,"sb/glow.png",316,85 S,2,165164,165764,1,0.2 F,2,165164,165764,1,0 P,0,165164,165764,A C,0,165164,,242,113,193
Sprite,Foreground,Centre,"sb/glow.png",371,94 S,2,165279,165879,1,0.2 F,2,165279,165879,1,0 P,0,165279,165879,A C,0,165279,,242,113,193
Sprite,Foreground,Centre,"sb/glow.png",361,147 S,2,165394,165994,1,0.2 F,2,165394,165994,1,0 P,0,165394,165994,A C,0,165394,,242,113,193
Sprite,Foreground,Centre,"sb/glow.png",109,144 S,2,165625,166225,1,0.2 F,2,165625,166225,1,0 P,0,165625,166225,A C,0,165625,,255,157,206
Sprite,Foreground,Centre,"sb/glow.png",238,197 S,2,165856,166456,1,0.2 F,2,165856,166456,1,0 P,0,165856,166456,A C,0,165856,,255,157,206
Sprite,Foreground,Centre,"sb/glow.png",238,197 S,2,165971,166571,1,0.2 F,2,165971,166571,1,0 P,0,165971,166571,A C,0,165971,,255,157,206
Sprite,Foreground,Centre,"sb/glow.png",227,245 S,2,166087,166687,1,0.2 F,2,166087,166687,1,0 P,0,166087,166687,A C,0,166087,,255,157,206
Sprite,Foreground,Centre,"sb/glow.png",308,140 S,2,166317,166917,1,0.2 F,2,166317,166917,1,0 P,0,166317,166917,A C,0,166317,,255,157,206
Sprite,Foreground,Centre,"sb/glow.png",525,231 S,2,166548,167148,1,0.2 F,2,166548,167148,1,0 P,0,166548,167148,A C,0,166548,,119,0,119
Sprite,Foreground,Centre,"sb/glow.png",396,284 S,2,166779,167379,1,0.2 F,2,166779,167379,1,0 P,0,166779,167379,A C,0,166779,,119,0,119
Sprite,Foreground,Centre,"sb/glow.png",396,284 S,2,166894,167494,1,0.2 F,2,166894,167494,1,0 P,0,166894,167494,A C,0,166894,,119,0,119
Sprite,Foreground,Centre,"sb/glow.png",407,332 S,2,167010,167610,1,0.2 F,2,167010,167610,1,0 P,0,167010,167610,A C,0,167010,,119,0,119
Sprite,Foreground,Centre,"sb/glow.png",326,227 S,2,167240,167840,1,0.2 F,2,167240,167840,1,0 P,0,167240,167840,A C,0,167240,,119,0,119
Sprite,Foreground,Centre,"sb/glow.png",105,319 S,2,167471,168071,1,0.2 F,2,167471,168071,1,0 P,0,167471,168071,A C,0,167471,,242,113,193
Sprite,Foreground,Centre,"sb/glow.png",234,372 S,2,167702,168302,1,0.2 F,2,167702,168302,1,0 P,0,167702,168302,A C,0,167702,,242,113,193
Sprite,Foreground,Centre,"sb/glow.png",234,372 S,2,167817,168417,1,0.2 F,2,167817,168417,1,0 P,0,167817,168417,A C,0,167817,,242,113,193
Sprite,Foreground,Centre,"sb/glow.png",223,420 S,2,167933,168533,1,0.2 F,2,167933,168533,1,0 P,0,167933,168533,A C,0,167933,,242,113,193
Sprite,Foreground,Centre,"sb/glow.png",304,315 S,2,168163,168763,1,0.2 F,2,168163,168763,1,0 P,0,168163,168763,A C,0,168163,,242,113,193
Sprite,Foreground,Centre,"sb/glow.png",425,373 S,2,168394,168994,1,0.2 F,2,168394,168994,1,0 P,0,168394,168994,A C,0,168394,,255,157,206
Sprite,Foreground,Centre,"sb/glow.png",425,373 S,2,168625,169225,1,0.2 F,2,168625,169225,1,0 P,0,168625,169225,A C,0,168625,,255,157,206
Sprite,Foreground,Centre,"sb/glow.png",548,200 S,2,168856,169456,1,0.2 F,2,168856,169456,1,0 P,0,168856,169456,A C,0,168856,,255,157,206
Sprite,Foreground,Centre,"sb/glow.png",548,200 S,2,169087,169687,1,0.2 F,2,169087,169687,1,0 P,0,169087,169687,A C,0,169087,,255,157,206
Sprite,Foreground,Centre,"sb/glow.png",0,0 S,2,169317,170147,1,0.2 F,2,169317,170147,1,0 P,0,169317,170147,A C,0,169317,,119,0,119 M,0,169317,169432,554,420,486.4473,407.2484 M,0,169432,169547,486.4473,407.2484,418.4615,397.0582
Sprite,Foreground,Centre,"sb/glow.png",0,0 S,2,169664,170379,1,0.2 F,2,169664,170379,1,0 P,0,169664,170379,A C,0,169664,,119,0,119 M,0,169664,169779,340,409,327.9802,361.9607
Sprite,Foreground,Centre,"sb/glow.png",86,308 S,2,170010,170610,1,0.2 F,2,170010,170610,1,0 P,0,170010,170610,A C,0,170010,,119,0,119
Sprite,Foreground,Centre,"sb/glow.png",91,353 S,2,170125,170725,1,0.2 F,2,170125,170725,1,0 P,0,170125,170725,A C,0,170125,,119,0,119
Sprite,Foreground,Centre,"sb/glow.png",0,0 S,2,170240,170955,1,0.2 F,2,170240,170955,1,0 P,0,170240,170955,A C,0,170240,,119,0,119 M,0,170240,170355,117,369,181.4941,345.1868
Sprite,Foreground,Centre,"sb/glow.png",266,284 S,2,170471,171071,1,0.2 F,2,170471,171071,1,0 P,0,170471,171071,A C,0,170471,,119,0,119
Sprite,Foreground,Centre,"sb/glow.png",0,0 S,2,170587,171302,1,0.2 F,2,170587,171302,1,0 P,0,170587,171302,A C,0,170587,,119,0,119 M,0,170587,170702,295,299,235.3741,279.0856
Sprite,Foreground,Centre,"sb/glow.png",504,389 S,2,170933,171533,1,0.2 F,2,170933,171533,1,0 P,0,170933,171533,A C,0,170933,,119,0,119
Sprite,Foreground,Centre,"sb/glow.png",474,340 S,2,171048,171648,1,0.2 F,2,171048,171648,1,0 P,0,171048,171648,A C,0,171048,,119,0,119
Sprite,Foreground,Centre,"sb/glow.png",0,0 S,2,171164,172110,1,0.2 F,2,171164,172110,1,0 P,0,171164,172110,A C,0,171164,,242,113,193 M,0,171164,171279,507,317,555.1655,267.9425 M,0,171279,171394,555.1655,267.9425,541.8928,204.6785 M,0,171394,171510,541.8928,204.6785,520.1522,139.4566
Sprite,Foreground,Centre,"sb/glow.png",0,0 S,2,171625,172455,1,0.2 F,2,171625,172455,1,0 P,0,171625,172455,A C,0,171625,,242,113,193 M,0,171625,171740,571,79,517.0949,120.3639 M,0,171740,171855,517.0949,120.3639,449.8737,129.8734
Sprite,Foreground,Centre,"sb/glow.png",370,108 S,2,171971,172571,1,0.2 F,2,171971,172571,1,0 P,0,171971,172571,A C,0,171971,,242,113,193
Sprite,Foreground,Centre,"sb/glow.png",281,174 S,2,172202,172802,1,0.2 F,2,172202,172802,1,0 P,0,172202,172802,A C,0,172202,,242,113,193
Sprite,Foreground,Centre,"sb/glow.png",271,143 S,2,172317,172917,1,0.2 F,2,172317,172917,1,0 P,0,172317,172917,A C,0,172317,,242,113,193
Sprite,Foreground,Centre,"sb/glow.png",310,265 S,2,172548,173148,1,0.2 F,2,172548,173148,1,0 P,0,172548,173148,A C,0,172548,,242,113,193
Sprite,Foreground,Centre,"sb/glow.png",219,294 S,2,172779,173379,1,0.2 F,2,172779,173379,1,0 P,0,172779,173379,A C,0,172779,,242,113,193
Sprite,Foreground,Centre,"sb/glow.png",0,0 S,2,173010,173956,1,0.2 F,2,173010,173956,1,0 P,0,173010,173956,A C,0,173010,,242,113,193 M,0,173010,173125,249,386,181.2867,397.3282 M,0,173125,173240,181.2867,397.3282,115.3621,399.3651 M,0,173240,173356,115.3621,399.3651,181.768,417.1646
Sprite,Foreground,Centre,"sb/glow.png",0,0 S,2,173471,174301,1,0.2 F,2,173471,174301,1,0 P,0,173471,174301,A C,0,173471,,255,157,206 M,0,173471,173586,116,400,132.9677,334.1873 M,0,173586,173701,132.9677,334.1873,115.6277,268.5259
Sprite,Foreground,Centre,"sb/glow.png",0,0 S,2,173817,174647,1,0.2 F,2,173817,174647,1,0 P,0,173817,174647,A C,0,173817,,255,157,206 M,0,173817,173932,161,205,162.5664,161.9109 M,0,173932,174047,162.5664,161.9109,103.3254,196.7973
Sprite,Foreground,Centre,"sb/glow.png",0,0 S,2,174164,174879,1,0.2 F,2,174164,174879,1,0 P,0,174164,174879,A C,0,174164,,255,157,206 M,0,174164,174279,268,128,245,181
Sprite,Foreground,Centre,"sb/glow.png",0,0 S,2,174394,175109,1,0.2 F,2,174394,175109,1,0 P,0,174394,175109,A C,0,174394,,255,157,206 M,0,174394,174509,395,245,347.0592,202.5576
Sprite,Foreground,Centre,"sb/glow.png",0,0 S,2,174625,175340,1,0.2 F,2,174625,175340,1,0 P,0,174625,175340,A C,0,174625,,255,157,206 M,0,174625,174740,442,143,458.5019,82.82945
Sprite,Foreground,Centre,"sb/glow.png",0,0 S,2,174856,175686,1,0.2 F,2,174856,175686,1,0 P,0,174856,175686,A C,0,174856,,255,157,206 M,0,174856,174971,544,189,475.3958,184.5258 M,0,174971,175086,475.3958,184.5258,406.7915,180.0516
Sprite,Foreground,Centre,"sb/glow.png",338,118 S,2,175202,175802,1,0.2 F,2,175202,175802,1,0 P,0,175202,175802,A C,0,175202,,255,157,206
Sprite,Foreground,Centre,"sb/glow.png",320,248 S,2,175260,176610,1,0.2 F,2,175260,176610,1,0 P,0,175260,176610,A C,0,175260,,255,157,206
Sprite,Foreground,Centre,"sb/glow.png",220,348 S,2,176240,176840,1,0.2 F,2,176240,176840,1,0 P,0,176240,176840,A C,0,176240,,119,0,119
Sprite,Foreground,Centre,"sb/glow.png",270,380 S,2,176356,176956,1,0.2 F,2,176356,176956,1,0 P,0,176356,176956,A C,0,176356,,119,0,119
Sprite,Foreground,Centre,"sb/glow.png",308,345 S,2,176471,177071,1,0.2 F,2,176471,177071,1,0 P,0,176471,177071,A C,0,176471,,119,0,119
Sprite,Foreground,Centre,"sb/glow.png",347,360 S,2,176587,177187,1,0.2 F,2,176587,177187,1,0 P,0,176587,177187,A C,0,176587,,119,0,119
Sprite,Foreground,Centre,"sb/glow.png",0,0 S,2,176702,177648,1,0.2 F,2,176702,177648,1,0 P,0,176702,177648,A C,0,176702,,119,0,119 M,0,176702,176817,373,335,441.5262,329.4574 M,0,176817,176932,441.5262,329.4574,509.7657,323.273 M,0,176932,177048,509.7657,323.273,538.834,262.6949
Sprite,Foreground,Centre,"sb/glow.png",0,0 S,2,177164,177994,1,0.2 F,2,177164,177994,1,0 P,0,177164,177994,A C,0,177164,,119,0,119 M,0,177164,177279,556,187,560.5732,255.5977 M,0,177279,177394,560.5732,255.5977,565.1464,324.1955
Sprite,Foreground,Centre,"sb/glow.png",573,378 S,2,177510,178110,1,0.2 F,2,177510,178110,1,0 P,0,177510,178110,A C,0,177510,,119,0,119
Sprite,Foreground,Centre,"sb/glow.png",0,0 S,2,177625,178571,1,0.2 F,2,177625,178571,1,0 P,0,177625,178571,A C,0,177625,,119,0,119 M,0,177625,177740,531,408,472.0738,440.1444 M,0,177740,177855,472.0738,440.1444,531,408 M,0,177855,177971,531,408,472.0738,440.1444
Sprite,Foreground,Centre,"sb/glow.png",396,413 S,2,178087,178687,1,0.2 F,2,178087,178687,1,0 P,0,178087,178687,A C,0,178087,,119,0,119
Sprite,Foreground,Centre,"sb/glow.png",342,402 S,2,178202,178802,1,0.2 F,2,178202,178802,1,0 P,0,178202,178802,A C,0,178202,,119,0,119
Sprite,Foreground,Centre,"sb/glow.png",0,0 S,2,178317,179032,1,0.2 F,2,178317,179032,1,0 P,0,178317,179032,A C,0,178317,,119,0,119 M,0,178317,178432,288,413,219.5475,410.3578
Sprite,Foreground,Centre,"sb/glow.png",0,0 S,2,178548,179494,1,0.2 F,2,178548,179494,1,0 P,0,178548,179494,A C,0,178548,,242,113,193 M,0,178548,178663,128,429,196.3583,425.6683 M,0,178663,178778,196.3583,425.6683,260.2209,401.121 M,0,178778,178894,260.2209,401.121,313.2079,357.8405
Sprite,Foreground,Centre,"sb/glow.png",0,0 S,2,179010,179725,1,0.2 F,2,179010,179725,1,0 P,0,179010,179725,A C,0,179010,,242,113,193 M,0,179010,179125,431,247,419.2203,314.7333
Sprite,Foreground,Centre,"sb/glow.png",396,413 S,2,179240,179840,1,0.2 F,2,179240,179840,1,0 P,0,179240,179840,A C,0,179240,,242,113,193
Sprite,Foreground,Centre,"sb/glow.png",185,290 S,2,179471,180071,1,0.2 F,2,179471,180071,1,0 P,0,179471,180071,A C,0,179471,,242,113,193
Sprite,Foreground,Centre,"sb/glow.png",404,174 S,2,179702,180302,1,0.2 F,2,179702,180302,1,0 P,0,179702,180302,A C,0,179702,,242,113,193
Sprite,Foreground,Centre,"sb/glow.png",0,0 S,2,179817,180763,1,0.2 F,2,179817,180763,1,0 P,0,179817,180763,A C,0,179817,,242,113,193 M,0,179817,179932,435,203,381.1093,160.7228 M,0,179932,180047,381.1093,160.7228,317.3778,135.6718 M,0,180047,180163,317.3778,135.6718,249.149,129.9396
Sprite,Foreground,Centre,"sb/glow.png",0,0 S,2,180394,181224,1,0.2 F,2,180394,181224,1,0 P,0,180394,181224,A C,0,180394,,255,157,206 M,0,180394,180509,64,339,111.8715,289.6555 M,0,180509,180624,111.8715,289.6555,173.0057,275.5818
Sprite,Foreground,Centre,"sb/glow.png",227,285 S,2,180740,181340,1,0.2 F,2,180740,181340,1,0 P,0,180740,181340,A C,0,180740,,255,157,206
Sprite,Foreground,Centre,"sb/glow.png",0,0 S,2,180856,181802,1,0.2 F,2,180856,181802,1,0 P,0,180856,181802,A C,0,180856,,255,157,206 M,0,180856,180971,258,239,326.3003,246.8506 M,0,180971,181086,326.3003,246.8506,258,239 M,0,181086,181202,258,239,326.3003,246.8506
Sprite,Foreground,Centre,"sb/glow.png",0,0 S,2,181317,182032,1,0.2 F,2,181317,182032,1,0 P,0,181317,182032,A C,0,181317,,255,157,206 M,0,181317,181432,353,345,421.3003,352.8506
Sprite,Foreground,Centre,"sb/glow.png",0,0 S,2,181548,182263,1,0.2 F,2,181548,182263,1,0 P,0,181548,182263,A C,0,181548,,255,157,206 M,0,181548,181663,448,205,516.3003,212.8506
Sprite,Foreground,Centre,"sb/glow.png",570,372 S,2,181779,182379,1,0.2 F,2,181779,182379,1,0 P,0,181779,182379,A C,0,181779,,255,157,206
Sprite,Foreground,Centre,"sb/glow.png",502,123 S,2,182010,182610,1,0.2 F,2,182010,182610,1,0 P,0,182010,182610,A C,0,182010,,255,157,206
Sprite,Foreground,Centre,"sb/glow.png",364,247 S,2,182240,182840,1,0.2 F,2,182240,182840,1,0 P,0,182240,182840,A C,0,182240,,119,0,119
Sprite,Foreground,Centre,"sb/glow.png",292,140 S,2,182471,183071,1,0.2 F,2,182471,183071,1,0 P,0,182471,183071,A C,0,182471,,119,0,119
Sprite,Foreground,Centre,"sb/glow.png",292,140 S,2,182587,183187,1,0.2 F,2,182587,183187,1,0 P,0,182587,183187,A C,0,182587,,119,0,119
Sprite,Foreground,Centre,"sb/glow.png",292,140 S,2,182702,183302,1,0.2 F,2,182702,183302,1,0 P,0,182702,183302,A C,0,182702,,119,0,119
Sprite,Foreground,Centre,"sb/glow.png",292,140 S,2,182817,183417,1,0.2 F,2,182817,183417,1,0 P,0,182817,183417,A C,0,182817,,119,0,119
Sprite,Foreground,Centre,"sb/glow.png",292,140 S,2,182933,183533,1,0.2 F,2,182933,183533,1,0 P,0,182933,183533,A C,0,182933,,119,0,119
Sprite,Foreground,Centre,"sb/glow.png",137,288 S,2,183164,183764,1,0.2 F,2,183164,183764,1,0 P,0,183164,183764,A C,0,183164,,242,113,193
Sprite,Foreground,Centre,"sb/glow.png",377,223 S,2,183394,183994,1,0.2 F,2,183394,183994,1,0 P,0,183394,183994,A C,0,183394,,242,113,193
Sprite,Foreground,Centre,"sb/glow.png",494,380 S,2,183625,184225,1,0.2 F,2,183625,184225,1,0 P,0,183625,184225,A C,0,183625,,242,113,193
Sprite,Foreground,Centre,"sb/glow.png",249,311 S,2,183856,184456,1,0.2 F,2,183856,184456,1,0 P,0,183856,184456,A C,0,183856,,242,113,193
Sprite,Foreground,Centre,"sb/glow.png",312,433 S,2,184087,184687,1,0.2 F,2,184087,184687,1,0 P,0,184087,184687,A C,0,184087,,242,113,193
Sprite,Foreground,Centre,"sb/glow.png",153,325 S,2,184317,184917,1,0.2 F,2,184317,184917,1,0 P,0,184317,184917,A C,0,184317,,255,157,206
Sprite,Foreground,Centre,"sb/glow.png",133,335 S,2,184433,185033,1,0.2 F,2,184433,185033,1,0 P,0,184433,185033,A C,0,184433,,255,157,206
Sprite,Foreground,Centre,"sb/glow.png",0,0 S,2,184548,185378,1,0.2 F,2,184548,185378,1,0 P,0,184548,185378,A C,0,184548,,255,157,206 M,0,184548,184663,123,355,68.70615,317.0622 M,0,184663,184778,68.70615,317.0622,66.21885,251.0147
Sprite,Foreground,Centre,"sb/glow.png",290,146 S,2,185010,185610,1,0.2 F,2,185010,185610,1,0 P,0,185010,185610,A C,0,185010,,255,157,206
Sprite,Foreground,Centre,"sb/glow.png",414,257 S,2,185240,185840,1,0.2 F,2,185240,185840,1,0 P,0,185240,185840,A C,0,185240,,255,157,206
Sprite,Foreground,Centre,"sb/glow.png",0,0 S,2,185356,186302,1,0.2 F,2,185356,186302,1,0 P,0,185356,186302,A C,0,185356,,255,157,206 M,0,185356,185471,450,298,505.8373,318.3513 M,0,185471,185586,505.8373,318.3513,570.7636,295.743 M,0,185586,185702,570.7636,295.743,604.1827,244.201
Sprite,Foreground,Centre,"sb/glow.png",542,196 S,2,185817,186417,1,0.2 F,2,185817,186417,1,0 P,0,185817,186417,A C,0,185817,,255,157,206
Sprite,Foreground,Centre,"sb/glow.png",0,0 S,2,185933,186763,1,0.2 F,2,185933,186763,1,0 P,0,185933,186763,A C,0,185933,,255,157,206 M,0,185933,186048,529,272,516.4063,339.5867 M,0,186048,186163,516.4063,339.5867,503.8124,407.1733
Sprite,Foreground,Centre,"sb/glow.png",0,0 S,2,186394,187224,1,0.2 F,2,186394,187224,1,0 P,0,186394,187224,A C,0,186394,,119,0,119 M,0,186394,186509,169,296,216.8247,342.9717 M,0,186509,186624,216.8247,342.9717,283.7949,345.1164
Sprite,Foreground,Centre,"sb/glow.png",247,278 S,2,186740,187340,1,0.2 F,2,186740,187340,1,0 P,0,186740,187340,A C,0,186740,,119,0,119
Sprite,Foreground,Centre,"sb/glow.png",0,0 S,2,186856,187571,1,0.2 F,2,186856,187571,1,0 P,0,186856,187571,A C,0,186856,,119,0,119 M,0,186856,186971,169,296,149.0612,360.9538
Sprite,Foreground,Centre,"sb/glow.png",0,0 S,2,187087,187802,1,0.2 F,2,187087,187802,1,0 P,0,187087,187802,A C,0,187087,,242,113,193 M,0,187087,187202,269,194,214.1895,234.5545
Sprite,Foreground,Centre,"sb/glow.png",0,0 S,2,187317,188147,1,0.2 F,2,187317,188147,1,0 P,0,187317,188147,A C,0,187317,,242,113,193 M,0,187317,187432,471,166,404.0145,179.0646 M,0,187432,187547,404.0145,179.0646,337.4261,164.224
Sprite,Foreground,Centre,"sb/glow.png",277,123 S,2,187664,188264,1,0.2 F,2,187664,188264,1,0 P,0,187664,188264,A C,0,187664,,242,113,193
Sprite,Foreground,Centre,"sb/glow.png",0,0 S,2,187779,188725,1,0.2 F,2,187779,188725,1,0 P,0,187779,188725,A C,0,187779,,242,113,193 M,0,187779,187894,314,63 M,0,187894,188009,314,63 M,0,188009,188125,314,63
Sprite,Foreground,Centre,"sb/glow.png",0,0 S,2,188240,189070,1,0.2 F,2,188240,189070,1,0 P,0,188240,189070,A C,0,188240,,255,157,206 M,0,188240,188355,206,88,143.5778,116.8102 M,0,188355,188470,143.5778,116.8102,75.14624,120.7439
Sprite,Foreground,Centre,"sb/glow.png",105,92 S,2,188587,189187,1,0.2 F,2,188587,189187,1,0 P,0,188587,189187,A C,0,188587,,255,157,206
Sprite,Foreground,Centre,"sb/glow.png",0,0 S,2,188702,189417,1,0.2 F,2,188702,189417,1,0 P,0,188702,189417,A C,0,188702,,255,157,206 M,0,188702,188817,148,135,120.5164,194.87
Sprite,Foreground,Centre,"sb/glow.png",0,0 S,2,188933,190225,1,0.2 F,2,188933,190225,1,0 P,0,188933,190225,A C,0,188933,,119,0,119 M,0,188933,189048,233,297,315.0221,288.1328 M,0,189048,189163,315.0221,288.1328,397.0442,279.2655 M,0,189163,189279,397.0442,279.2655,315.0221,288.1328 M,0,189279,189394,315.0221,288.1328,233,297 M,0,189394,189509,233,297,315.0221,288.1328 M,0,189509,189625,315.0221,288.1328,397.0442,279.2655
Sprite,Foreground,Centre,"sb/glow.png",320,91 S,2,189856,190456,1,0.2 F,2,189856,190456,1,0 P,0,189856,190456,A C,0,189856,,119,0,119
Sprite,Foreground,Centre,"sb/glow.png",320,91 S,2,189971,190571,1,0.2 F,2,189971,190571,1,0 P,0,189971,190571,A C,0,189971,,119,0,119
Sprite,Foreground,Centre,"sb/glow.png",413,415 S,2,190202,190802,1,0.2 F,2,190202,190802,1,0 P,0,190202,190802,A C,0,190202,,242,113,193
Sprite,Foreground,Centre,"sb/glow.png",0,0 S,2,190317,191263,1,0.2 F,2,190317,191263,1,0 P,0,190317,191263,A C,0,190317,,242,113,193 M,0,190317,190432,413,415,344.4707,409.4956 M,0,190432,190547,344.4707,409.4956,275.9414,403.9913 M,0,190547,190663,275.9414,403.9913,207.4121,398.4869
Sprite,Foreground,Centre,"sb/glow.png",315,289 S,2,190779,191379,1,0.2 F,2,190779,191379,1,0 P,0,190779,191379,A C,0,190779,,242,113,193
Sprite,Foreground,Centre,"sb/glow.png",375,331 S,2,191010,191610,1,0.2 F,2,191010,191610,1,0 P,0,191010,191610,A C,0,191010,,255,157,206
Sprite,Foreground,Centre,"sb/glow.png",385,262 S,2,191125,191725,1,0.2 F,2,191125,191725,1,0 P,0,191125,191725,A C,0,191125,,255,157,206
Sprite,Foreground,Centre,"sb/glow.png",330,217 S,2,191240,191840,1,0.2 F,2,191240,191840,1,0 P,0,191240,191840,A C,0,191240,,255,157,206
Sprite,Foreground,Centre,"sb/glow.png",261,237 S,2,191356,191956,1,0.2 F,2,191356,191956,1,0 P,0,191356,191956,A C,0,191356,,255,157,206
Sprite,Foreground,Centre,"sb/glow.png",0,0 S,2,191471,192301,1,0.2 F,2,191471,192301,1,0 P,0,191471,192301,A C,0,191471,,255,157,206 M,0,191471,191586,243,306,176.2451,310.2957 M,0,191586,191701,176.2451,310.2957,114.2935,338.8834
Sprite,Foreground,Centre,"sb/glow.png",97,354 S,2,191817,192417,1,0.2 F,2,191817,192417,1,0 P,0,191817,192417,A C,0,191817,,119,0,119
Sprite,Foreground,Centre,"sb/glow.png",85,312 S,2,191933,192533,1,0.2 F,2,191933,192533,1,0 P,0,191933,192533,A C,0,191933,,119,0,119
Sprite,Foreground,Centre,"sb/glow.png",286,171 S,2,192164,192764,1,0.2 F,2,192164,192764,1,0 P,0,192164,192764,A C,0,192164,,119,0,119
Sprite,Foreground,Centre,"sb/glow.png",301,159 S,2,192279,192879,1,0.2 F,2,192279,192879,1,0 P,0,192279,192879,A C,0,192279,,119,0,119
Sprite,Foreground,Centre,"sb/glow.png",314,207 S,2,192394,192994,1,0.2 F,2,192394,192994,1,0 P,0,192394,192994,A C,0,192394,,119,0,119
Sprite,Foreground,Centre,"sb/glow.png",484,334 S,2,192625,193225,1,0.2 F,2,192625,193225,1,0 P,0,192625,193225,A C,0,192625,,119,0,119
Sprite,Foreground,Centre,"sb/glow.png",499,346 S,2,192740,193340,1,0.2 F,2,192740,193340,1,0 P,0,192740,193340,A C,0,192740,,119,0,119
Sprite,Foreground,Centre,"sb/glow.png",512,298 S,2,192855,193455,1,0.2 F,2,192855,193455,1,0 P,0,192855,193455,A C,0,192855,,119,0,119
Sprite,Foreground,Centre,"sb/glow.png",382,65 S,2,193087,193687,1,0.2 F,2,193087,193687,1,0 P,0,193087,193687,A C,0,193087,,242,113,193
Sprite,Foreground,Centre,"sb/glow.png",0,0 S,2,193317,194378,1,0.2 F,2,193317,194378,1,0 P,0,193317,194378,A C,0,193317,,242,113,193 M,0,193317,193432,128,166,105.9383,230.295 M,0,193432,193547,105.9383,230.295,126.983,294.3381 M,0,193547,193663,126.983,294.3381,105.9383,230.295 M,0,193663,193778,105.9383,230.295,128,166
Sprite,Foreground,Centre,"sb/glow.png",481,108 S,2,194010,194610,1,0.2 F,2,194010,194610,1,0 P,0,194010,194610,A C,0,194010,,242,113,193
Sprite,Foreground,Centre,"sb/glow.png",0,0 S,2,194240,195186,1,0.2 F,2,194240,195186,1,0 P,0,194240,195186,A C,0,194240,,255,157,206 M,0,194240,194355,128,166,105.8317,230.2811 M,0,194355,194470,105.8317,230.2811,127.1447,293.8583 M,0,194470,194586,127.1447,293.8583,140.4374,231.3225
Sprite,Foreground,Centre,"sb/glow.png",207,194 S,2,194702,195302,1,0.2 F,2,194702,195302,1,0 P,0,194702,195302,A C,0,194702,,255,157,206
Sprite,Foreground,Centre,"sb/glow.png",265,228 S,2,194817,195417,1,0.2 F,2,194817,195417,1,0 P,0,194817,195417,A C,0,194817,,255,157,206
Sprite,Foreground,Centre,"sb/glow.png",333,234 S,2,194933,195533,1,0.2 F,2,194933,195533,1,0 P,0,194933,195533,A C,0,194933,,255,157,206
Sprite,Foreground,Centre,"sb/glow.png",399,216 S,2,195048,195648,1,0.2 F,2,195048,195648,1,0 P,0,195048,195648,A C,0,195048,,255,157,206
Sprite,Foreground,Centre,"sb/glow.png",0,0 S,2,202548,203378,1,0.2 F,2,202548,203378,1,0 P,0,202548,203378,A C,0,202548,,255,157,206 M,0,202548,202663,342,165,274.3206,177.0856 M,0,202663,202778,274.3206,177.0856,206.6412,189.1712
Sprite,Foreground,Centre,"sb/glow.png",156,204 S,2,202894,203494,1,0.2 F,2,202894,203494,1,0 P,0,202894,203494,A C,0,202894,,255,157,206
Sprite,Foreground,Centre,"sb/glow.png",0,0 S,2,203010,203840,1,0.2 F,2,203010,203840,1,0 P,0,203010,203840,A C,0,203010,,255,157,206 M,0,203010,203125,113,216,115.3556,267.1225 M,0,203125,203240,115.3556,267.1225,138.0596,329.5652
Sprite,Foreground,Centre,"sb/glow.png",174,367 S,2,203356,203956,1,0.2 F,2,203356,203956,1,0 P,0,203356,203956,A C,0,203356,,255,157,206
Sprite,Foreground,Centre,"sb/glow.png",0,0 S,2,203471,204301,1,0.2 F,2,203471,204301,1,0 P,0,203471,204301,A C,0,203471,,119,0,119 M,0,203471,203586,217,393,283.0246,404.7381 M,0,203586,203701,283.0246,404.7381,339.3909,368.6247
Sprite,Foreground,Centre,"sb/glow.png",380,382 S,2,203817,204417,1,0.2 F,2,203817,204417,1,0 P,0,203817,204417,A C,0,203817,,119,0,119
Sprite,Foreground,Centre,"sb/glow.png",0,0 S,2,203933,204763,1,0.2 F,2,203933,204763,1,0 P,0,203933,204763,A C,0,203933,,119,0,119 M,0,203933,204048,427,397,434.4427,330.9892 M,0,204048,204163,434.4427,330.9892,414.2408,266.686
Sprite,Foreground,Centre,"sb/glow.png",0,0 S,2,204394,205340,1,0.2 F,2,204394,205340,1,0 P,0,204394,205340,A C,0,204394,,119,0,119 M,0,204394,204509,129,127,188.997,160.5697 M,0,204509,204624,188.997,160.5697,251.8314,160.0974 M,0,204624,204740,251.8314,160.0974,316.4347,153.413
Sprite,Foreground,Centre,"sb/glow.png",361,136 S,2,204856,205456,1,0.2 F,2,204856,205456,1,0 P,0,204856,205456,A C,0,204856,,119,0,119
Sprite,Foreground,Centre,"sb/glow.png",508,96 S,2,205087,205687,1,0.2 F,2,205087,205687,1,0 P,0,205087,205687,A C,0,205087,,119,0,119
Sprite,Foreground,Centre,"sb/glow.png",464,269 S,2,205317,205917,1,0.2 F,2,205317,205917,1,0 P,0,205317,205917,A C,0,205317,,242,113,193
Sprite,Foreground,Centre,"sb/glow.png",251,100 S,2,205664,206264,1,0.2 F,2,205664,206264,1,0 P,0,205664,206264,A C,0,205664,,242,113,193
Sprite,Foreground,Centre,"sb/glow.png",207,82 S,2,205779,206379,1,0.2 F,2,205779,206379,1,0 P,0,205779,206379,A C,0,205779,,242,113,193
Sprite,Foreground,Centre,"sb/glow.png",163,128 S,2,205894,206494,1,0.2 F,2,205894,206494,1,0 P,0,205894,206494,A C,0,205894,,242,113,193
Sprite,Foreground,Centre,"sb/glow.png",183,192 S,2,206010,206610,1,0.2 F,2,206010,206610,1,0 P,0,206010,206610,A C,0,206010,,242,113,193
Sprite,Foreground,Centre,"sb/glow.png",0,0 S,2,206125,206840,1,0.2 F,2,206125,206840,1,0 P,0,206125,206840,A C,0,206125,,242,113,193 M,0,206125,206240,126,209,63.64313,237.9514
Sprite,Foreground,Centre,"sb/glow.png",342,418 S,2,206471,207071,1,0.2 F,2,206471,207071,1,0 P,0,206471,207071,A C,0,206471,,255,157,206
Sprite,Foreground,Centre,"sb/glow.png",342,418 S,2,206587,207187,1,0.2 F,2,206587,207187,1,0 P,0,206587,207187,A C,0,206587,,255,157,206
Sprite,Foreground,Centre,"sb/glow.png",342,418 S,2,206702,207302,1,0.2 F,2,206702,207302,1,0 P,0,206702,207302,A C,0,206702,,255,157,206
Sprite,Foreground,Centre,"sb/glow.png",576,205 S,2,206933,207533,1,0.2 F,2,206933,207533,1,0 P,0,206933,207533,A C,0,206933,,255,157,206
Sprite,Foreground,Centre,"sb/glow.png",576,205 S,2,207048,207648,1,0.2 F,2,207048,207648,1,0 P,0,207048,207648,A C,0,207048,,255,157,206
Sprite,Foreground,Centre,"sb/glow.png",576,205 S,2,207164,207764,1,0.2 F,2,207164,207764,1,0 P,0,207164,207764,A C,0,207164,,255,157,206
Sprite,Foreground,Centre,"sb/glow.png",251,100 S,2,207394,207994,1,0.2 F,2,207394,207994,1,0 P,0,207394,207994,A C,0,207394,,255,157,206
Sprite,Foreground,Centre,"sb/glow.png",251,100 S,2,207510,208110,1,0.2 F,2,207510,208110,1,0 P,0,207510,208110,A C,0,207510,,255,157,206
Sprite,Foreground,Centre,"sb/glow.png",0,0 S,2,207625,208455,1,0.2 F,2,207625,208455,1,0 P,0,207625,208455,A C,0,207625,,255,157,206 M,0,207625,207740,251,100,230.5178,162.3926 M,0,207740,207855,230.5178,162.3926,206.0758,222.7521
Sprite,Foreground,Centre,"sb/glow.png",0,0 S,2,208087,209033,1,0.2 F,2,208087,209033,1,0 P,0,208087,209033,A C,0,208087,,119,0,119 M,0,208087,208202,473,269,420.155,225.4738 M,0,208202,208317,420.155,225.4738,354.6231,207.3497 M,0,208317,208433,354.6231,207.3497,296.0024,239.8087
Sprite,Foreground,Centre,"sb/glow.png",296,240 S,2,208548,209148,1,0.2 F,2,208548,209148,1,0 P,0,208548,209148,A C,0,208548,,119,0,119
Sprite,Foreground,Centre,"sb/glow.png",451,159 S,2,208779,209379,1,0.2 F,2,208779,209379,1,0 P,0,208779,209379,A C,0,208779,,119,0,119
Sprite,Foreground,Centre,"sb/glow.png",0,0 S,2,209010,209956,1,0.2 F,2,209010,209956,1,0 P,0,209010,209956,A C,0,209010,,119,0,119 M,0,209010,209125,277,323,343.8307,339.1315 M,0,209125,209240,343.8307,339.1315,277,323 M,0,209240,209356,277,323,343.8307,339.1315
Sprite,Foreground,Centre,"sb/glow.png",0,0 S,2,209471,210417,1,0.2 F,2,209471,210417,1,0 P,0,209471,210417,A C,0,209471,,119,0,119 M,0,209471,209586,345,121,278.1303,136.9689 M,0,209586,209701,278.1303,136.9689,345,121 M,0,209701,209817,345,121,278.1303,136.9689
Sprite,Foreground,Centre,"sb/glow.png",0,0 S,2,209933,210879,1,0.2 F,2,209933,210879,1,0 P,0,209933,210879,A C,0,209933,,242,113,193 M,0,209933,210048,97,79,139.8206,130.4145 M,0,210048,210163,139.8206,130.4145,134.6648,197.1412 M,0,210163,210279,134.6648,197.1412,83.78378,240.5928
Sprite,Foreground,Centre,"sb/glow.png",89,193 S,2,210394,210994,1,0.2 F,2,210394,210994,1,0 P,0,210394,210994,A C,0,210394,,242,113,193
Sprite,Foreground,Centre,"sb/glow.png",134,208 S,2,210510,211110,1,0.2 F,2,210510,211110,1,0 P,0,210510,211110,A C,0,210510,,242,113,193
Sprite,Foreground,Centre,"sb/glow.png",156,250 S,2,210625,211225,1,0.2 F,2,210625,211225,1,0 P,0,210625,211225,A C,0,210625,,242,113,193
Sprite,Foreground,Centre,"sb/glow.png",0,0 S,2,210740,211570,1,0.2 F,2,210740,211570,1,0 P,0,210740,211570,A C,0,210740,,242,113,193 M,0,210740,210855,153,297,216.5186,321.3683 M,0,210855,210970,216.5186,321.3683,284.0087,313.1927
Sprite,Foreground,Centre,"sb/glow.png",0,0 S,2,211087,211917,1,0.2 F,2,211087,211917,1,0 P,0,211087,211917,A C,0,211087,,242,113,193 M,0,211087,211202,302,225,305.618,292.8748 M,0,211202,211317,305.618,292.8748,318.9861,358.3578
Sprite,Foreground,Centre,"sb/glow.png",293,415 S,2,211433,212033,1,0.2 F,2,211433,212033,1,0 P,0,211433,212033,A C,0,211433,,242,113,193
Sprite,Foreground,Centre,"sb/glow.png",352,429 S,2,211548,212148,1,0.2 F,2,211548,212148,1,0 P,0,211548,212148,A C,0,211548,,242,113,193
Sprite,Foreground,Centre,"sb/glow.png",401,391 S,2,211664,212264,1,0.2 F,2,211664,212264,1,0 P,0,211664,212264,A C,0,211664,,242,113,193
Sprite,Foreground,Centre,"sb/glow.png",0,0 S,2,211779,212725,1,0.2 F,2,211779,212725,1,0 P,0,211779,212725,A C,0,211779,,255,157,206 M,0,211779,211894,460,408,391.3439,404.4075 M,0,211894,212009,391.3439,404.4075,322.6879,400.8151 M,0,212009,212125,322.6879,400.8151,259.916,418.1908
Sprite,Foreground,Centre,"sb/glow.png",209,399 S,2,212240,212840,1,0.2 F,2,212240,212840,1,0 P,0,212240,212840,A C,0,212240,,255,157,206
Sprite,Foreground,Centre,"sb/glow.png",0,0 S,2,212471,213186,1,0.2 F,2,212471,213186,1,0 P,0,212471,213186,A C,0,212471,,255,157,206 M,0,212471,212586,64,326,118.6336,367.734
Sprite,Foreground,Centre,"sb/glow.png",0,0 S,2,212702,213648,1,0.2 F,2,212702,213648,1,0 P,0,212702,213648,A C,0,212702,,255,157,206 M,0,212702,212817,145,283,196.5771,239.5728 M,0,212817,212932,196.5771,239.5728,210.7801,173.7537 M,0,212932,213048,210.7801,173.7537,181.854,112.899
Sprite,Foreground,Centre,"sb/glow.png",126,107 S,2,213164,213764,1,0.2 F,2,213164,213764,1,0 P,0,213164,213764,A C,0,213164,,255,157,206
Sprite,Foreground,Centre,"sb/glow.png",172,136 S,2,213279,213879,1,0.2 F,2,213279,213879,1,0 P,0,213279,213879,A C,0,213279,,255,157,206
Sprite,Foreground,Centre,"sb/glow.png",224,121 S,2,213394,213994,1,0.2 F,2,213394,213994,1,0 P,0,213394,213994,A C,0,213394,,255,157,206
Sprite,Foreground,Centre,"sb/glow.png",263,82 S,2,213510,214110,1,0.2 F,2,213510,214110,1,0 P,0,213510,214110,A C,0,213510,,255,157,206
Sprite,Foreground,Centre,"sb/glow.png",0,0 S,2,213625,214571,1,0.2 F,2,213625,214571,1,0 P,0,213625,214571,A C,0,213625,,255,157,206 M,0,213625,213740,317,85,350.8643,94.94667 M,0,213740,213855,350.8643,94.94667,377.0321,83.21219 M,0,213855,213971,377.0321,83.21219,393.7969,82.42417
Sprite,Foreground,Centre,"sb/glow.png",450,78 S,2,214087,214687,1,0.2 F,2,214087,214687,1,0 P,0,214087,214687,A C,0,214087,,119,0,119
Sprite,Foreground,Centre,"sb/glow.png",0,0 S,2,214317,215032,1,0.2 F,2,214317,215032,1,0 P,0,214317,215032,A C,0,214317,,119,0,119 M,0,214317,214432,534,148
Sprite,Foreground,Centre,"sb/glow.png",0,0 S,2,214548,215378,1,0.2 F,2,214548,215378,1,0 P,0,214548,215378,A C,0,214548,,119,0,119 M,0,214548,214663,534,148,516.8217,214.1086 M,0,214663,214778,516.8217,214.1086,510.5275,277.8513
Sprite,Foreground,Centre,"sb/glow.png",0,0 S,2,214894,215724,1,0.2 F,2,214894,215724,1,0 P,0,214894,215724,A C,0,214894,,119,0,119 M,0,214894,215009,519,351,451.3829,338.5704 M,0,215009,215124,451.3829,338.5704,383.7659,326.1408
Sprite,Foreground,Centre,"sb/glow.png",405,297 S,2,215240,215840,1,0.2 F,2,215240,215840,1,0 P,0,215240,215840,A C,0,215240,,119,0,119
Sprite,Foreground,Centre,"sb/glow.png",0,0 S,2,215471,216301,1,0.2 F,2,215471,216301,1,0 P,0,215471,216301,A C,0,215471,,242,113,193 M,0,215471,215586,222,392,289.6887,404.0335 M,0,215586,215701,289.6887,404.0335,357,416
Sprite,Foreground,Centre,"sb/glow.png",0,0 S,2,215817,216647,1,0.2 F,2,215817,216647,1,0 P,0,215817,216647,A C,0,215817,,242,113,193 M,0,215817,215932,304,421,369.0855,399.8053 M,0,215932,216047,369.0855,399.8053,437.5156,399.8876
Sprite,Foreground,Centre,"sb/glow.png",0,0 S,2,216164,216994,1,0.2 F,2,216164,216994,1,0 P,0,216164,216994,A C,0,216164,,242,113,193 M,0,216164,216279,534,424,468.778,402.2593 M,0,216279,216394,468.778,402.2593,403.5561,380.5187
Sprite,Foreground,Centre,"sb/glow.png",166,197 S,2,216625,217225,1,0.2 F,2,216625,217225,1,0 P,0,216625,217225,A C,0,216625,,242,113,193
Sprite,Foreground,Centre,"sb/glow.png",106,239 S,2,216856,217456,1,0.2 F,2,216856,217456,1,0 P,0,216856,217456,A C,0,216856,,255,157,206
Sprite,Foreground,Centre,"sb/glow.png",96,170 S,2,216971,217571,1,0.2 F,2,216971,217571,1,0 P,0,216971,217571,A C,0,216971,,255,157,206
Sprite,Foreground,Centre,"sb/glow.png",151,125 S,2,217086,217686,1,0.2 F,2,217086,217686,1,0 P,0,217086,217686,A C,0,217086,,255,157,206
Sprite,Foreground,Centre,"sb/glow.png",220,145 S,2,217202,217802,1,0.2 F,2,217202,217802,1,0 P,0,217202,217802,A C,0,217202,,255,157,206
Sprite,Foreground,Centre,"sb/glow.png",0,0 S,2,217317,218147,1,0.2 F,2,217317,218147,1,0 P,0,217317,218147,A C,0,217317,,255,157,206 M,0,217317,217432,240,213,305.7358,219.8466 M,0,217432,217547,305.7358,219.8466,365,246
Sprite,Foreground,Centre,"sb/glow.png",420,258 S,2,217664,218264,1,0.2 F,2,217664,218264,1,0 P,0,217664,218264,A C,0,217664,,255,157,206
Sprite,Foreground,Centre,"sb/glow.png",0,0 S,2,217779,218494,1,0.2 F,2,217779,218494,1,0 P,0,217779,218494,A C,0,217779,,119,0,119 M,0,217779,217894,413,231,477.4347,227.0162
Sprite,Foreground,Centre,"sb/glow.png",0,0 S,2,218010,218725,1,0.2 F,2,218010,218725,1,0 P,0,218010,218725,A C,0,218010,,119,0,119 M,0,218010,218125,560,177,553.845,245.4739
Sprite,Foreground,Centre,"sb/glow.png",0,0 S,2,218240,218955,1,0.2 F,2,218240,218955,1,0 P,0,218240,218955,A C,0,218240,,119,0,119 M,0,218240,218355,382,346,449.1371,342.2145
Sprite,Foreground,Centre,"sb/glow.png",0,0 S,2,218471,219186,1,0.2 F,2,218471,219186,1,0 P,0,218471,219186,A C,0,218471,,119,0,119 M,0,218471,218586,576,414,519.7114,388.1121
Sprite,Foreground,Centre,"sb/glow.png",0,0 S,2,218702,219763,1,0.2 F,2,218702,219763,1,0 P,0,218702,219763,A C,0,218702,,119,0,119 M,0,218702,218817,277,397,341.7809,378.8194 M,0,218817,218932,341.7809,378.8194,402.9355,406.6566 M,0,218932,219048,402.9355,406.6566,341.7809,378.8194 M,0,219048,219163,341.7809,378.8194,277,397
Sprite,Foreground,Centre,"sb/glow.png",205,437 S,2,219279,219879,1,0.2 F,2,219279,219879,1,0 P,0,219279,219879,A C,0,219279,,242,113,193
Sprite,Foreground,Centre,"sb/glow.png",0,0 S,2,219394,220109,1,0.2 F,2,219394,220109,1,0 P,0,219394,220109,A C,0,219394,,242,113,193 M,0,219394,219509,184,415,178.8166,347.6589
Sprite,Foreground,Centre,"sb/glow.png",0,0 S,2,219625,220455,1,0.2 F,2,219625,220455,1,0 P,0,219625,220455,A C,0,219625,,242,113,193 M,0,219625,219740,261,243,192.3103,240.1208 M,0,219740,219855,192.3103,240.1208,123.6206,237.2416
Sprite,Foreground,Centre,"sb/glow.png",0,0 S,2,220087,221148,1,0.2 F,2,220087,221148,1,0 P,0,220087,221148,A C,0,220087,,242,113,193 M,0,220087,220202,123,237,184.5255,242.4276 M,0,220202,220317,184.5255,242.4276,229.8554,268.8748 M,0,220317,220433,229.8554,268.8748,279.0833,275.6437 M,0,220433,220548,279.0833,275.6437,343.0422,250.7172
Sprite,Foreground,Centre,"sb/glow.png",431,294 S,2,220664,221264,1,0.2 F,2,220664,221264,1,0 P,0,220664,221264,A C,0,220664,,242,113,193
Sprite,Foreground,Centre,"sb/glow.png",0,0 S,2,220779,221494,1,0.2 F,2,220779,221494,1,0 P,0,220779,221494,A C,0,220779,,242,113,193 M,0,220779,220894,443,249,440.7347,317.7127
Sprite,Foreground,Centre,"sb/glow.png",0,0 S,2,221010,222302,1,0.2 F,2,221010,222302,1,0 P,0,221010,222302,A C,0,221010,,242,113,193 M,0,221010,221125,446,386,467.7407,320.778 M,0,221125,221240,467.7407,320.778,448.8648,254.8209 M,0,221240,221356,448.8648,254.8209,445.4036,189.9229 M,0,221356,221471,445.4036,189.9229,448.8648,254.8209 M,0,221471,221586,448.8648,254.8209,467.7407,320.778 M,0,221586,221702,467.7407,320.778,446,386
Sprite,Foreground,Centre,"sb/glow.png",358,414 S,2,221817,222417,1,0.2 F,2,221817,222417,1,0 P,0,221817,222417,A C,0,221817,,242,113,193
Sprite,Foreground,Centre,"sb/glow.png",0,0 S,2,221933,222706,1,0.2 F,2,221933,222706,1,0 P,0,221933,222706,A C,0,221933,,255,157,206 M,0,221933,222048,358,414 M,0,222048,222106,358,414,389,427
Sprite,Foreground,Centre,"sb/glow.png",0,0 S,2,222164,222937,1,0.2 F,2,222164,222937,1,0 P,0,222164,222937,A C,0,222164,,255,157,206 M,0,222164,222279,337,339 M,0,222279,222337,337,339,305.5071,325.2219
Sprite,Foreground,Centre,"sb/glow.png",0,0 S,2,222394,223167,1,0.2 F,2,222394,223167,1,0 P,0,222394,223167,A C,0,222394,,255,157,206 M,0,222394,222509,240,360 M,0,222509,222567,240,360,208.5071,346.2219
Sprite,Foreground,Centre,"sb/glow.png",0,0 S,2,222625,223398,1,0.2 F,2,222625,223398,1,0 P,0,222625,223398,A C,0,222625,,255,157,206 M,0,222625,222740,171,283 M,0,222740,222798,171,283,137.1396,277.0744
Sprite,Foreground,Centre,"sb/glow.png",0,0 S,2,222856,224032,1,0.2 F,2,222856,224032,1,0 P,0,222856,224032,A C,0,222856,,255,157,206 M,0,222856,222971,64,262,131.0766,247.2704 M,0,222971,223086,131.0766,247.2704,156.4098,279.57 M,0,223086,223202,156.4098,279.57,224.894,283.4581 M,0,223202,223317,224.894,283.4581,292.569,272.0839 M,0,223317,223432,292.569,272.0839,356.9296,248.1457
Sprite,Foreground,Centre,"sb/glow.png",382,195 S,2,223548,224148,1,0.2 F,2,223548,224148,1,0 P,0,223548,224148,A C,0,223548,,255,157,206
Sprite,Foreground,Centre,"sb/glow.png",356,248 S,2,223664,224264,1,0.2 F,2,223664,224264,1,0 P,0,223664,224264,A C,0,223664,,255,157,206
Sprite,Foreground,Centre,"sb/glow.png",0,0 S,2,223779,224494,1,0.2 F,2,223779,224494,1,0 P,0,223779,224494,A C,0,223779,,119,0,119 M,0,223779,223894,399,321,392.7757,389.4677
Sprite,Foreground,Centre,"sb/glow.png",0,0 S,2,224010,224725,1,0.2 F,2,224010,224725,1,0 P,0,224010,224725,A C,0,224010,,119,0,119 M,0,224010,224125,570,257,504.0436,237.6011
Sprite,Foreground,Centre,"sb/glow.png",0,0 S,2,224240,224955,1,0.2 F,2,224240,224955,1,0 P,0,224240,224955,A C,0,224240,,119,0,119 M,0,224240,224355,200,198,265,217
Sprite,Foreground,Centre,"sb/glow.png",0,0 S,2,224471,225186,1,0.2 F,2,224471,225186,1,0 P,0,224471,225186,A C,0,224471,,119,0,119 M,0,224471,224586,319,351,253.2046,331.062
Sprite,Foreground,Centre,"sb/glow.png",0,0 S,2,224702,225532,1,0.2 F,2,224702,225532,1,0 P,0,224702,225532,A C,0,224702,,242,113,193 M,0,224702,224817,71,363,137.652,379.8545 M,0,224817,224932,137.652,379.8545,147.415,338.4262
Sprite,Foreground,Centre,"sb/glow.png",0,0 S,2,225048,225878,1,0.2 F,2,225048,225878,1,0 P,0,225048,225878,A C,0,225048,,242,113,193 M,0,225048,225163,109,265,101.5564,196.6541 M,0,225163,225278,101.5564,196.6541,126.1386,141.7015
Sprite,Foreground,Centre,"sb/glow.png",177,122 S,2,225394,225994,1,0.2 F,2,225394,225994,1,0 P,0,225394,225994,A C,0,225394,,242,113,193
Sprite,Foreground,Centre,"sb/glow.png",155,172 S,2,225510,226110,1,0.2 F,2,225510,226110,1,0 P,0,225510,226110,A C,0,225510,,242,113,193
Sprite,Foreground,Centre,"sb/glow.png",0,0 S,2,225625,226801,1,0.2 F,2,225625,226801,1,0 P,0,225625,226801,A C,0,225625,,242,113,193 M,0,225625,225740,209,165,272.9656,139.8014 M,0,225740,225855,272.9656,139.8014,336.6869,162.3909 M,0,225855,225971,336.6869,162.3909,383.2639,212.2804 M,0,225971,226086,383.2639,212.2804,420.1741,258.8094 M,0,226086,226201,420.1741,258.8094,486.9924,242.6268
Sprite,Foreground,Centre,"sb/glow.png",534,214 S,2,226317,226917,1,0.2 F,2,226317,226917,1,0 P,0,226317,226917,A C,0,226317,,242,113,193
Sprite,Foreground,Centre,"sb/glow.png",483,191 S,2,226433,227033,1,0.2 F,2,226433,227033,1,0 P,0,226433,227033,A C,0,226433,,242,113,193
Sprite,Foreground,Centre,"sb/glow.png",0,0 S,2,226548,227609,1,0.2 F,2,226548,227609,1,0 P,0,226548,227609,A C,0,226548,,255,157,206 M,0,226548,226663,487,242,478.7763,310.2564 M,0,226663,226778,478.7763,310.2564,470.5527,378.5128 M,0,226778,226894,470.5527,378.5128,478.7763,310.2564 M,0,226894,227009,478.7763,310.2564,487,242
Sprite,Foreground,Centre,"sb/glow.png",157,191 S,2,227240,227840,1,0.2 F,2,227240,227840,1,0 P,0,227240,227840,A C,0,227240,,255,157,206
Sprite,Foreground,Centre,"sb/glow.png",106,214 S,2,227356,227956,1,0.2 F,2,227356,227956,1,0 P,0,227356,227956,A C,0,227356,,255,157,206
Sprite,Foreground,Centre,"sb/glow.png",0,0 S,2,227471,228301,1,0.2 F,2,227471,228301,1,0 P,0,227471,228301,A C,0,227471,,255,157,206 M,0,227471,227586,153,242,160.821,310.3037 M,0,227586,227701,160.821,310.3037,153,242
Sprite,Foreground,Centre,"sb/glow.png",286,102 S,2,227933,228533,1,0.2 F,2,227933,228533,1,0 P,0,227933,228533,A C,0,227933,,255,157,206
Sprite,Foreground,Centre,"sb/glow.png",279,156 S,2,228048,228648,1,0.2 F,2,228048,228648,1,0 P,0,228048,228648,A C,0,228048,,255,157,206
Sprite,Foreground,Centre,"sb/glow.png",308,202 S,2,228164,228764,1,0.2 F,2,228164,228764,1,0 P,0,228164,228764,A C,0,228164,,255,157,206
Sprite,Foreground,Centre,"sb/glow.png",362,195 S,2,228279,228879,1,0.2 F,2,228279,228879,1,0 P,0,228279,228879,A C,0,228279,,255,157,206
Sprite,Foreground,Centre,"sb/glow.png",388,242 S,2,228394,228994,1,0.2 F,2,228394,228994,1,0 P,0,228394,228994,A C,0,228394,,119,0,119
Sprite,Foreground,Centre,"sb/glow.png",0,0 S,2,228510,229340,1,0.2 F,2,228510,229340,1,0 P,0,228510,229340,A C,0,228510,,119,0,119 M,0,228510,228625,457,219,479.8941,220.0175 M,0,228625,228740,479.8941,220.0175,502,221
Sprite,Foreground,Centre,"sb/glow.png",0,0 S,2,228856,229686,1,0.2 F,2,228856,229686,1,0 P,0,228856,229686,A C,0,228856,,119,0,119 M,0,228856,228971,543,260,540.5586,282.7863 M,0,228971,229086,540.5586,282.7863,538.1172,305.5725
Sprite,Foreground,Centre,"sb/glow.png",0,0 S,2,229202,230032,1,0.2 F,2,229202,230032,1,0 P,0,229202,230032,A C,0,229202,,119,0,119 M,0,229202,229317,549,362,568.4079,374.1863 M,0,229317,229432,568.4079,374.1863,587.8158,386.3727
Sprite,Foreground,Centre,"sb/glow.png",0,0 S,2,229548,230263,1,0.2 F,2,229548,230263,1,0 P,0,229548,230263,A C,0,229548,,119,0,119 M,0,229548,229663,497,424,428.4875,429.7094
Sprite,Foreground,Centre,"sb/glow.png",0,0 S,2,229779,230609,1,0.2 F,2,229779,230609,1,0 P,0,229779,230609,A C,0,229779,,119,0,119 M,0,229779,229894,352,402,284.6232,397.3672 M,0,229894,230009,284.6232,397.3672,352,402
Sprite,Foreground,Centre,"sb/glow.png",430,221 S,2,230240,230840,1,0.2 F,2,230240,230840,1,0 P,0,230240,230840,A C,0,230240,,242,113,193
Sprite,Foreground,Centre,"sb/glow.png",434,278 S,2,230356,230956,1,0.2 F,2,230356,230956,1,0 P,0,230356,230956,A C,0,230356,,242,113,193
Sprite,Foreground,Centre,"sb/glow.png",116,289 S,2,230587,231187,1,0.2 F,2,230587,231187,1,0 P,0,230587,231187,A C,0,230587,,242,113,193
Sprite,Foreground,Centre,"sb/glow.png",499,146 S,2,230933,231533,1,0.2 F,2,230933,231533,1,0 P,0,230933,231533,A C,0,230933,,242,113,193
Sprite,Foreground,Centre,"sb/glow.png",65,206 S,2,231279,231879,1,0.2 F,2,231279,231879,1,0 P,0,231279,231879,A C,0,231279,,242,113,193
Sprite,Foreground,Centre,"sb/glow.png",526,347 S,2,231625,232225,1,0.2 F,2,231625,232225,1,0 P,0,231625,232225,A C,0,231625,,242,113,193
Sprite,Foreground,Centre,"sb/glow.png",0,0 S,2,231856,232571,1,0.2 F,2,231856,232571,1,0 P,0,231856,232571,A C,0,231856,,242,113,193 M,0,231856,231971,408,320,475.3755,331.6778
Sprite,Foreground,Centre,"sb/glow.png",0,0 S,2,232087,232917,1,0.2 F,2,232087,232917,1,0 P,0,232087,232917,A C,0,232087,,255,157,206 M,0,232087,232202,365,399,299.5775,379.2338 M,0,232202,232317,299.5775,379.2338,231.4417,384.4898
Sprite,Foreground,Centre,"sb/glow.png",130,407 S,2,232433,233033,1,0.2 F,2,232433,233033,1,0 P,0,232433,233033,A C,0,232433,,255,157,206
Sprite,Foreground,Centre,"sb/glow.png",0,0 S,2,232548,233378,1,0.2 F,2,232548,233378,1,0 P,0,232548,233378,A C,0,232548,,255,157,206 M,0,232548,232663,173,440,155.4054,374.6324 M,0,232663,232778,155.4054,374.6324,142.1555,310.1532
Sprite,Foreground,Centre,"sb/glow.png",0,0 S,2,233010,233840,1,0.2 F,2,233010,233840,1,0 P,0,233010,233840,A C,0,233010,,255,157,206 M,0,233010,233125,268,91,244.132,153.5698 M,0,233125,233240,244.132,153.5698,271.0464,214.7953
Sprite,Foreground,Centre,"sb/glow.png",373,254 S,2,233356,233956,1,0.2 F,2,233356,233956,1,0 P,0,233356,233956,A C,0,233356,,255,157,206
Sprite,Foreground,Centre,"sb/glow.png",0,0 S,2,233471,234417,1,0.2 F,2,233471,234417,1,0 P,0,233471,234417,A C,0,233471,,255,157,206 M,0,233471,233586,328,284,395.7384,295.7505 M,0,233586,233701,395.7384,295.7505,462.7751,291.2858 M,0,233701,233817,462.7751,291.2858,522.9175,314.7845
Sprite,Foreground,Centre,"sb/glow.png",0,0 S,2,233933,234994,1,0.2 F,2,233933,234994,1,0 P,0,233933,234994,A C,0,233933,,119,0,119 M,0,233933,234048,468,381,470.995,347.7539 M,0,234048,234163,470.995,347.7539,483.8368,331.6608 M,0,234163,234279,483.8368,331.6608,457.4827,311.3557 M,0,234279,234394,457.4827,311.3557,422.585,287.1771
Sprite,Foreground,Centre,"sb/glow.png",571,95 S,2,234625,235225,1,0.2 F,2,234625,235225,1,0 P,0,234625,235225,A C,0,234625,,119,0,119
Sprite,Foreground,Centre,"sb/glow.png",507,127 S,2,234740,235340,1,0.2 F,2,234740,235340,1,0 P,0,234740,235340,A C,0,234740,,119,0,119
Sprite,Foreground,Centre,"sb/glow.png",0,0 S,2,234856,235686,1,0.2 F,2,234856,235686,1,0 P,0,234856,235686,A C,0,234856,,119,0,119 M,0,234856,234971,443,159,388.0151,136.4243 M,0,234971,235086,388.0151,136.4243,321.5929,127.8503
Sprite,Foreground,Centre,"sb/glow.png",93,134 S,2,235317,235917,1,0.2 F,2,235317,235917,1,0 P,0,235317,235917,A C,0,235317,,119,0,119
Sprite,Foreground,Centre,"sb/glow.png",93,134 S,2,235433,236033,1,0.2 F,2,235433,236033,1,0 P,0,235433,236033,A C,0,235433,,119,0,119
Sprite,Foreground,Centre,"sb/glow.png",0,0 S,2,235548,236263,1,0.2 F,2,235548,236263,1,0 P,0,235548,236263,A C,0,235548,,119,0,119 M,0,235548,235663,93,134,133.1167,166.6976
Sprite,Foreground,Centre,"sb/glow.png",0,0 S,2,235779,236840,1,0.2 F,2,235779,236840,1,0 P,0,235779,236840,A C,0,235779,,242,113,193 M,0,235779,235894,327,206,260.6559,187.9717 M,0,235894,236009,260.6559,187.9717,207.5602,213.0131 M,0,236009,236125,207.5602,213.0131,260.6559,187.9717 M,0,236125,236240,260.6559,187.9717,327,206
Sprite,Foreground,Centre,"sb/glow.png",547,340 S,2,236471,237071,1,0.2 F,2,236471,237071,1,0 P,0,236471,237071,A C,0,236471,,242,113,193
Sprite,Foreground,Centre,"sb/glow.png",517,293 S,2,236587,237187,1,0.2 F,2,236587,237187,1,0 P,0,236587,237187,A C,0,236587,,242,113,193
Sprite,Foreground,Centre,"sb/glow.png",0,0 S,2,236702,237763,1,0.2 F,2,236702,237763,1,0 P,0,236702,237763,A C,0,236702,,242,113,193 M,0,236702,236817,463,295,456.7517,246.3719 M,0,236817,236932,456.7517,246.3719,423.1602,306.3567 M,0,236932,237048,423.1602,306.3567,387.4367,360.0164 M,0,237048,237163,387.4367,360.0164,320.9838,343.3897
Sprite,Foreground,Centre,"sb/glow.png",95,399 S,2,237394,237994,1,0.2 F,2,237394,237994,1,0 P,0,237394,237994,A C,0,237394,,242,113,193
Sprite,Foreground,Centre,"sb/glow.png",150,347 S,2,237510,238110,1,0.2 F,2,237510,238110,1,0 P,0,237510,238110,A C,0,237510,,242,113,193
Sprite,Foreground,Centre,"sb/glow.png",0,0 S,2,237625,238571,1,0.2 F,2,237625,238571,1,0 P,0,237625,238571,A C,0,237625,,255,157,206 M,0,237625,237740,224,370,222.6044,332.3562 M,0,237740,237855,222.6044,332.3562,236.6705,303.2803 M,0,237855,237971,236.6705,303.2803,188.0642,276.4802
Sprite,Foreground,Centre,"sb/glow.png",102,231 S,2,238087,238687,1,0.2 F,2,238087,238687,1,0 P,0,238087,238687,A C,0,238087,,255,157,206
Sprite,Foreground,Centre,"sb/glow.png",273,195 S,2,238317,238917,1,0.2 F,2,238317,238917,1,0 P,0,238317,238917,A C,0,238317,,255,157,206
Sprite,Foreground,Centre,"sb/glow.png",0,0 S,2,238548,239263,1,0.2 F,2,238548,239263,1,0 P,0,238548,239263,A C,0,238548,,119,0,119 M,0,238548,238663,203,81,205.5212,149.7038
Sprite,Foreground,Centre,"sb/glow.png",0,0 S,2,238779,239494,1,0.2 F,2,238779,239494,1,0 P,0,238779,239494,A C,0,238779,,119,0,119 M,0,238779,238894,342,359,339.0137,290.3149
Sprite,Foreground,Centre,"sb/glow.png",448,155 S,2,239010,239610,1,0.2 F,2,239010,239610,1,0 P,0,239010,239610,A C,0,239010,,119,0,119
Sprite,Foreground,Centre,"sb/glow.png",511,119 S,2,239125,239725,1,0.2 F,2,239125,239725,1,0 P,0,239125,239725,A C,0,239125,,119,0,119
Sprite,Foreground,Centre,"sb/glow.png",0,0 S,2,239240,239955,1,0.2 F,2,239240,239955,1,0 P,0,239240,239955,A C,0,239240,,119,0,119 M,0,239240,239355,445,86,447.5212,154.7038
Sprite,Foreground,Centre,"sb/lyrics/_000.png",0,0 S,0,3106,,0.5 MY,1,2806,3106,430,400 MX,0,3106,36394,110,145 F,0,2806,3106,0,1 F,0,36094,36394,1,0
Sprite,Foreground,Centre,"sb/lyrics/_002.png",0,0 S,0,38183,,0.5 MY,1,37883,38183,430,400 MX,0,38183,65702,110,145 F,0,37883,38183,0,1 F,0,65402,65702,1,0
Sprite,Foreground,Centre,"sb/lyrics/_000.png",0,0 S,0,65875,,0.5 MY,1,65575,65875,430,400 MX,0,65875,93625,110,145 F,0,65575,65875,0,1 F,0,93325,93625,1,0
Sprite,Foreground,Centre,"sb/lyrics/_002.png",0,0 S,0,95356,,0.5 MY,1,95056,95356,430,400 MX,0,95356,124548,110,145 F,0,95056,95356,0,1 F,0,124248,124548,1,0
Sprite,Foreground,Centre,"sb/lyrics/_000.png",0,0 S,0,124894,,0.5 MY,1,124594,124894,430,400 MX,0,124894,152702,110,145 F,0,124594,124894,0,1 F,0,152402,152702,1,0
Sprite,Foreground,Centre,"sb/lyrics/_002.png",0,0 S,0,154433,,0.5 MY,1,154133,154433,430,400 MX,0,154433,181779,110,145 F,0,154133,154433,0,1 F,0,181479,181779,1,0
Sprite,Foreground,Centre,"sb/lyrics/_000.png",0,0 S,0,183971,,0.5 MY,1,183671,183971,430,400 MX,0,183971,208087,110,145 F,0,183671,183971,0,1 F,0,207787,208087,1,0
Sprite,Foreground,Centre,"sb/lyrics/_002.png",0,0 S,0,209817,,0.5 MY,1,209517,209817,430,400 MX,0,209817,239010,110,145 F,0,209517,209817,0,1 F,0,238710,239010,1,0
Sprite,Foreground,Centre,"sb/lyrics/_000.png",0,0 S,0,239356,,0.5 MY,1,239056,239356,430,400 MX,0,239356,254240,110,145 F,0,239056,239356,0,1 F,0,253940,254240,1,0
//Storyboard Sound Samples

[TimingPoints]
395,461.538461538462,4,2,1,5,1,0
395,-200,4,2,1,5,0,0
2241,-200,4,2,1,25,0,0
3048,-200,4,2,1,5,0,0
3164,461.538461538462,4,2,1,60,1,0
36164,-100,4,2,1,65,0,0
38240,-100,4,2,1,70,0,0
51164,-100,4,2,1,65,0,0
52548,-100,4,2,1,70,0,0
77933,-80,4,2,1,70,0,0
80702,-80,4,2,1,80,0,1
95356,-80,4,2,1,80,0,0
95471,-80,4,2,1,80,0,1
110240,-80,4,2,1,70,0,0
125010,-100,4,2,1,70,0,0
126856,-80,4,2,1,70,0,0
128702,-100,4,2,1,70,0,0
137010,-80,4,2,1,70,0,0
139779,-80,4,2,1,80,0,1
154433,-80,4,2,1,80,0,0
154548,-80,4,2,1,80,0,1
169202,-80,4,2,1,80,0,0
169317,-80,4,2,1,80,0,1
183971,-80,4,2,1,80,0,0
184087,-80,4,2,1,80,0,1
188933,-66.6666666666667,4,2,1,80,0,1
189971,-80,4,2,1,80,0,1
195164,-133.333333333333,4,2,1,70,0,0
201394,-100,4,2,1,70,0,0
202548,-80,4,2,1,80,0,1
209933,-80,4,2,1,80,0,0
228510,-80,4,2,1,85,0,0
230240,-80,4,2,1,90,0,0
232087,-80,4,2,1,85,0,0
239471,-100,4,2,1,70,0,0
239529,-100,4,2,1,60,0,0
260702,-200,4,2,1,25,0,0
261625,-400,4,2,1,25,0,0
262087,-400,4,2,1,10,0,0
263010,-400,4,2,1,25,0,0
263471,-400,4,2,1,5,0,0

[Colours]
Combo1 : 255,157,206
Combo2 : 119,0,119
Combo3 : 242,113,193

[HitObjects]
256,192,510,12,0,1779,0:0:0:0:
49,246,2241,6,0,P|131:261|231:216,1,192.5
250,241,3164,6,0,P|274:216|275:160,1,55,2|0,0:0|0:0,0:0:0:0:
186,174,3394,2,0,P|194:198|205:239,1,55
271,153,3625,2,0,L|344:173,3,55,2|0|0|0,0:0|0:0|0:0|0:0,0:0:0:0:
211,111,4087,2,0,L|138:131,3,55,2|0|0|0,0:0|0:0|0:0|0:0,0:0:0:0:
275,69,4548,1,2,0:0:0:0:
275,69,4664,1,0,0:0:0:0:
275,69,4779,1,2,0:0:0:0:
378,154,5010,6,0,P|377:174|406:179,2,55,0|0|2,0:0|0:0|0:0,0:0:0:0:
230,218,5471,2,0,P|255:219|259:194,2,55,0|0|2,0:0|0:0|0:0,0:0:0:0:
416,268,5933,2,0,P|367:263|312:303,1,110,0|2,0:0|0:0,0:0:0:0:
331,308,6279,1,0,0:0:0:0:
345,321,6394,2,0,B|261:376|223:297|127:349,1,220,0|6,0:0|1:2,0:0:0:0:
1,301,7202,5,0,3:0:0:0:
1,301,7317,2,0,P|57:299|114:269,1,110,2|0,0:0|1:0,0:0:0:0:
168,175,7779,2,0,P|144:240|141:285,1,110,2|2,0:0|0:0,0:0:0:0:
167,309,8125,1,0,0:0:0:0:
203,318,8240,2,0,P|252:294|307:293,1,110,2|2,3:2|0:0,0:0:0:0:
432,343,8702,5,0,1:0:0:0:
503,186,9048,1,0,3:0:0:0:
503,186,9164,2,0,P|515:234|492:299,1,110,0|2,0:0|1:2,0:0:0:0:
354,240,9625,2,0,P|278:226|262:124,1,165
287,138,10087,1,0,3:0:0:0:
258,116,10202,1,0,3:0:0:0:
295,92,10317,1,2,0:0:0:0:
165,151,10548,6,0,P|98:156|42:201,1,110,2|0,1:2|0:0,0:0:0:0:
61,192,10894,1,0,3:0:0:0:
84,201,11010,1,2,0:0:0:0:
178,83,11240,6,0,P|154:107|148:135,1,55,0|0,1:0|0:0,0:0:0:0:
172,157,11471,1,2,0:0:0:0:
172,157,11587,1,0,0:0:0:0:
172,157,11702,1,2,0:0:0:0:
258,207,11933,6,0,B|283:199|283:199|300:200|300:200|334:188,2,55,2|0|2,3:2|0:0|0:0,0:0:0:0:
480,335,12394,6,0,P|423:338|383:305,1,110,0|2,1:0|3:2,0:0:0:0:
361,305,12740,1,0,3:0:0:0:
363,273,12856,1,0,3:0:0:0:
453,179,13087,6,0,P|486:194|493:216,1,55,2|0,1:2|0:0,0:0:0:0:
363,273,13317,2,0,P|296:291|165:225,1,220,0|0,0:0|3:0,0:0:0:0:
160,179,13894,1,0,3:0:0:0:
134,222,14010,2,0,P|136:257|121:287,1,55,6|0,0:0|0:0,0:0:0:0:
235,143,14240,6,0,P|307:155|388:103,1,165,6|0,1:2|3:0,0:0:0:0:
342,85,14702,1,2,0:0:0:0:
171,49,14933,1,0,1:0:0:0:
171,49,15048,1,0,0:0:0:0:
171,49,15164,2,0,L|149:126,1,55,2|0,0:0|0:0,0:0:0:0:
38,219,15394,6,0,B|2:197|2:197|-2:126|82:78,1,165,2|0,0:0|0:0,0:0:0:0:
57,93,15856,2,0,B|94:98|84:159,1,55,2|0,0:0|0:0,0:0:0:0:
155,236,16087,6,0,B|237:224|243:290|334:270,1,165,0|0,1:0|3:0,0:0:0:0:
325,293,16548,2,0,B|353:298|353:298|381:276,1,55,0|2,0:0|0:0,0:0:0:0:
356,161,16779,5,2,1:2:0:0:
401,191,16894,1,2,0:0:0:0:
444,224,17010,2,0,L|278:163,1,165,2|0,0:0|0:0,0:0:0:0:
296,202,17471,2,0,L|175:150,1,110,2|6,3:2|0:0,0:0:0:0:
159,170,17817,1,0,0:0:0:0:
182,122,17933,1,6,1:2:0:0:
10,166,18279,5,0,3:0:0:0:
10,166,18394,2,0,P|15:230|26:291,1,110,2|0,0:0|1:0,0:0:0:0:
177,344,18856,2,0,P|153:361|129:350,2,55,2|0|2,0:0|0:0|0:0,0:0:0:0:
314,290,19317,2,0,P|301:299|268:287,2,55,2|0|2,3:2|0:0|0:0,0:0:0:0:
406,365,19779,6,0,P|409:289|444:199,1,165,0|0,1:0|3:0,0:0:0:0:
454,237,20240,1,0,0:0:0:0:
351,74,20471,2,0,P|231:48|330:157,1,330,2|0,1:2|3:0,0:0:0:0:
312,145,21279,1,0,3:0:0:0:
259,118,21394,2,0,P|209:143|203:183,1,55,6|0,0:0|0:0,0:0:0:0:
80,184,21625,6,0,P|144:198|205:245,1,110,6|0,1:2|0:0,0:0:0:0:
167,243,21971,1,0,3:0:0:0:
167,243,22087,2,0,P|178:281|174:319,1,55,2|0,0:0|0:0,0:0:0:0:
308,363,22317,6,0,P|275:347|221:357,2,55,0|0|2,1:0|0:0|0:0,0:0:0:0:
308,363,22779,2,0,P|347:318|346:255,1,110,2|2,0:0|3:2,0:0:0:0:
344,243,23125,1,0,0:0:0:0:
344,243,23240,1,2,0:0:0:0:
501,144,23471,6,0,B|494:86|431:43|367:73,1,165,0|0,1:0|3:0,0:0:0:0:
360,94,23933,1,0,0:0:0:0:
242,27,24164,2,0,B|236:46|236:46|251:65|251:65|246:97,1,55,2|0,1:2|0:0,0:0:0:0:
187,130,24394,5,0,0:0:0:0:
145,113,24510,1,0,0:0:0:0:
100,133,24625,1,2,0:0:0:0:
273,202,24856,6,0,P|296:206|334:181,2,55,0|0|6,3:0|3:0|0:0,0:0:0:0:
37,217,25317,6,0,B|44:315|125:257|133:382,1,165,6|0,1:2|3:0,0:0:0:0:
96,375,25779,1,2,0:0:0:0:
235,270,26010,6,0,B|227:305|206:294|204:334,1,55,0|0,1:0|0:0,0:0:0:0:
262,373,26240,2,0,B|288:359|288:359|338:365,2,55,2|0|2,0:0|0:0|0:0,0:0:0:0:
364,296,26702,5,2,3:2:0:0:
411,309,26817,1,0,0:0:0:0:
459,320,26933,1,2,0:0:0:0:
278,212,27164,6,0,P|359:196|436:144,1,165,0|0,1:0|3:0,0:0:0:0:
385,122,27625,1,0,0:0:0:0:
146,158,27856,6,0,P|240:187|284:173,1,110,2|0,1:2|0:0,0:0:0:0:
235,153,28202,1,0,0:0:0:0:
235,153,28317,1,2,0:0:0:0:
19,225,28548,6,0,B|36:215|36:215|55:225|55:225|82:209,2,55,0|0|6,3:0|3:0|0:0,0:0:0:0:
0,250,29010,6,0,L|196:207,1,165,6|0,1:2|3:0,0:0:0:0:
191,232,29471,1,2,0:0:0:0:
325,298,29702,6,0,L|272:205,1,55,0|0,1:0|0:0,0:0:0:0:
253,155,29933,1,2,0:0:0:0:
298,163,30048,1,0,0:0:0:0:
336,137,30164,2,0,P|390:160|475:133,2,110,2|2|2,0:0|3:2|0:0,0:0:0:0:
226,51,30856,5,0,1:0:0:0:
91,13,31087,1,2,3:2:0:0:
81,32,31202,1,0,3:0:0:0:
84,50,31317,1,0,0:0:0:0:
0,149,31548,6,0,P|22:153|66:126,1,55,2|0,1:2|0:0,0:0:0:0:
154,118,31779,2,0,P|128:195|117:258,1,110,0|2,0:0|0:0,0:0:0:0:
139,245,32125,1,0,0:0:0:0:
180,232,32240,2,0,B|189:255|189:255|177:272|189:306,2,55,0|0|6,3:0|3:0|0:0,0:0:0:0:
24,338,32702,6,0,B|134:325|102:381|214:375,1,165,6|0,1:2|3:0,0:0:0:0:
211,359,33164,1,2,0:0:0:0:
401,369,33394,6,0,P|380:369|346:358,1,55,0|0,1:0|0:0,0:0:0:0:
279,331,33625,1,2,0:0:0:0:
264,288,33740,1,0,0:0:0:0:
251,246,33856,1,0,0:0:0:0:
375,214,34087,6,0,P|380:230|354:266,2,55,2|0|2,3:2|0:0|0:0,0:0:0:0:
213,145,34548,6,0,B|143:192|143:192|41:163,1,165,0|0,1:0|3:0,0:0:0:0:
48,184,35010,1,0,0:0:0:0:
16,45,35240,2,0,L|-2:122,1,55,2|0,1:2|0:0,0:0:0:0:
80,96,35471,2,0,L|322:57,1,220,0|0,0:0|3:0,0:0:0:0:
326,83,36048,1,0,3:0:0:0:
363,50,36164,1,6,1:2:0:0:
503,102,36394,1,4,1:2:0:0:
503,102,36856,5,2,0:0:0:0:
404,137,37087,1,2,0:0:0:0:
471,178,37317,1,2,0:0:0:0:
466,187,37433,1,2,0:0:0:0:
327,192,37664,1,2,0:0:0:0:
304,214,37779,2,0,B|299:245|299:245|319:291,3,55,0|0|2|0,0:0|0:0|0:0|0:0,0:0:0:0:
362,267,38240,6,0,B|388:217|388:217|340:102,1,165,6|2,1:2|3:2,0:0:0:0:
352,91,38702,1,0,1:0:0:0:
424,17,38933,1,2,0:0:0:0:
255,53,39164,1,2,1:2:0:0:
220,69,39279,1,0,3:0:0:0:
182,76,39394,1,0,3:0:0:0:
143,70,39510,1,0,3:0:0:0:
109,51,39625,2,0,P|73:43|15:54,2,55,0|0|2,1:0|3:0|3:2,0:0:0:0:
344,153,40087,6,0,L|215:170,1,110,6|2,1:2|0:0,0:0:0:0:
5,197,40548,1,2,1:2:0:0:
129,284,40779,1,2,0:0:0:0:
152,260,40894,2,0,B|193:220|193:220|342:201,1,165,2|0,0:0|3:0,0:0:0:0:
394,186,41356,1,2,0:0:0:0:
394,230,41471,2,0,L|424:169,2,55,0|0|2,1:0|3:0|3:2,0:0:0:0:
355,370,41933,6,0,P|271:348|203:348,1,110,2|2,1:2|0:2,0:0:0:0:
35,345,42394,1,2,1:2:0:0:
150,243,42625,1,2,0:2:0:0:
133,277,42740,2,0,B|122:242|122:242|193:211|230:161,1,165,2|0,0:2|3:2,0:0:0:0:
367,46,43317,1,0,1:2:0:0:
368,79,43433,1,0,3:2:0:0:
417,98,43548,1,2,3:2:0:0:
408,130,43664,1,0,3:2:0:0:
431,169,43779,6,0,P|400:218|337:271,1,110,6|0,1:2|0:2,0:0:0:0:
316,338,44125,1,0,3:2:0:0:
294,306,44240,2,0,L|147:290,1,110,2|0,1:2|0:2,0:0:0:0:
26,357,44702,6,0,L|102:347,1,55,2|0,1:2|0:0,0:0:0:0:
187,330,44933,2,0,L|193:391,1,55,2|0,3:2|0:0,0:0:0:0:
254,221,45164,2,0,L|260:282,1,55,2|0,1:2|3:2,0:0:0:0:
354,352,45394,2,0,L|284:363,1,55,2|0,3:2|3:2,0:0:0:0:
512,256,45625,2,0,P|430:265|336:227,1,165,6|0,1:2|3:2,0:0:0:0:
380,186,46087,2,0,P|401:109|392:65,1,110,2|0,1:2|0:2,0:0:0:0:
60,82,46548,1,6,1:2:0:0:
96,68,46664,1,0,3:0:0:0:
133,61,46779,1,0,3:2:0:0:
171,64,46894,1,0,3:0:0:0:
207,77,47010,2,0,P|240:93|270:129,2,55,4|0|2,1:2|3:2|3:2,0:0:0:0:
357,36,47471,5,6,1:2:0:0:
343,248,47702,1,2,0:2:0:0:
343,248,47817,1,0,3:2:0:0:
343,248,47933,1,2,1:2:0:0:
455,224,48164,1,2,0:2:0:0:
414,330,48394,1,2,1:2:0:0:
397,358,48510,2,0,B|340:331|340:331|287:351,1,110,2|2,0:0|0:0,0:0:0:0:
260,265,48856,2,0,L|134:262,1,110,0|2,1:2|3:2,0:0:0:0:
45,199,49317,5,6,1:2:0:0:
155,352,49664,1,2,1:2:0:0:
498,120,50010,1,2,1:2:0:0:
474,172,50125,1,0,3:2:0:0:
479,228,50240,2,0,B|443:213|443:213|407:226|407:226|364:203|364:203|294:221,1,165,2|0,1:2|3:0,0:0:0:0:
277,232,50702,1,0,1:2:0:0:
235,224,50817,1,0,3:2:0:0:
190,243,50933,1,0,1:2:0:0:
140,216,51048,1,0,3:2:0:0:
85,238,51164,1,4,1:2:0:0:
85,238,51625,5,10,0:0:0:0:
119,95,51856,1,0,1:2:0:0:
226,150,52087,1,2,0:2:0:0:
218,187,52202,1,2,0:0:0:0:
331,62,52433,1,2,0:0:0:0:
337,99,52548,2,0,B|363:118|363:118|401:108,3,55,0|0|2|0,1:2|0:0|1:2|3:2,0:0:0:0:
450,45,53010,2,0,B|473:156|473:156|449:230,1,165,6|2,1:2|3:2,0:0:0:0:
440,249,53471,1,0,1:2:0:0:
225,288,53702,1,2,0:2:0:0:
404,344,53933,1,2,1:2:0:0:
369,327,54048,1,0,3:0:0:0:
330,325,54164,1,0,3:2:0:0:
294,339,54279,1,0,3:0:0:0:
266,365,54394,2,0,P|228:378|202:375,2,55,0|0|2,1:2|3:2|3:2,0:0:0:0:
404,344,54856,6,0,L|436:225,1,110,6|2,1:2|0:2,0:0:0:0:
460,166,55202,1,0,3:2:0:0:
460,166,55317,1,2,1:2:0:0:
482,75,55548,1,2,3:2:0:0:
438,65,55664,1,2,3:2:0:0:
397,81,55779,1,0,1:2:0:0:
368,114,55894,1,0,3:0:0:0:
361,158,56010,1,0,3:2:0:0:
314,247,56240,1,0,1:2:0:0:
263,204,56356,1,0,3:2:0:0:
241,142,56471,1,2,3:2:0:0:
253,77,56587,1,0,3:2:0:0:
295,27,56702,6,0,L|183:19,1,110,6|2,1:2|0:2,0:0:0:0:
0,63,57164,2,0,P|77:84|130:79,1,110,2|2,1:2|0:2,0:0:0:0:
185,19,57510,2,0,L|194:165,1,110,2|0,0:2|0:0,0:0:0:0:
196,178,57856,1,0,3:2:0:0:
94,275,58087,1,0,1:2:0:0:
94,275,58202,1,0,3:2:0:0:
94,275,58317,1,2,3:2:0:0:
312,304,58548,2,0,L|201:283,1,110,6|0,1:2|0:2,0:0:0:0:
480,253,59010,2,0,P|415:261|369:232,1,110,2|0,1:2|0:2,0:0:0:0:
440,79,59471,5,2,1:2:0:0:
440,79,59702,1,2,3:2:0:0:
374,279,59933,1,2,1:2:0:0:
374,279,60164,1,2,3:2:0:0:
131,230,60394,2,0,L|240:223,1,110,6|0,1:2|0:2,0:0:0:0:
32,144,60856,2,0,L|141:137,1,110,2|0,1:2|0:2,0:0:0:0:
441,41,61317,2,0,L|430:109,1,55,6|0,1:2|0:0,0:0:0:0:
480,179,61548,2,0,L|400:199,1,55,0|0,3:2|0:0,0:0:0:0:
337,217,61779,1,2,1:2:0:0:
337,217,61894,1,0,3:2:0:0:
337,217,62010,1,2,3:2:0:0:
244,49,62240,6,0,L|222:191,1,110,6|2,1:2|0:2,0:0:0:0:
223,209,62587,1,0,3:2:0:0:
223,209,62702,1,2,1:2:0:0:
81,183,62933,1,2,0:2:0:0:
209,332,63163,1,2,1:2:0:0:
254,334,63279,2,0,B|303:330|345:335|345:335|361:295,1,110,2|2,0:0|0:0,0:0:0:0:
512,384,63625,2,0,L|386:381,1,110,0|2,1:2|3:2,0:0:0:0:
462,268,64086,5,6,1:2:0:0:
135,61,64433,1,2,1:2:0:0:
132,257,64779,2,0,B|134:234|134:234|80:244,1,55,2|0,1:2|0:2,0:0:0:0:
64,158,65009,6,0,B|152:144|152:144|208:159|208:159|283:147,2,220,6|4|6,1:2|1:2|1:2,0:0:0:0:
13,134,66048,1,0,0:0:0:0:
24,80,66164,1,0,3:2:0:0:
150,174,66394,1,0,1:2:0:0:
142,220,66510,1,0,0:0:0:0:
299,130,66740,1,0,0:2:0:0:
307,164,66856,2,0,P|380:166|439:122,1,110,0|2,1:2|3:2,0:0:0:0:
512,39,67317,6,0,P|439:37|380:81,1,110,2|0,1:2|3:2,0:0:0:0:
356,63,67664,1,2,3:2:0:0:
315,40,67779,2,0,B|233:11|236:115|140:101,1,165,2|0,1:2|3:2,0:0:0:0:
171,101,68240,2,0,B|191:96|191:96|214:100|234:90|234:90|314:118|336:206,1,220,2|2,1:2|1:2,0:0:0:0:
121,295,68933,2,0,P|106:337|115:365,1,55,2|0,3:2|0:0,0:0:0:0:
183,366,69164,2,0,P|196:342|196:314,1,55,2|0,1:2|3:2,0:0:0:0:
279,315,69394,5,2,3:2:0:0:
291,333,69510,1,2,3:2:0:0:
310,338,69625,2,0,B|346:338|384:375|384:375|404:358|439:364|439:364|487:375|520:360,1,220,4|0,1:2|1:2,0:0:0:0:
308,215,70317,1,2,0:2:0:0:
425,136,70548,2,0,P|460:188|475:256,1,110,2|2,1:2|3:2,0:0:0:0:
442,259,70894,1,0,0:0:0:0:
433,248,71010,2,0,L|364:228,1,55,2|0,1:2|3:2,0:0:0:0:
217,194,71240,5,2,3:2:0:0:
217,194,71356,1,2,3:2:0:0:
217,194,71471,2,0,B|162:155|119:222|130:144|56:139,1,165,4|0,1:2|3:2,0:0:0:0:
103,106,71933,1,2,1:2:0:0:
122,119,72048,1,0,3:0:0:0:
19,32,72279,1,0,3:2:0:0:
3,50,72394,6,0,P|-8:76|22:113,1,55,2|0,1:2|0:0,0:0:0:0:
65,140,72625,2,0,P|91:151|128:121,1,55,2|0,1:2|0:0,0:0:0:0:
226,27,72856,2,0,B|238:58|238:58|279:69|306:136,1,110,2|2,1:2|3:2,0:0:0:0:
332,103,73202,1,2,3:2:0:0:
368,127,73317,2,0,B|390:168|390:168|366:201|366:201|373:276|276:334,1,220,4|0,1:2|1:2,0:0:0:0:
73,323,74010,6,0,P|125:368|167:359,1,110,2|0,3:2|1:2,0:0:0:0:
63,203,74471,1,2,3:2:0:0:
7,379,74702,1,2,1:2:0:0:
63,203,74933,1,2,3:2:0:0:
184,314,75164,6,0,P|244:323|324:232,1,165,4|0,1:2|3:2,0:0:0:0:
333,299,75625,1,0,1:2:0:0:
362,277,75740,1,0,3:0:0:0:
352,237,75856,2,0,B|338:216|338:216|344:161,1,55,0|0,3:2|0:2,0:0:0:0:
353,75,76087,1,0,1:2:0:0:
152,6,76317,6,0,B|131:27|131:27|169:105,1,110,2|0,3:2|1:2,0:0:0:0:
193,252,76779,5,2,3:2:0:0:
128,218,76894,2,0,L|160:282,2,55,0|4|0,3:2|1:2|0:0,0:0:0:0:
61,177,77240,5,0,0:2:0:0:
24,215,77356,2,0,L|0:165,2,55,0|0|0,3:2|1:2|0:0,0:0:0:0:
111,256,77702,5,2,0:2:0:0:
199,292,77933,2,0,P|240:283|278:275,1,68.75,2|0,1:2|0:0,0:0:0:0:
374,191,78164,2,0,P|365:150|357:112,1,68.75,2|0,3:2|0:0,0:0:0:0:
276,11,78394,2,0,P|235:20|197:28,1,68.75,2|0,1:2|3:2,0:0:0:0:
96,102,78625,2,0,P|102:127|106:150,6,34.375,6|0|0|0|0|0|0,1:2|0:0|0:0|0:0|0:0|0:0|3:0,0:0:0:0:
48,68,79087,6,0,P|40:107|61:155,1,68.75,4|0,1:2|0:0,0:0:0:0:
174,116,79317,2,0,P|197:144|244:140,1,68.75,4|0,1:2|0:0,0:0:0:0:
340,78,79548,1,2,0:0:0:0:
461,112,79779,1,2,0:0:0:0:
340,78,80010,1,2,1:2:0:0:
461,112,80240,1,2,0:0:0:0:
340,78,80471,1,2,1:2:0:0:
461,112,80702,6,0,B|471:219|471:219|499:267,1,137.5,6|2,1:2|3:2,0:0:0:0:
486,244,81048,2,0,B|434:238|391:209|391:209|321:228,1,137.5,2|0,3:2|0:0,0:0:0:0:
342,257,81394,1,2,3:2:0:0:
236,223,81625,2,0,B|225:263|196:287|196:287|171:272|100:271,1,137.5,2|2,1:2|3:2,0:0:0:0:
111,293,81971,2,0,B|72:281|46:247|46:247|93:161,1,137.5,2|0,0:0|3:0,0:0:0:0:
121,189,82317,5,2,3:2:0:0:
137,135,82433,1,2,3:2:0:0:
190,149,82548,2,0,B|331:184|276:223|438:262,1,275,4|2,1:2|1:2,0:0:0:0:
474,66,83240,1,2,3:2:0:0:
509,101,83356,2,0,B|420:122|473:143|389:168,1,137.5,2|0,0:0|0:0,0:0:0:0:
392,167,83702,1,2,3:2:0:0:
127,235,83933,6,0,P|148:262|228:253,1,68.75,2|0,1:2|3:0,0:0:0:0:
66,193,84164,2,0,P|66:224|84:272,1,68.75,2|0,3:2|3:0,0:0:0:0:
25,132,84394,2,0,P|16:157|12:172,2,34.375,6|0|0,1:2|0:0|0:0,0:0:0:0:
35,334,84740,5,0,3:2:0:0:
35,334,84856,2,0,P|94:372|191:342,1,137.5,2|2,1:2|3:2,0:0:0:0:
196,374,85202,2,0,B|170:346|170:346|246:292|232:177,1,206.25,2|2,0:2|3:2,0:0:0:0:
276,171,85664,1,0,0:0:0:0:
225,151,85779,2,0,P|206:187|162:215,1,68.75,2|0,1:2|3:2,0:0:0:0:
326,187,86010,2,0,P|345:151|389:123,1,68.75,2|0,3:2|3:2,0:0:0:0:
502,295,86240,6,0,P|434:286|362:354,1,137.5,6|2,1:2|3:2,0:0:0:0:
433,369,86587,1,2,3:2:0:0:
450,358,86702,1,0,1:2:0:0:
258,286,86933,2,0,L|269:322,1,34.375,2|0,3:1|0:0,0:0:0:0:
412,208,87164,1,0,1:2:0:0:
272,80,87394,1,2,3:2:0:0:
56,173,87625,5,2,1:2:0:0:
56,173,87740,1,2,3:2:0:0:
56,173,87856,1,2,3:2:0:0:
56,173,87971,1,2,3:2:0:0:
56,173,88087,1,6,1:2:0:0:
375,223,88433,1,0,3:2:0:0:
403,246,88548,6,0,B|331:254|331:254|293:182,1,137.5,2|2,1:2|3:2,0:0:0:0:
330,130,88894,2,0,B|300:114|300:114|212:164|212:164|181:132|181:132|124:159,1,206.25,2|0,0:2|3:2,0:0:0:0:
167,113,89356,1,0,0:0:0:0:
122,133,89471,2,0,B|92:155|92:155|90:237,2,68.75,0|0|2,1:2|3:2|3:2,0:0:0:0:
481,289,89933,6,0,B|467:221|260:179|344:268|413:306|447:234|435:239,1,206.25,6|0,1:2|3:2,0:0:0:0:
423,333,90394,2,0,P|403:352|344:328,1,68.75,2|0,1:2|0:0,0:0:0:0:
271,381,90625,2,0,P|264:348|251:304,1,68.75,2|0,3:2|0:2,0:0:0:0:
213,193,90856,1,2,1:2:0:0:
51,174,91087,1,2,3:2:0:0:
51,174,91202,1,2,0:0:0:0:
51,174,91317,2,0,B|24:218|24:218|51:265,2,68.75,4|0|2,1:2|3:2|3:2,0:0:0:0:
254,314,91779,6,0,B|202:295|202:295|134:357|48:329,1,206.25,6|0,1:2|3:2,0:0:0:0:
288,280,92240,6,0,B|269:229|269:229|331:161|307:89,1,206.25,4|2,1:2|0:2,0:0:0:0:
296,335,92702,6,0,B|348:316|348:316|416:378|502:350,1,206.25,4|0,1:2|0:0,0:0:0:0:
471,311,93164,5,4,1:2:0:0:
438,286,93279,1,0,3:2:0:0:
437,240,93394,1,0,1:2:0:0:
406,195,93510,1,0,3:2:0:0:
361,180,93625,2,0,P|366:223|366:177,1,137.5,4|8,1:2|3:2,0:0:0:0:
370,141,93971,2,0,P|348:96|350:145,1,137.5,8|0,3:2|0:0,0:0:0:0:
454,137,94317,5,2,3:2:0:0:
485,270,94548,2,0,L|501:167,1,68.75,6|0,1:2|0:0,0:0:0:0:
392,291,94779,1,6,1:2:0:0:
401,328,94894,1,0,3:0:0:0:
431,351,95010,2,0,P|394:364|366:384,1,68.75,6|0,1:2|3:2,0:0:0:0:
186,344,95240,2,0,L|272:351,1,68.75,6|0,1:2|3:2,0:0:0:0:
110,252,95471,6,0,L|250:261,1,137.5,6|2,1:2|3:2,0:0:0:0:
298,263,95817,1,2,3:2:0:0:
432,173,96048,1,0,3:0:0:0:
399,203,96164,1,2,3:2:0:0:
404,231,96279,1,0,3:2:0:0:
417,246,96394,2,0,P|382:167|326:144,1,137.5,2|2,1:2|3:2,0:0:0:0:
196,78,96740,2,0,P|319:73|394:82,1,137.5,2|0,0:0|3:2,0:0:0:0:
447,45,97087,1,2,3:2:0:0:
447,45,97202,2,0,B|482:156|360:133|381:294|493:285,1,275,2|0,3:2|3:2,0:0:0:0:
483,208,97779,2,0,L|308:212,1,137.5,2|2,1:2|3:2,0:0:0:0:
229,240,98125,6,0,P|275:306|369:288,1,137.5,2|0,0:2|0:0,0:0:0:0:
378,292,98471,1,2,3:2:0:0:
401,241,98587,1,0,3:0:0:0:
372,194,98702,1,2,1:2:0:0:
339,149,98817,1,0,3:2:0:0:
349,94,98933,1,2,1:2:0:0:
396,66,99048,1,0,3:2:0:0:
449,81,99164,6,0,P|351:46|225:72,1,206.25,6|0,1:2|3:2,0:0:0:0:
192,96,99625,1,2,1:2:0:0:
32,171,99856,1,2,3:2:0:0:
72,162,99971,2,0,P|116:206|184:185,1,137.5,2|0,0:2|0:0,0:0:0:0:
355,211,100317,2,0,B|383:190|383:190|361:247,1,68.75,2|0,3:2|0:0,0:0:0:0:
373,351,100548,2,0,B|376:385|376:385|337:338,1,68.75,2|0,1:2|3:2,0:0:0:0:
242,297,100779,2,0,B|210:282|210:282|270:272,1,68.75,2|0,3:2|3:2,0:0:0:0:
323,286,101010,6,0,L|483:318,1,137.5,6|0,1:2|3:2,0:0:0:0:
467,235,101356,2,0,L|332:208,1,137.5,2|0,3:2|0:0,0:0:0:0:
333,127,101702,2,0,L|493:159,1,137.5,6|0,1:2|3:2,0:0:0:0:
414,140,102048,1,0,3:0:0:0:
392,88,102164,1,0,1:2:0:0:
410,36,102279,1,0,3:0:0:0:
464,32,102394,2,0,B|510:15|510:15|415:11,1,137.5,2|2,1:2|1:2,0:0:0:0:
135,68,102856,6,0,L|281:100,1,137.5,6|2,1:2|3:2,0:0:0:0:
311,31,103202,2,0,B|281:74|281:74|323:123|300:188,1,137.5,2|0,3:2|0:0,0:0:0:0:
291,205,103548,1,0,3:2:0:0:
415,307,103779,1,0,1:2:0:0:
415,307,103894,1,0,3:0:0:0:
454,269,104010,2,0,L|356:262,1,68.75,2|0,3:2|0:0,0:0:0:0:
227,315,104240,2,0,L|295:319,1,68.75,2|0,1:2|3:2,0:0:0:0:
139,355,104471,1,2,3:2:0:0:
116,304,104587,1,0,3:2:0:0:
145,257,104702,2,0,B|115:175|115:175|171:153|192:107|192:107|151:78,1,206.25,4|0,1:2|3:2,0:0:0:0:
90,76,105164,2,0,P|123:20|220:20,1,137.5,2|0,1:2|3:2,0:0:0:0:
18,31,105625,5,6,1:2:0:0:
101,322,105971,1,2,1:2:0:0:
433,88,106317,1,2,1:2:0:0:
429,216,106548,1,6,1:2:0:0:
381,207,106664,1,0,3:0:0:0:
337,227,106779,1,0,3:2:0:0:
310,267,106894,1,0,3:2:0:0:
309,315,107010,2,0,P|283:338|234:337,3,68.75,2|0|0|0,1:2|3:0|3:2|3:2,0:0:0:0:
34,307,107471,5,2,1:2:0:0:
60,284,107587,1,0,3:0:0:0:
91,270,107702,1,0,3:2:0:0:
125,268,107817,1,0,3:0:0:0:
158,276,107933,2,0,P|187:271|230:253,3,68.75,2|0|0|0,1:2|3:2|1:2|3:2,0:0:0:0:
416,222,108394,5,6,1:2:0:0:
384,176,108510,1,0,3:0:0:0:
336,149,108625,1,0,3:2:0:0:
281,145,108740,1,0,3:2:0:0:
226,156,108856,2,0,P|179:163|148:155,1,68.75,6|0,1:2|3:0,0:0:0:0:
44,107,109087,2,0,B|43:74|43:74|75:104,1,68.75,0|0,3:2|3:2,0:0:0:0:
122,313,109317,5,6,1:2:0:0:
183,322,109433,1,0,3:0:0:0:
234,288,109548,1,6,1:2:0:0:
252,228,109664,1,0,3:0:0:0:
250,166,109779,1,6,1:2:0:0:
274,109,109894,1,0,3:2:0:0:
334,95,110010,1,6,1:2:0:0:
391,117,110125,1,0,3:2:0:0:
414,174,110240,6,0,B|378:113|391:40|391:40|435:84|489:129,1,206.25,6|0,1:2|3:0,0:0:0:0:
392,41,110702,2,0,P|324:24|244:56,1,137.5,2|2,0:0|1:2,0:0:0:0:
90,58,111164,1,2,0:0:0:0:
130,73,111279,2,0,P|156:44|164:14,2,68.75,2|0|2,0:0|0:0|0:0,0:0:0:0:
49,163,111625,2,0,P|130:169|223:153,1,137.5,0|2,1:0|1:2,0:0:0:0:
375,242,112087,6,0,B|368:240|406:205|406:205|372:236|329:249,1,137.5,2|0,1:2|0:0,0:0:0:0:
245,305,112433,2,0,P|303:289|382:306,1,137.5,2|0,3:2|0:0,0:0:0:0:
424,337,112779,1,2,0:2:0:0:
405,39,113010,1,2,1:2:0:0:
390,91,113125,1,0,3:0:0:0:
398,145,113240,1,2,3:2:0:0:
430,189,113356,1,0,3:0:0:0:
480,209,113471,2,0,P|463:170|461:132,2,68.75,0|0|2,1:2|3:2|3:2,0:0:0:0:
394,384,113933,6,0,P|401:331|326:274,1,137.5,6|2,1:2|0:0,0:0:0:0:
75,263,114394,1,2,1:2:0:0:
150,140,114625,1,2,3:2:0:0:
163,161,114740,1,2,3:2:0:0:
302,183,114971,1,0,3:0:0:0:
315,204,115086,1,0,3:0:0:0:
377,26,115317,1,0,1:0:0:0:
390,47,115433,1,0,3:0:0:0:
476,52,115548,1,2,3:2:0:0:
476,52,115664,1,0,3:0:0:0:
476,52,115779,6,0,B|444:117|444:117|455:194,1,137.5,6|2,1:2|0:0,0:0:0:0:
512,316,116240,1,2,1:2:0:0:
360,270,116471,1,2,3:2:0:0:
347,249,116587,1,2,3:2:0:0:
208,227,116817,1,0,3:0:0:0:
195,206,116932,1,0,3:0:0:0:
80,384,117163,1,0,1:0:0:0:
67,363,117278,1,0,3:0:0:0:
113,297,117394,1,2,3:2:0:0:
113,297,117510,1,0,3:0:0:0:
113,297,117625,6,0,B|173:284|237:308|237:308|293:300|336:324,1,206.25,6|0,1:2|3:2,0:0:0:0:
433,371,118087,2,0,L|421:234,1,137.5,2|0,1:2|0:0,0:0:0:0:
482,150,118433,1,0,0:0:0:0:
472,121,118548,2,0,L|330:92,3,137.5,2|2|2|2,1:2|3:2|1:2|3:2,0:0:0:0:
45,125,119471,2,0,P|105:161|232:90,1,206.25,6|0,1:2|3:2,0:0:0:0:
265,48,119933,1,2,1:2:0:0:
280,217,120164,1,0,0:0:0:0:
435,205,120394,1,6,1:2:0:0:
439,253,120510,1,0,3:0:0:0:
480,229,120625,1,0,3:0:0:0:
399,359,120856,1,0,1:0:0:0:
359,331,120971,1,0,3:0:0:0:
347,377,121087,1,0,3:2:0:0:
144,339,121317,6,0,P|180:340|201:306,1,68.75,6|0,1:2|0:0,0:0:0:0:
278,203,121548,2,0,P|234:203|238:238,1,68.75,2|0,0:0|3:2,0:0:0:0:
19,217,121779,2,0,P|58:261|120:178,1,137.5,2|2,1:2|0:0,0:0:0:0:
39,59,122240,1,2,1:2:0:0:
33,92,122356,1,2,3:2:0:0:
155,37,122587,1,2,3:2:0:0:
149,70,122702,2,0,B|190:62|190:62|243:68,1,68.75,0|0,1:0|3:0,0:0:0:0:
438,34,122933,2,0,B|397:40|397:40|369:35,1,68.75,2|0,3:2|3:0,0:0:0:0:
327,30,123164,5,6,1:2:0:0:
440,148,123394,1,0,0:0:0:0:
459,191,123510,1,2,3:2:0:0:
498,219,123625,2,0,P|458:233|390:230,1,68.75,12|0,1:2|0:0,0:0:0:0:
320,328,123856,2,0,P|284:326|251:329,1,68.75,2|0,1:2|0:0,0:0:0:0:
86,270,124087,1,14,1:2:0:0:
97,190,124202,1,0,3:0:0:0:
160,153,124317,1,0,1:0:0:0:
226,173,124433,1,0,3:0:0:0:
292,172,124548,1,0,1:2:0:0:
338,141,124664,1,0,3:2:0:0:
352,101,124779,1,0,1:2:0:0:
334,56,124894,1,0,3:0:0:0:
295,35,125010,1,6,1:2:0:0:
256,192,125067,12,0,125933,1:2:0:0:
497,277,126164,5,2,3:2:0:0:
497,277,126279,1,0,0:0:0:0:
497,277,126394,1,2,1:2:0:0:
252,364,126740,1,2,3:2:0:0:
205,340,126856,2,0,B|99:374|99:374|-11:348|-11:241,2,275,4|2|2,1:2|1:2|1:2,0:0:0:0:
331,290,128010,1,2,3:2:0:0:
223,203,128240,1,2,1:2:0:0:
87,243,128471,1,2,1:2:0:0:
51,227,128587,1,2,3:2:0:0:
90,207,128702,6,0,P|86:140|60:12,1,165,4|0,1:2|3:2,0:0:0:0:
46,25,129164,1,0,1:2:0:0:
176,123,129394,1,2,0:2:0:0:
277,105,129625,1,2,1:2:0:0:
380,83,129856,1,2,3:2:0:0:
475,58,130087,2,0,P|459:139|458:185,1,110,2|2,1:2|3:2,0:0:0:0:
486,192,130433,1,2,3:2:0:0:
508,162,130548,2,0,B|480:137|418:148|407:191,1,110,4|0,1:2|3:2,0:0:0:0:
295,250,131010,6,0,P|275:259|294:289,1,55,2|0,1:2|0:0,0:0:0:0:
353,300,131240,2,0,P|353:315|378:363,1,55,2|0,0:2|0:2,0:0:0:0:
241,374,131471,1,2,1:2:0:0:
370,226,131702,1,2,1:2:0:0:
141,174,131933,1,2,1:2:0:0:
271,61,132164,1,2,1:2:0:0:
280,41,132279,1,2,3:2:0:0:
279,20,132394,2,0,P|275:131|252:271,1,220,4|0,1:2|1:2,0:0:0:0:
33,173,133087,5,0,0:2:0:0:
374,247,133548,1,2,3:2:0:0:
437,341,133779,2,0,B|469:346|469:346|500:287,1,55,2|0,1:2|3:2,0:0:0:0:
349,250,134010,2,0,B|338:272|338:272|360:343,1,55,2|0,3:2|3:2,0:0:0:0:
499,153,134240,2,0,P|413:173|297:152,1,165,4|0,1:2|3:2,0:0:0:0:
375,139,134702,5,2,1:2:0:0:
201,170,134933,2,0,L|150:183,1,27.5,0|0,0:2|0:0,0:0:0:0:
250,258,135164,5,2,1:2:0:0:
324,62,135394,1,2,3:2:0:0:
112,105,135625,2,0,L|111:146,1,27.5,2|0,1:2|0:0,0:0:0:0:
64,244,135856,2,0,L|53:317,1,55,2|0,3:2|3:2,0:0:0:0:
127,372,136087,5,4,1:2:0:0:
166,348,136202,2,0,P|188:365|225:366,2,55,0|0|0,0:0|0:2|3:2,0:0:0:0:
269,315,136548,5,2,1:2:0:0:
305,343,136663,2,0,P|327:360|364:361,2,55,0|0|0,0:0|0:2|3:2,0:0:0:0:
417,313,137010,6,0,L|437:218,1,68.75,2|0,1:2|0:0,0:0:0:0:
360,88,137240,2,0,L|265:68,1,68.75,2|0,3:2|0:0,0:0:0:0:
114,118,137471,2,0,L|94:213,1,68.75,2|0,1:2|3:2,0:0:0:0:
168,323,137701,2,0,L|226:339,6,34.375,6|0|0|0|0|0|0,1:2|0:0|0:0|0:0|0:0|0:0|3:0,0:0:0:0:
91,348,138164,6,0,P|114:341|181:371,1,68.75,4|0,1:2|0:0,0:0:0:0:
20,378,138394,2,0,P|37:338|78:292,1,68.75,4|0,1:2|0:0,0:0:0:0:
193,208,138625,1,2,0:0:0:0:
297,289,138856,1,2,0:0:0:0:
193,208,139087,1,2,1:2:0:0:
297,289,139317,1,2,0:0:0:0:
193,208,139548,1,2,0:2:0:0:
297,289,139779,6,0,B|358:319|393:320|393:320|450:284,1,137.5,6|2,1:2|3:2,0:0:0:0:
468,310,140125,2,0,B|495:274|495:274|474:225,2,68.75,2|0|0,3:2|1:2|0:0,0:0:0:0:
407,220,140471,5,2,3:2:0:0:
395,199,140587,1,0,3:0:0:0:
376,184,140702,2,0,B|319:157|278:168|278:168|308:200,1,137.5,2|2,1:2|3:2,0:0:0:0:
253,217,141048,2,0,B|238:193|218:202|195:182,2,68.75,2|0|0,0:0|1:2|3:0,0:0:0:0:
181,258,141394,5,2,3:2:0:0:
109,230,141510,1,2,3:2:0:0:
61,258,141625,2,0,B|22:298|22:298|42:200|0:86,1,206.25,4|0,1:2|3:2,0:0:0:0:
0,77,142087,6,0,B|99:52|74:113|172:108,1,137.5,2|2,1:2|3:2,0:0:0:0:
207,118,142433,2,0,B|114:108|94:183|163:130,1,137.5,2|0,3:2|0:0,0:0:0:0:
207,118,142779,6,0,P|222:145|293:150,1,68.75,2|0,3:2|0:0,0:0:0:0:
314,118,143010,2,0,P|334:122|391:103,1,68.75,2|0,1:2|3:0,0:0:0:0:
443,67,143240,2,0,P|456:63|438:64,1,68.75,2|0,3:2|3:0,0:0:0:0:
333,21,143471,5,6,1:2:0:0:
440,274,143933,2,0,B|380:252|380:252|336:253|286:308,1,137.5,2|2,1:2|3:2,0:0:0:0:
331,311,144279,1,2,0:2:0:0:
284,331,144394,2,0,B|226:293|226:293|233:383,1,137.5,0|2,1:2|3:2,0:0:0:0:
5,226,144856,6,0,P|30:244|116:232,1,68.75,2|0,1:2|3:2,0:0:0:0:
135,223,145087,1,2,3:2:0:0:
135,223,145317,1,6,1:2:0:0:
187,205,145433,1,0,3:0:0:0:
233,176,145548,1,2,3:2:0:0:
286,190,145664,1,2,3:2:0:0:
340,197,145779,2,0,P|351:271|316:344,1,137.5,0|2,1:2|3:1,0:0:0:0:
493,215,146240,2,0,P|482:141|517:68,1,137.5,0|2,1:2|3:2,0:0:0:0:
362,5,146702,5,2,1:2:0:0:
307,4,146817,1,2,3:2:0:0:
251,31,146933,1,2,1:2:0:0:
219,91,147048,1,2,3:2:0:0:
239,164,147164,1,6,1:2:0:0:
239,164,147625,6,0,L|225:248,1,68.75,2|0,1:2|0:0,0:0:0:0:
257,301,147856,1,2,3:2:0:0:
215,325,147971,2,0,B|161:300|161:300|86:295|32:351|94:365,1,206.25,2|0,0:2|3:2,0:0:0:0:
76,384,148433,1,0,3:0:0:0:
119,357,148548,1,0,1:2:0:0:
11,212,148779,6,0,P|8:243|-13:283,1,68.75,2|0,3:2|3:2,0:0:0:0:
84,160,149010,2,0,B|103:184|134:180|134:180|172:237|206:216|206:216|277:222|277:222|306:248|352:242,1,275,6|2,1:2|1:2,0:0:0:0:
489,110,149702,1,2,3:2:0:0:
489,110,149817,1,0,0:2:0:0:
463,136,149933,2,0,L|381:107,1,68.75,2|0,1:2|0:0,0:0:0:0:
279,54,150164,1,2,3:2:0:0:
279,54,150279,1,2,0:0:0:0:
320,46,150394,2,0,B|291:92|291:92|290:132,2,68.75,4|0|2,1:2|3:2|3:2,0:0:0:0:
215,204,150856,6,0,P|127:178|15:260,1,206.25,6|0,1:2|3:2,0:0:0:0:
187,244,151317,6,0,P|161:156|243:44,1,206.25,4|2,1:2|0:2,0:0:0:0:
144,256,151779,6,0,P|230:307|327:282,1,206.25,4|0,1:2|0:0,0:0:0:0:
341,263,152240,1,4,1:2:0:0:
385,272,152356,1,0,3:2:0:0:
420,236,152471,1,0,1:2:0:0:
463,255,152587,1,0,3:2:0:0:
512,205,152702,6,0,B|498:109|434:89|472:177,1,137.5,4|8,1:2|3:2,0:0:0:0:
512,205,153048,2,0,B|498:301|434:321|472:233,1,137.5,8|0,3:2|0:0,0:0:0:0:
463,255,153394,5,2,3:2:0:0:
290,252,153625,1,6,1:2:0:0:
297,232,153740,1,0,3:0:0:0:
249,209,153856,2,0,L|234:286,1,68.75,6|0,1:2|0:0,0:0:0:0:
151,334,154087,1,6,1:2:0:0:
130,303,154202,1,0,3:2:0:0:
174,263,154317,2,0,P|152:196|120:173,1,68.75,6|0,1:2|3:2,0:0:0:0:
19,218,154548,6,0,P|143:199|203:205,1,137.5,6|2,1:2|3:2,0:0:0:0:
228,130,154894,2,0,L|265:210,1,68.75,2|0,3:2|1:2,0:0:0:0:
256,192,155240,2,0,P|369:173|416:128,1,137.5,2|2,3:2|1:2,0:0:0:0:
494,142,155702,2,0,L|460:76,1,68.75,2|2,3:2|0:0,0:0:0:0:
462,80,156048,5,0,3:2:0:0:
441,123,156164,1,2,3:2:0:0:
451,157,156279,1,2,3:2:0:0:
472,172,156394,2,0,P|495:251|477:334,1,137.5,4|0,1:2|3:2,0:0:0:0:
438,338,156740,1,0,3:2:0:0:
379,329,156856,2,0,P|348:323|294:337,3,68.75,2|0|2|2,1:2|0:0|3:2|0:2,0:0:0:0:
219,361,157317,5,0,1:2:0:0:
172,331,157433,1,0,3:0:0:0:
172,283,157548,1,2,3:2:0:0:
198,242,157664,1,0,3:0:0:0:
224,210,157779,1,2,1:2:0:0:
223,168,157894,1,0,3:2:0:0:
200,141,158010,1,2,1:2:0:0:
173,133,158125,1,0,3:2:0:0:
149,145,158240,6,0,B|217:188|308:152|308:152|310:105,1,206.25,6|0,1:2|3:2,0:0:0:0:
311,43,158702,2,0,L|309:142,1,68.75,2|0,1:2|0:0,0:0:0:0:
390,247,158933,2,0,L|392:178,1,68.75,2|2,3:2|0:2,0:0:0:0:
402,116,159164,1,2,1:0:0:0:
380,173,159279,1,0,3:0:0:0:
406,228,159394,1,2,3:2:0:0:
379,284,159510,1,0,3:0:0:0:
399,342,159625,2,0,L|481:348,1,68.75,2|0,1:2|3:2,0:0:0:0:
309,363,159856,2,0,L|240:357,1,68.75,2|0,3:2|3:2,0:0:0:0:
0,302,160087,6,0,P|111:315|157:292,1,137.5,6|0,1:2|3:2,0:0:0:0:
178,246,160433,2,0,L|356:260,1,137.5,0|0,1:2|0:0,0:0:0:0:
420,246,160779,1,6,1:2:0:0:
490,262,160894,1,0,3:2:0:0:
497,334,161010,1,0,3:0:0:0:
429,362,161125,1,0,3:2:0:0:
382,307,161240,2,0,P|394:237|379:189,1,68.75,0|0,1:2|0:0,0:0:0:0:
400,118,161471,2,0,L|291:136,1,68.75,2|0,1:2|0:0,0:0:0:0:
482,32,161702,2,0,L|513:120,1,68.75,2|0,1:2|3:2,0:0:0:0:
356,14,161933,6,0,L|231:5,1,68.75,6|0,1:2|0:0,0:0:0:0:
214,38,162164,1,2,3:2:0:0:
236,87,162279,1,2,3:2:0:0:
181,85,162394,2,0,L|168:242,2,137.5,0|0|0,1:2|3:2|1:2,0:0:0:0:
73,352,163087,2,0,B|47:257|47:257|115:184,1,137.5,2|2,3:2|1:2,0:0:0:0:
169,222,163433,1,0,3:2:0:0:
197,249,163548,2,0,L|341:255,1,137.5,2|4,3:2|1:2,0:0:0:0:
376,256,163894,5,0,3:0:0:0:
376,256,164010,1,0,3:2:0:0:
376,256,164125,1,0,3:2:0:0:
376,256,164240,2,0,B|459:272|474:224|474:224|458:171,1,137.5,2|0,1:2|3:2,0:0:0:0:
415,50,164702,1,2,1:2:0:0:
453,35,164817,1,0,0:0:0:0:
244,84,165048,1,2,0:0:0:0:
252,29,165164,1,0,1:2:0:0:
307,38,165279,1,0,3:2:0:0:
297,91,165394,1,2,1:2:0:0:
45,88,165625,5,6,1:2:0:0:
174,141,165856,1,0,3:2:0:0:
174,141,165971,1,0,3:2:0:0:
163,189,166087,1,2,1:2:0:0:
244,84,166317,1,0,3:2:0:0:
461,175,166548,5,2,1:2:0:0:
332,228,166779,1,0,3:2:0:0:
332,228,166894,1,0,3:0:0:0:
343,276,167010,1,2,1:2:0:0:
262,171,167240,1,0,1:2:0:0:
41,263,167471,5,6,1:2:0:0:
170,316,167702,1,0,3:2:0:0:
170,316,167817,1,0,3:2:0:0:
159,364,167933,1,6,1:2:0:0:
240,259,168163,1,2,3:2:0:0:
361,317,168394,5,6,1:2:0:0:
361,317,168625,1,6,1:2:0:0:
484,144,168856,1,6,1:2:0:0:
484,144,169087,1,6,1:2:0:0:
490,364,169317,6,0,P|369:343|312:336,1,137.5,6|2,1:2|3:2,0:0:0:0:
276,353,169664,2,0,B|289:312|289:312|231:298,1,68.75,2|0,3:2|1:2,0:0:0:0:
22,252,170010,1,2,3:2:0:0:
27,297,170125,1,0,3:0:0:0:
53,313,170240,2,0,L|118:289,1,68.75,2|0,1:2|0:0,0:0:0:0:
202,228,170471,1,2,3:2:0:0:
231,243,170587,2,0,B|178:237|178:237|168:216,1,68.75,2|0,3:2|1:2,0:0:0:0:
440,333,170933,1,2,3:2:0:0:
410,284,171048,1,2,3:2:0:0:
443,261,171164,6,0,B|497:206|497:206|456:83,1,206.25,4|0,1:2|3:2,0:0:0:0:
507,23,171625,2,0,P|403:75|331:55,1,137.5,2|2,1:2|3:2,0:0:0:0:
306,52,171971,1,2,3:2:0:0:
217,118,172202,1,0,3:0:0:0:
207,87,172317,1,2,3:2:0:0:
246,209,172548,1,2,1:2:0:0:
155,238,172779,1,2,3:2:0:0:
185,330,173010,2,0,B|130:345|50:343|50:343|147:369,1,206.25,6|0,1:2|3:2,0:0:0:0:
52,344,173471,6,0,P|69:273|46:203,1,137.5,2|2,1:2|3:2,0:0:0:0:
97,149,173817,2,0,B|112:98|112:98|22:151,1,137.5,2|0,3:2|0:0,0:0:0:0:
204,72,174164,2,0,P|207:104|181:125,1,68.75,2|0,3:2|0:0,0:0:0:0:
331,189,174394,2,0,P|312:158|234:169,1,68.75,2|0,1:2|3:2,0:0:0:0:
378,87,174625,2,0,P|399:38|378:7,1,68.75,2|0,3:2|3:2,0:0:0:0:
480,133,174856,2,0,L|342:124,1,137.5,6|2,1:2|3:2,0:0:0:0:
274,62,175202,1,2,3:2:0:0:
256,192,175260,12,2,176010,3:2:0:0:
156,292,176240,5,2,1:2:0:0:
206,324,176356,1,2,3:2:0:0:
244,289,176471,1,2,3:2:0:0:
283,304,176587,1,2,3:2:0:0:
309,279,176702,2,0,B|445:268|445:268|478:237|475:189,1,206.25,6|0,1:2|3:2,0:0:0:0:
492,131,177164,2,0,L|503:296,1,137.5,2|2,1:2|3:2,0:0:0:0:
509,322,177510,1,2,3:2:0:0:
467,352,177625,2,0,P|436:376|388:385,3,68.75,0|0|0|0,1:2|0:0|3:2|0:0,0:0:0:0:
332,357,178087,1,0,1:2:0:0:
278,346,178202,1,0,3:2:0:0:
224,357,178317,2,0,P|182:353|132:358,1,68.75,2|0,3:2|3:2,0:0:0:0:
64,373,178548,6,0,P|195:346|267:279,1,206.25,6|0,1:2|3:2,0:0:0:0:
367,191,179010,2,0,L|347:306,1,68.75,2|0,1:2|0:0,0:0:0:0:
332,357,179240,1,2,3:2:0:0:
121,234,179471,1,2,1:2:0:0:
340,118,179702,1,2,3:2:0:0:
371,147,179817,2,0,P|251:79|144:80,1,206.25,2|2,3:2|3:2,0:0:0:0:
0,283,180394,6,0,B|65:216|65:216|151:223,1,137.5,6|0,1:2|3:2,0:0:0:0:
163,229,180740,1,0,3:2:0:0:
194,183,180856,2,0,L|281:193,3,68.75,4|0|2|2,1:2|0:0|3:2|0:2,0:0:0:0:
289,289,181317,2,0,L|376:299,1,68.75,4|0,1:2|0:0,0:0:0:0:
384,149,181548,2,0,L|471:159,1,68.75,0|0,3:2|0:0,0:0:0:0:
506,316,181779,1,4,1:2:0:0:
438,67,182010,1,0,1:2:0:0:
300,191,182240,5,4,1:2:0:0:
228,84,182471,1,2,3:2:0:0:
228,84,182587,1,0,3:2:0:0:
228,84,182702,1,0,1:2:0:0:
228,84,182817,1,0,3:0:0:0:
228,84,182933,1,2,3:2:0:0:
73,232,183164,5,6,1:2:0:0:
313,167,183394,1,6,1:2:0:0:
430,324,183625,1,6,1:2:0:0:
185,255,183856,1,6,1:2:0:0:
248,377,184087,1,6,1:2:0:0:
89,269,184317,5,2,3:2:0:0:
69,279,184433,1,2,3:2:0:0:
59,299,184548,2,0,P|11:271|19:171,1,137.5,0|2,1:2|3:2,0:0:0:0:
226,90,185010,1,2,1:2:0:0:
350,201,185240,1,2,3:2:0:0:
386,242,185356,2,0,B|417:271|417:271|529:232|529:232|541:185,1,206.25,2|2,3:2|3:2,0:0:0:0:
478,140,185817,1,2,3:2:0:0:
465,216,185933,2,0,L|435:377,1,137.5,4|0,1:2|3:2,0:0:0:0:
105,240,186394,6,0,P|160:290|258:263,1,137.5,2|2,1:1|3:1,0:0:0:0:
183,222,186740,1,2,0:1:0:0:
105,240,186856,2,0,P|85:315|99:369,1,68.75,0|0,1:2|0:0,0:0:0:0:
205,138,187087,6,0,P|173:157|141:190,1,68.75,2|0,3:1|0:0,0:0:0:0:
407,110,187317,2,0,P|335:123|254:98,1,137.5,2|2,1:1|1:1,0:0:0:0:
213,67,187664,1,0,3:2:0:0:
250,7,187779,2,2,L|250:52,6,34.375,6|0|0|0|0|0|0,1:1|0:0|0:0|0:0|3:2|0:0|3:2,0:1:0:0:
142,32,188240,6,0,B|77:62|77:62|5:65,1,137.5,2|2,1:1|3:1,0:0:0:0:
41,36,188587,1,2,0:1:0:0:
84,79,188702,2,0,B|67:94|67:94|42:201,1,68.75,2|0,1:0|0:0,0:0:0:0:
169,241,188933,6,0,L|354:221,3,165.000006294251,2|2|2|6,3:1|1:1|1:1|1:0,0:0:0:0:
256,35,189856,1,0,3:0:0:0:
256,35,189971,1,2,1:0:0:0:
349,359,190202,5,0,3:0:0:0:
349,359,190317,2,2,L|100:339,1,206.25,6|0,1:0|3:0,0:1:0:0:
251,233,190779,1,0,1:2:0:0:
311,275,191010,5,2,1:2:0:0:
321,206,191125,1,0,3:2:0:0:
266,161,191240,1,2,1:2:0:0:
197,181,191356,1,0,3:2:0:0:
179,250,191471,2,0,B|96:227|104:295|9:283,1,137.5,6|2,1:2|3:2,0:0:0:0:
33,298,191817,5,2,3:2:0:0:
21,256,191933,1,0,1:2:0:0:
222,115,192164,1,0,3:2:0:0:
237,103,192279,1,0,3:2:0:0:
250,151,192394,1,2,1:2:0:0:
420,278,192625,1,0,3:2:0:0:
435,290,192740,1,0,3:0:0:0:
448,242,192855,1,0,1:2:0:0:
318,9,193087,5,0,3:2:0:0:
64,110,193317,2,2,B|6:203|100:275,2,137.5,6|0|0,1:2|3:2|1:2,0:1:0:0:
417,52,194010,1,2,3:2:0:0:
64,110,194240,6,2,B|20:181|63:238|63:238|96:206|71:165,1,206.25,6|0,1:2|3:2,0:1:0:0:
143,138,194702,1,6,1:2:0:0:
201,172,194817,1,0,3:0:0:0:
269,178,194933,1,6,1:2:0:0:
335,160,195048,1,0,3:0:0:0:
394,124,195164,6,0,B|434:72|504:78|504:78|505:201|415:229|477:366|477:366|380:298|308:343,1,577.500022029878,6|2,1:2|1:2,0:0:0:0:
252,264,197010,2,0,B|221:297|223:368|223:368|171:319|106:316|106:316|138:276|147:221|147:221|68:247|4:206,1,495.000018882752,6|2,1:2|1:2,0:0:0:0:
95,87,198625,1,2,1:2:0:0:
226,149,198856,2,0,B|317:164|376:114|376:114|427:143|481:139|481:139|493:216|444:289,1,412.500015735627,6|2,1:2|3:2,0:0:0:0:
381,333,200240,1,2,1:2:0:0:
284,288,200471,1,2,1:2:0:0:
195,345,200702,5,6,1:2:0:0:
36,51,201048,1,2,1:2:0:0:
409,116,201394,2,0,L|421:243,1,110,6|0,1:2|0:0,0:0:0:0:
419,225,201740,1,0,3:0:0:0:
419,225,201856,1,0,1:2:0:0:
397,0,202087,5,2,1:2:0:0:
446,145,202317,1,2,1:2:0:0:
278,109,202548,2,0,L|138:134,1,137.5,6|2,1:2|3:2,0:0:0:0:
92,148,202894,1,2,3:2:0:0:
49,160,203010,2,0,B|28:193|28:193|87:229|71:291,1,137.5,0|0,1:2|3:2,0:0:0:0:
110,311,203356,1,0,0:0:0:0:
153,337,203471,6,0,P|219:349|290:283,1,137.5,0|2,1:2|3:2,0:0:0:0:
316,326,203817,1,0,0:0:0:0:
363,341,203933,2,0,B|358:314|358:314|391:256|338:195,1,137.5,2|2,1:2|3:2,0:0:0:0:
65,71,204394,2,0,B|149:118|149:118|230:89|230:89|286:110,1,206.25,4|0,1:2|3:2,0:0:0:0:
297,80,204856,1,2,1:2:0:0:
444,40,205087,1,0,3:2:0:0:
400,213,205317,5,2,1:2:0:0:
187,44,205664,1,2,3:2:0:0:
143,26,205779,1,0,1:2:0:0:
99,72,205894,1,0,0:0:0:0:
119,136,206010,1,2,1:2:0:0:
62,153,206125,2,0,L|-22:192,1,68.75,0|6,3:2|1:2,0:0:0:0:
278,362,206471,5,0,3:2:0:0:
278,362,206587,1,0,3:2:0:0:
278,362,206702,1,0,1:2:0:0:
512,149,206933,1,0,3:2:0:0:
512,149,207048,1,0,3:2:0:0:
512,149,207164,1,0,1:2:0:0:
187,44,207394,1,0,3:2:0:0:
187,44,207510,1,0,3:0:0:0:
187,44,207625,2,0,B|183:69|183:69|164:98|164:98|167:108|167:108|147:129|147:129|141:175,1,137.5,2|2,1:1|1:1,0:0:0:0:
409,213,208087,6,0,B|347:145|277:152|277:152|219:193,1,206.25,4|0,1:2|3:2,0:0:0:0:
232,184,208548,1,0,1:2:0:0:
387,103,208779,1,0,3:2:0:0:
213,267,209010,2,0,L|300:288,3,68.75,4|0|4|0,1:2|0:0|1:2|0:0,0:0:0:0:
281,65,209471,2,0,L|214:81,3,68.75,4|0|4|0,1:2|3:2|1:2|3:2,0:0:0:0:
33,23,209933,6,0,P|68:146|-16:189,1,206.25,6|0,1:1|3:2,0:0:0:0:
25,137,210394,1,0,1:2:0:0:
70,152,210510,1,0,0:0:0:0:
92,194,210625,1,0,3:2:0:0:
89,241,210740,2,0,P|157:266|251:241,1,137.5
238,169,211087,2,0,B|237:225|237:225|258:279|258:279|254:310,1,137.5,2|0,3:1|1:2,0:0:0:0:
229,359,211433,1,0,3:0:0:0:
288,373,211548,1,2,3:1:0:0:
337,335,211664,1,0,3:2:0:0:
396,352,211779,6,0,B|224:343|224:343|164:384,1,206.25,6|0,1:1|3:2,0:0:0:0:
145,343,212240,1,0,1:2:0:0:
0,270,212471,2,0,L|72:325,1,68.75,0|0,3:2|0:0,0:0:0:0:
81,227,212702,2,0,P|137:176|115:54,1,206.25,0|0,1:2|0:0,0:0:0:0:
62,51,213164,1,0,1:2:0:0:
108,80,213279,1,0,3:0:0:0:
160,65,213394,1,2,3:1:0:0:
199,26,213510,1,2,3:1:0:0:
253,29,213625,2,2,B|258:35|258:35|265:29|265:29|270:40|270:40|279:27|279:27|283:44|283:44|296:27|296:27|300:52|300:52|313:27|313:27|318:60|318:60|331:23|331:23|330:62,1,206.25,6|0,1:1|3:2,0:1:0:0:
386,22,214087,5,0,1:2:0:0:
470,92,214317,2,0,L|503:99,2,34.375,2|0|2,3:1|0:0|0:1,0:0:0:0:
470,92,214548,2,0,B|452:154|452:154|461:199|461:199|442:229,1,137.5,2|0,1:1|3:2,0:0:0:0:
455,295,214894,2,2,L|319:270,1,137.5,2|0,0:1|3:0,0:1:0:0:
341,241,215240,1,2,3:1:0:0:
158,336,215471,6,2,L|293:360,1,137.5,6|0,1:1|3:2,0:1:0:0:
240,365,215817,2,2,P|310:343|401:350,1,137.5,2|0,3:2|0:0,0:1:0:0:
470,368,216164,2,2,L|302:312,1,137.5,2|2,3:1|1:2,0:1:0:0:
102,141,216625,1,0,3:2:0:0:
42,183,216856,5,6,1:1:0:0:
32,114,216971,1,2,3:1:0:0:
87,69,217086,1,2,3:1:0:0:
156,89,217202,1,2,3:1:0:0:
176,157,217317,2,2,B|256:134|248:202|301:190,1,137.5,6|0,1:1|3:2,0:1:0:0:
356,202,217664,1,0,3:2:0:0:
349,175,217779,6,0,P|390:182|427:158,1,68.75,2|2,1:1|0:1,0:0:0:0:
496,121,218010,2,0,L|488:210,1,68.75,2|2,3:1|0:1,0:0:0:0:
318,290,218240,2,0,P|363:282|403:293,1,68.75,0|2,1:2|0:1,0:0:0:0:
512,358,218471,2,0,P|478:330|447:335,1,68.75,2|0,3:1|0:0,0:0:0:0:
213,341,218702,2,2,P|293:325|352:366,2,137.5,2|6|6,1:1|3:1|1:1,0:1:0:0:
141,381,219279,5,0,0:0:0:0:
120,359,219394,2,0,P|113:287|77:244,1,68.75,0|2,3:2|3:1,0:0:0:0:
197,187,219625,2,2,L|30:180,1,137.5,0|2,1:2|3:1,0:1:0:0:
59,181,220087,2,2,B|98:199|98:199|141:175|141:175|183:239|183:239|231:205|305:188,1,275,2|0,1:1|1:2,0:1:0:0:
367,238,220664,1,0,3:0:0:0:
379,193,220779,2,0,L|376:284,1,68.75,2|2,3:1|3:1,0:0:0:0:
382,330,221010,2,2,B|404:264|404:264|372:155|372:155|401:90,2,206.25,6|0|0,1:1|3:2|3:2,0:1:0:0:
294,358,221817,1,0,0:0:0:0:
294,358,221933,6,0,L|325:371,3,34.375,2|0|0|0,1:1|0:0|0:0|0:0,0:0:0:0:
273,283,222164,2,0,L|241:269,3,34.375,2|0|0|0,3:1|0:0|0:0|0:0,0:0:0:0:
176,304,222394,2,0,L|144:290,3,34.375,2|0|0|0,1:1|0:0|3:0|0:0,0:0:0:0:
107,227,222625,2,0,L|67:220,3,34.375,2|0|0|0,1:1|0:0|3:2|0:0,0:0:0:0:
0,206,222856,2,2,B|43:200|80:187|80:187|71:219|71:219|194:250|328:174,1,343.75,6|0,1:1|0:0,0:1:0:0:
318,139,223548,1,2,3:1:0:0:
292,192,223664,1,2,0:1:0:0:
335,265,223779,6,0,L|327:353,1,68.75,6|0,1:1|0:0,0:0:0:0:
506,201,224010,2,0,L|438:181,1,68.75,6|0,1:2|0:0,0:0:0:0:
136,142,224240,2,0,L|201:161,1,68.75,6|0,1:2|3:0,0:0:0:0:
255,295,224471,2,0,L|189:275,1,68.75,6|0,1:2|3:2,0:0:0:0:
7,307,224702,6,2,B|94:329|94:329|79:263,1,137.5,6|0,1:1|3:2,0:1:0:0:
45,209,225048,2,0,B|34:108|34:108|87:66,1,137.5,0|0,3:2|0:0,0:0:0:0:
113,66,225394,1,2,3:1:0:0:
91,116,225510,1,2,0:1:0:0:
145,109,225625,2,2,B|211:83|211:83|303:96|343:206|343:206|471:175,1,343.75,2|0,1:2|3:0,0:1:0:0:
470,158,226317,1,2,3:1:0:0:
419,135,226433,1,2,3:1:0:0:
423,186,226548,6,2,L|403:352,2,137.5,6|0|0,1:1|3:2|1:2,0:1:0:0:
93,135,227240,1,2,3:1:0:0:
42,158,227356,1,2,0:1:0:0:
89,186,227471,2,2,L|104:317,2,68.75,2|0|0,1:1|0:0|3:2,0:1:0:0:
222,46,227933,1,2,1:1:0:0:
215,100,228048,1,0,3:2:0:0:
244,146,228164,1,2,1:1:0:0:
298,139,228279,1,0,3:2:0:0:
324,186,228394,5,4,1:1:0:0:
393,163,228510,2,2,L|438:165,3,45.8333333333333,2|0|0|0,0:1|0:0|0:0|3:2,0:1:0:0:
479,204,228856,2,2,L|473:260,3,45.8333333333333,2|0|0|0,1:1|0:0|0:0|3:2,0:1:0:0:
485,306,229202,2,2,L|528:333,3,45.8333333333333,2|0|0|0,0:1|0:0|0:0|0:0,0:1:0:0:
433,368,229548,2,2,L|337:376,1,68.75,2|2,3:1|0:1,0:1:0:0:
288,346,229779,2,2,P|252:338|218:342,2,68.75,2|0|2,1:1|3:0|1:1,0:1:0:0:
366,165,230240,5,6,1:1:0:0:
370,222,230356,1,0,3:0:0:0:
52,233,230587,1,6,1:2:0:0:
435,90,230933,1,6,1:2:0:0:
1,150,231279,1,2,3:2:0:0:
462,291,231625,1,4,1:1:0:0:
344,264,231856,2,0,P|389:269|439:288,1,68.75,2|0,1:0|0:0,0:0:0:0:
301,343,232087,6,2,P|189:324|162:330,1,137.5,6|0,1:1|3:2,0:1:0:0:
66,351,232433,1,2,3:1:0:0:
109,384,232548,2,2,B|90:331|90:331|95:287|95:287|75:248,1,137.5,0|2,1:2|3:1,0:1:0:0:
204,35,233010,2,2,P|192:140|232:176,1,137.5,2|0,1:1|3:2,0:1:0:0:
309,198,233356,1,2,0:1:0:0:
264,228,233471,2,2,B|362:245|362:245|415:231|415:231|464:262,1,206.25,0|0,1:2|3:2,0:1:0:0:
404,325,233933,6,2,B|393:296|393:296|418:298|418:298|381:277|381:277|439:275|439:275|344:234|344:234|406:222,1,275,6|0,1:1|1:2,0:1:0:0:
507,39,234625,1,2,3:1:0:0:
443,71,234740,1,2,0:1:0:0:
379,103,234856,2,0,B|350:73|350:73|308:85|308:85|239:67,1,137.5,4|2,1:1|3:1,0:0:0:0:
29,78,235317,1,2,1:1:0:0:
29,78,235433,1,0,3:0:0:0:
29,78,235548,2,0,B|39:115|39:115|74:110,1,68.75,2|0,3:1|3:2,0:0:0:0:
263,150,235779,6,2,B|171:125|171:125|135:167,2,137.5,6|0|0,1:1|3:2|1:2,0:1:0:0:
483,284,236471,1,2,3:1:0:0:
453,237,236587,1,0,0:0:0:0:
399,239,236702,2,2,B|398:181|398:181|328:306|328:306|279:284|216:286,1,275,2|0,1:1|1:2,0:1:0:0:
31,343,237394,1,2,3:1:0:0:
86,291,237510,1,2,3:1:0:0:
160,314,237625,6,2,B|144:288|144:288|169:284|169:284|135:259|135:259|180:245|180:245|107:213,1,206.25,6|0,1:1|3:2,0:1:0:0:
38,175,238087,1,6,1:1:0:0:
209,139,238317,1,2,3:1:0:0:
139,25,238548,6,0,L|143:134,1,68.75,6|0,1:2|0:0,0:0:0:0:
278,303,238779,2,0,L|275:234,1,68.75,6|0,1:2|0:0,0:0:0:0:
384,99,239010,1,6,1:2:0:0:
447,63,239125,1,0,3:0:0:0:
381,30,239240,2,0,L|385:139,1,68.75,6|0,1:2|3:2,0:0:0:0:
387,189,239471,1,6,1:2:0:0:
256,192,239529,12,6,242933,0:0:0:0:
256,192,243164,5,6,1:2:0:0:
256,192,243279,1,0,3:0:0:0:
256,192,243394,2,0,L|246:248,3,55,0|0|2|0,0:0|3:0|0:0|0:0,0:0:0:0:
303,295,243856,1,0,1:0:0:0:
485,261,244087,6,0,P|422:270|367:235,1,110,2|2,0:0|0:0,0:0:0:0:
126,335,244548,2,0,P|189:344|244:309,1,110,2|2,3:2|0:0,0:0:0:0:
349,114,245010,5,0,1:0:0:0:
305,92,245125,1,0,3:0:0:0:
290,69,245240,1,2,3:2:0:0:
246,93,245356,1,0,3:0:0:0:
210,85,245471,2,0,B|189:105|189:105|182:123|214:153,2,55,0|0|2,0:0|0:0|1:2,0:0:0:0:
170,226,245933,6,0,B|62:213|113:264|-25:238,1,165
13,202,246394,1,0,3:0:0:0:
60,212,246510,1,0,3:0:0:0:
100,187,246625,1,6,0:0:0:0:
247,265,246856,1,6,1:2:0:0:
478,201,247202,5,0,3:0:0:0:
441,226,247317,1,2,3:2:0:0:
366,357,247548,1,0,1:0:0:0:
265,283,247779,1,2,0:0:0:0:
247,265,247894,1,0,0:0:0:0:
229,299,248010,2,0,B|178:342|178:342|105:330,2,110,2|2|2,0:0|3:2|0:0,0:0:0:0:
37,145,248702,6,0,P|97:211|174:172,1,165,0|0,1:0|3:0,0:0:0:0:
146,151,249164,1,0,0:0:0:0:
298,81,249394,2,0,P|310:147|322:272,1,165,2|0,1:2|0:0,0:0:0:0:
296,271,249856,1,2,0:0:0:0:
450,313,250087,1,0,3:0:0:0:
450,313,250202,1,0,3:0:0:0:
450,313,250317,1,6,0:0:0:0:
423,139,250548,1,6,1:2:0:0:
192,87,250894,5,0,3:0:0:0:
201,138,251010,1,2,0:0:0:0:
91,107,251240,1,0,1:0:0:0:
18,190,251471,2,0,B|8:243|8:243|45:318,1,110,2|2,0:0|0:0,0:0:0:0:
247,255,251933,2,0,B|257:202|257:202|220:127,1,110,2|2,3:2|0:0,0:0:0:0:
308,58,252394,5,0,1:0:0:0:
494,157,252740,1,0,3:0:0:0:
345,304,253086,1,2,1:2:0:0:
209,235,253317,1,4,3:2:0:0:
256,192,253375,12,6,254240,1:2:0:0:
323,266,260702,6,0,L|316:317,2,36.6666666666667,2|2|2,0:0|0:0|0:0,0:0:0:0:
262,216,261164,1,2,0:0:0:0:
64,309,261625,2,0,L|50:368,2,55,2|0|0,0:1|0:0|0:0,0:0:0:0:
448,75,263010,2,0,L|462:16,1,55,2|0,0:1|0:0,0:0:0:0:
