osu file format v14

[General]
AudioFilename: audio.mp3
AudioLeadIn: 0
PreviewTime: 77875
Countdown: 0
SampleSet: Soft
StackLeniency: 0.7
Mode: 0
LetterboxInBreaks: 0
EpilepsyWarning: 1
WidescreenStoryboard: 1

[Editor]
Bookmarks: 36394,65933,94317,125010,153394,182933,209933,239471
DistanceSpacing: 1
BeatDivisor: 4
GridSize: 32
TimelineZoom: 3.899998

[Metadata]
Title:KIZUGUCHI
TitleUnicode:傷口 -KIZUGUCHI-
Artist:ave;new feat. Sakura Saori
ArtistUnicode:ave;new feat. 佐倉紗織
Creator:App
Version:Expert
Source:
Tags:mirash heatherfield japanese pop jpop j-pop wound inscribe WWWWWWWWWWWWWW
BeatmapID:4493696
BeatmapSetID:2135594

[Difficulty]
HPDrainRate:5
CircleSize:4
OverallDifficulty:8
ApproachRate:9
SliderMultiplier:2
SliderTickRate:0.5

[Events]
//Background and Video events
0,0,"o.jpg",0,0
//Break Periods
2,256779,260102
//Storyboard Layer 0 (Background)
//Storyboard Layer 1 (Fail)
//Storyboard Layer 2 (Pass)
//Storyboard Layer 3 (Foreground)
Sprite,Foreground,Centre,"sb\glow.png",0,0 C,0,80702,,255,157,206 M,0,80702,80817,545,195,554.8536,269.3499 F,2,80702,81417,1,0 S,2,80702,81417,1,0.2 P,0,80702,81417,A
Sprite,Foreground,Centre,"sb\glow.png",500,338 C,0,80933,,255,157,206 F,2,80933,81533,1,0 S,2,80933,81533,1,0.2 P,0,80933,81533,A
Sprite,Foreground,Centre,"sb\glow.png",0,0 C,0,81048,,255,157,206 M,0,81048,81163,500,338,428.5634,340.7609 F,2,81048,81878,1,0 S,2,81048,81878,1,0.2 P,0,81048,81878,A M,0,81163,81278,428.5634,340.7609,390.7106,280.3042
Sprite,Foreground,Centre,"sb\glow.png",0,0 C,0,81394,,119,0,119 M,0,81394,81509,538,136,519.3026,208.632 F,2,81394,82109,1,0 S,2,81394,82109,1,0.2 P,0,81394,82109,A
Sprite,Foreground,Centre,"sb\glow.png",0,0 C,0,81625,,119,0,119 M,0,81625,81740,417,242,343.7815,248.7095 F,2,81625,82455,1,0 S,2,81625,82455,1,0.2 P,0,81625,82455,A M,0,81740,81855,343.7815,248.7095,270.8718,257.2249
Sprite,Foreground,Centre,"sb\glow.png",0,0 C,0,81971,,242,113,193 M,0,81971,82086,235,419,177.1224,372.9374 F,2,81971,82801,1,0 S,2,81971,82801,1,0.2 P,0,81971,82801,A M,0,82086,82201,177.1224,372.9374,179.0714,301.4886
Sprite,Foreground,Centre,"sb\glow.png",0,0 C,0,82317,,255,157,206 M,0,82317,82374,280,363,263.5064,392.893 F,2,82317,82974,1,0 S,2,82317,82974,1,0.2 P,0,82317,82974,A
Sprite,Foreground,Centre,"sb\glow.png",0,0 C,0,82433,,255,157,206 M,0,82433,82490,337,352,333.2778,387.6456 F,2,82433,83090,1,0 S,2,82433,83090,1,0.2 P,0,82433,83090,A
Sprite,Foreground,Centre,"sb\glow.png",0,0 C,0,82548,,255,157,206 M,0,82548,82663,338,414,433.3126,428.0936 F,2,82548,83494,1,0 S,2,82548,83494,1,0.2 P,0,82548,83494,A M,0,82663,82778,433.3126,428.0936,501.7106,360.4106 M,0,82778,82894,501.7106,360.4106,488.7865,264.9969
Sprite,Foreground,Centre,"sb\glow.png",0,0 C,0,83010,,119,0,119 M,0,83010,83125,405,256,339.7621,244.3607 F,2,83010,83725,1,0 S,2,83010,83725,1,0.2 P,0,83010,83725,A
Sprite,Foreground,Centre,"sb\glow.png",232,272 C,0,83240,,119,0,119 F,2,83240,83840,1,0 S,2,83240,83840,1,0.2 P,0,83240,83840,A
Sprite,Foreground,Centre,"sb\glow.png",0,0 C,0,83356,,119,0,119 M,0,83356,83471,145,203,109.842,256.4722 F,2,83356,84186,1,0 S,2,83356,84186,1,0.2 P,0,83356,84186,A M,0,83471,83586,109.842,256.4722,152.9061,314.9429
Sprite,Foreground,Centre,"sb\glow.png",0,0 C,0,83702,,242,113,193 M,0,83702,83817,150,388,87,354 F,2,83702,84417,1,0 S,2,83702,84417,1,0.2 P,0,83702,84417,A
Sprite,Foreground,Centre,"sb\glow.png",0,0 C,0,83933,,255,157,206 M,0,83933,84048,239,309,208,242 F,2,83933,84648,1,0 S,2,83933,84648,1,0.2 P,0,83933,84648,A
Sprite,Foreground,Centre,"sb\glow.png",0,0 C,0,84164,,119,0,119 M,0,84164,84279,365,306,344.9602,233.7881 F,2,84164,85225,1,0 S,2,84164,85225,1,0.2 P,0,84164,85225,A M,0,84279,84394,344.9602,233.7881,335,160 M,0,84394,84510,335,160,344.9602,233.788 M,0,84510,84625,344.9602,233.788,365,306
Sprite,Foreground,Centre,"sb\glow.png",0,0 C,0,84856,,242,113,193 M,0,84856,84971,448,438,474.1359,378.0725 F,2,84856,85571,1,0 S,2,84856,85571,1,0.2 P,0,84856,85571,A
Sprite,Foreground,Centre,"sb\glow.png",347,337 C,0,85087,,242,113,193 F,2,85087,85687,1,0 S,2,85087,85687,1,0.2 P,0,85087,85687,A
Sprite,Foreground,Centre,"sb\glow.png",0,0 C,0,85202,,242,113,193 M,0,85202,85317,396,389,470.858,393.5791 F,2,85202,86032,1,0 S,2,85202,86032,1,0.2 P,0,85202,86032,A M,0,85317,85432,470.858,393.5791,545.8085,396.2409
Sprite,Foreground,Centre,"sb\glow.png",0,0 C,0,85548,,242,113,193 M,0,85548,85663,499,319,568.5699,307.9601 F,2,85548,86263,1,0 S,2,85548,86263,1,0.2 P,0,85548,86263,A
Sprite,Foreground,Centre,"sb\glow.png",0,0 C,0,85779,,255,157,206 M,0,85779,85894,348,298,325.8965,369.6689 F,2,85779,86494,1,0 S,2,85779,86494,1,0.2 P,0,85779,86494,A
Sprite,Foreground,Centre,"sb\glow.png",237,373 C,0,86010,,255,157,206 F,2,86010,86610,1,0 S,2,86010,86610,1,0.2 P,0,86010,86610,A
Sprite,Foreground,Centre,"sb\glow.png",264,427 C,0,86125,,255,157,206 F,2,86125,86725,1,0 S,2,86125,86725,1,0.2 P,0,86125,86725,A
Sprite,Foreground,Centre,"sb\glow.png",0,0 C,0,86240,,255,157,206 M,0,86240,86355,264,427,169.7081,440.3784 F,2,86240,86955,1,0 S,2,86240,86955,1,0.2 P,0,86240,86955,A
Sprite,Foreground,Centre,"sb\glow.png",88,298 C,0,86471,,119,0,119 F,2,86471,87071,1,0 S,2,86471,87071,1,0.2 P,0,86471,87071,A
Sprite,Foreground,Centre,"sb\glow.png",0,0 C,0,86587,,119,0,119 M,0,86587,86702,88,298,134.3246,315.4788 F,2,86587,87417,1,0 S,2,86587,87417,1,0.2 P,0,86587,87417,A M,0,86702,86817,134.3246,315.4788,183.4857,309.8281
Sprite,Foreground,Centre,"sb\glow.png",0,0 C,0,86933,,119,0,119 M,0,86933,87048,214,244 F,2,86933,87648,1,0 S,2,86933,87648,1,0.2 P,0,86933,87648,A
Sprite,Foreground,Centre,"sb\glow.png",0,0 C,0,87163,,242,113,193 M,0,87163,87278,531,264,482,256 F,2,87163,87878,1,0 S,2,87163,87878,1,0.2 P,0,87163,87878,A
Sprite,Foreground,Centre,"sb\glow.png",0,0 C,0,87394,,242,113,193 M,0,87394,87509,276,289,325,281 F,2,87394,88109,1,0 S,2,87394,88109,1,0.2 P,0,87394,88109,A
Sprite,Foreground,Centre,"sb\glow.png",445,176 C,0,87625,,242,113,193 F,2,87625,88225,1,0 S,2,87625,88225,1,0.2 P,0,87625,88225,A
Sprite,Foreground,Centre,"sb\glow.png",372,155 C,0,87740,,242,113,193 F,2,87740,88340,1,0 S,2,87740,88340,1,0.2 P,0,87740,88340,A
Sprite,Foreground,Centre,"sb\glow.png",448,144 C,0,87856,,242,113,193 F,2,87856,88456,1,0 S,2,87856,88456,1,0.2 P,0,87856,88456,A
Sprite,Foreground,Centre,"sb\glow.png",426,113 C,0,87971,,242,113,193 F,2,87971,88571,1,0 S,2,87971,88571,1,0.2 P,0,87971,88571,A
Sprite,Foreground,Centre,"sb\glow.png",0,0 C,0,88087,,255,157,206 M,0,88087,88202,497,90,453.0598,149.6674 F,2,88087,89033,1,0 S,2,88087,89033,1,0.2 P,0,88087,89033,A M,0,88202,88317,453.0598,149.6674,385.0228,178.9321 M,0,88317,88433,385.0228,178.9321,311.5522,169.8016
Sprite,Foreground,Centre,"sb\glow.png",0,0 C,0,88548,,255,157,206 M,0,88548,88663,256,122,188.1503,129.6954 F,2,88548,89263,1,0 S,2,88548,89263,1,0.2 P,0,88548,89263,A
Sprite,Foreground,Centre,"sb\glow.png",75,252 C,0,88779,,255,157,206 F,2,88779,89379,1,0 S,2,88779,89379,1,0.2 P,0,88779,89379,A
Sprite,Foreground,Centre,"sb\glow.png",0,0 C,0,88894,,255,157,206 M,0,88894,89009,147,270,219.3573,276.4237 F,2,88894,89840,1,0 S,2,88894,89840,1,0.2 P,0,88894,89840,A M,0,89009,89124,219.3573,276.4237,279.8001,316.1346 M,0,89124,89240,279.8001,316.1346,350.6181,296.303
Sprite,Foreground,Centre,"sb\glow.png",430,301 C,0,89356,,255,157,206 F,2,89356,89956,1,0 S,2,89356,89956,1,0.2 P,0,89356,89956,A
Sprite,Foreground,Centre,"sb\glow.png",0,0 C,0,89471,,255,157,206 M,0,89471,89586,492,255,560.6445,266.9926 F,2,89471,90301,1,0 S,2,89471,90301,1,0.2 P,0,89471,90301,A M,0,89586,89701,560.6445,266.9926,564.0353,335.4066
Sprite,Foreground,Centre,"sb\glow.png",0,0 C,0,89933,,119,0,119 M,0,89933,90048,341,86,332.4505,114.8842 F,2,89933,90879,1,0 S,2,89933,90879,1,0.2 P,0,89933,90879,A M,0,90048,90163,332.4505,114.8842,262.6595,87.4447 M,0,90163,90279,262.6595,87.4447,275.5249,114.4624
Sprite,Foreground,Centre,"sb\glow.png",0,0 C,0,90394,,242,113,193 M,0,90394,90509,295,201,262.9785,268.5597 F,2,90394,91109,1,0 S,2,90394,91109,1,0.2 P,0,90394,91109,A
Sprite,Foreground,Centre,"sb\glow.png",0,0 C,0,90625,,242,113,193 M,0,90625,90740,343,192,397.2036,242.671 F,2,90625,91340,1,0 S,2,90625,91340,1,0.2 P,0,90625,91340,A
Sprite,Foreground,Centre,"sb\glow.png",0,0 C,0,90856,,242,113,193 M,0,90856,90971,354,303,327.7358,324.1205 F,2,90856,91571,1,0 S,2,90856,91571,1,0.2 P,0,90856,91571,A
Sprite,Foreground,Centre,"sb\glow.png",196,383 C,0,91087,,255,157,206 F,2,91087,91687,1,0 S,2,91087,91687,1,0.2 P,0,91087,91687,A
Sprite,Foreground,Centre,"sb\glow.png",196,383 C,0,91202,,255,157,206 F,2,91202,91802,1,0 S,2,91202,91802,1,0.2 P,0,91202,91802,A
Sprite,Foreground,Centre,"sb\glow.png",135,360 C,0,91317,,255,157,206 F,2,91317,91917,1,0 S,2,91317,91917,1,0.2 P,0,91317,91917,A
Sprite,Foreground,Centre,"sb\glow.png",315,411 C,0,91548,,119,0,119 F,2,91548,92148,1,0 S,2,91548,92148,1,0.2 P,0,91548,92148,A
Sprite,Foreground,Centre,"sb\glow.png",381,387 C,0,91664,,119,0,119 F,2,91664,92264,1,0 S,2,91664,92264,1,0.2 P,0,91664,92264,A
Sprite,Foreground,Centre,"sb\glow.png",0,0 C,0,91779,,119,0,119 M,0,91779,91894,421,420,494.1223,436.677 F,2,91779,92494,1,0 S,2,91779,92494,1,0.2 P,0,91779,92494,A
Sprite,Foreground,Centre,"sb\glow.png",330,266 C,0,92010,,119,0,119 F,2,92010,92610,1,0 S,2,92010,92610,1,0.2 P,0,92010,92610,A
Sprite,Foreground,Centre,"sb\glow.png",287,328 C,0,92125,,242,113,193 F,2,92125,92725,1,0 S,2,92125,92725,1,0.2 P,0,92125,92725,A
Sprite,Foreground,Centre,"sb\glow.png",0,0 C,0,92240,,242,113,193 M,0,92240,92355,287,328,241.0571,268.7189 F,2,92240,92955,1,0 S,2,92240,92955,1,0.2 P,0,92240,92955,A
Sprite,Foreground,Centre,"sb\glow.png",117,76 C,0,92471,,242,113,193 F,2,92471,93071,1,0 S,2,92471,93071,1,0.2 P,0,92471,93071,A
Sprite,Foreground,Centre,"sb\glow.png",91,149 C,0,92587,,255,157,206 F,2,92587,93187,1,0 S,2,92587,93187,1,0.2 P,0,92587,93187,A
Sprite,Foreground,Centre,"sb\glow.png",0,0 C,0,92702,,255,157,206 M,0,92702,92817,91,149,164.6385,163.2256 F,2,92702,93417,1,0 S,2,92702,93417,1,0.2 P,0,92702,93417,A
Sprite,Foreground,Centre,"sb\glow.png",0,0 C,0,92933,,119,0,119 M,0,92933,93048,385,89,312.6626,108.8067 F,2,92933,93648,1,0 S,2,92933,93648,1,0.2 P,0,92933,93648,A
Sprite,Foreground,Centre,"sb\glow.png",0,0 C,0,93164,,242,113,193 M,0,93164,93279,462,226,479.6298,295.3015 F,2,93164,93879,1,0 S,2,93164,93879,1,0.2 P,0,93164,93879,A
Sprite,Foreground,Centre,"sb\glow.png",0,0 C,0,93394,,242,113,193 M,0,93394,93509,220,370,234.627,438.7912 F,2,93394,94109,1,0 S,2,93394,94109,1,0.2 P,0,93394,94109,A
Sprite,Foreground,Centre,"sb\glow.png",0,0 C,0,93625,,255,157,206 M,0,93625,93740,521,327,433.5974,314.7295 F,2,93625,94398,1,0 S,2,93625,94398,1,0.2 P,0,93625,94398,A M,0,93740,93798,433.5974,314.7295,391.6912,330.3348
Sprite,Foreground,Centre,"sb\glow.png",0,0 C,0,93856,,119,0,119 M,0,93856,93913,370,339,366.6134,383.8724 F,2,93856,94513,1,0 S,2,93856,94513,1,0.2 P,0,93856,94513,A
Sprite,Foreground,Centre,"sb\glow.png",0,0 C,0,93971,,119,0,119 M,0,93971,94028,325,318,322.3253,367.9284 F,2,93971,94628,1,0 S,2,93971,94628,1,0.2 P,0,93971,94628,A
Sprite,Foreground,Centre,"sb\glow.png",247,357 C,0,94087,,242,113,193 F,2,94087,94687,1,0 S,2,94087,94687,1,0.2 P,0,94087,94687,A
Sprite,Foreground,Centre,"sb\glow.png",409,105 C,0,94317,,255,157,206 F,2,94317,94917,1,0 S,2,94317,94917,1,0.2 P,0,94317,94917,A
Sprite,Foreground,Centre,"sb\glow.png",0,0 C,0,94548,,119,0,119 M,0,94548,94663,401,263,490.0974,217.5946 F,2,94548,95263,1,0 S,2,94548,95263,1,0.2 P,0,94548,95263,A
Sprite,Foreground,Centre,"sb\glow.png",0,0 C,0,94779,,242,113,193 M,0,94779,94894,293,81,203.5573,125.7214 F,2,94779,95609,1,0 S,2,94779,95609,1,0.2 P,0,94779,95609,A M,0,94894,95009,203.5573,125.7214,293,81
Sprite,Foreground,Centre,"sb\glow.png",338,173 C,0,95125,,255,157,206 F,2,95125,95725,1,0 S,2,95125,95725,1,0.2 P,0,95125,95725,A
Sprite,Foreground,Centre,"sb\glow.png",0,0 C,0,95240,,255,157,206 M,0,95240,95355,266,204,311,293 F,2,95240,95955,1,0 S,2,95240,95955,1,0.2 P,0,95240,95955,A
Sprite,Foreground,Centre,"sb\glow.png",0,0 C,0,95471,,119,0,119 M,0,95471,95586,428,169,391.4325,103.5186 F,2,95471,96186,1,0 S,2,95471,96186,1,0.2 P,0,95471,96186,A
Sprite,Foreground,Centre,"sb\glow.png",482,115 C,0,95702,,119,0,119 F,2,95702,96302,1,0 S,2,95702,96302,1,0.2 P,0,95702,96302,A
Sprite,Foreground,Centre,"sb\glow.png",0,0 C,0,95817,,119,0,119 M,0,95817,95932,555,144,591.0767,203.819 F,2,95817,96647,1,0 S,2,95817,96647,1,0.2 P,0,95817,96647,A M,0,95932,96047,591.0767,203.819,546.1855,256.897
Sprite,Foreground,Centre,"sb\glow.png",420,265 C,0,96164,,242,113,193 F,2,96164,96764,1,0 S,2,96164,96764,1,0.2 P,0,96164,96764,A
Sprite,Foreground,Centre,"sb\glow.png",524,344 C,0,96279,,242,113,193 F,2,96279,96879,1,0 S,2,96279,96879,1,0.2 P,0,96279,96879,A
Sprite,Foreground,Centre,"sb\glow.png",0,0 C,0,96394,,242,113,193 M,0,96394,96509,466,388,480.1552,314.356 F,2,96394,97109,1,0 S,2,96394,97109,1,0.2 P,0,96394,97109,A
Sprite,Foreground,Centre,"sb\glow.png",385,354 C,0,96625,,242,113,193 F,2,96625,97225,1,0 S,2,96625,97225,1,0.2 P,0,96625,97225,A
Sprite,Foreground,Centre,"sb\glow.png",0,0 C,0,96740,,242,113,193 M,0,96740,96855,345,420,330.8448,346.356 F,2,96740,97455,1,0 S,2,96740,97455,1,0.2 P,0,96740,97455,A
Sprite,Foreground,Centre,"sb\glow.png",258,324 C,0,96971,,242,113,193 F,2,96971,97571,1,0 S,2,96971,97571,1,0.2 P,0,96971,97571,A
Sprite,Foreground,Centre,"sb\glow.png",272,297 C,0,97087,,242,113,193 F,2,97087,97687,1,0 S,2,97087,97687,1,0.2 P,0,97087,97687,A
Sprite,Foreground,Centre,"sb\glow.png",210,252 C,0,97202,,242,113,193 F,2,97202,97802,1,0 S,2,97202,97802,1,0.2 P,0,97202,97802,A
Sprite,Foreground,Centre,"sb\glow.png",262,159 C,0,97317,,255,157,206 F,2,97317,97917,1,0 S,2,97317,97917,1,0.2 P,0,97317,97917,A
Sprite,Foreground,Centre,"sb\glow.png",201,123 C,0,97433,,255,157,206 F,2,97433,98033,1,0 S,2,97433,98033,1,0.2 P,0,97433,98033,A
Sprite,Foreground,Centre,"sb\glow.png",226,96 C,0,97548,,255,157,206 F,2,97548,98148,1,0 S,2,97548,98148,1,0.2 P,0,97548,98148,A
Sprite,Foreground,Centre,"sb\glow.png",215,66 C,0,97664,,255,157,206 F,2,97664,98264,1,0 S,2,97664,98264,1,0.2 P,0,97664,98264,A
Sprite,Foreground,Centre,"sb\glow.png",0,0 C,0,97779,,255,157,206 M,0,97779,97894,235,66,205.9133,134.9456 F,2,97779,98494,1,0 S,2,97779,98494,1,0.2 P,0,97779,98494,A
Sprite,Foreground,Centre,"sb\glow.png",0,0 C,0,98010,,255,157,206 M,0,98010,98125,385,195,339.5455,135.5511 F,2,98010,98725,1,0 S,2,98010,98725,1,0.2 P,0,98010,98725,A
Sprite,Foreground,Centre,"sb\glow.png",0,0 C,0,98240,,255,157,206 M,0,98240,98355,175,260,249.1475,249.8835 F,2,98240,98955,1,0 S,2,98240,98955,1,0.2 P,0,98240,98955,A
Sprite,Foreground,Centre,"sb\glow.png",82,196 C,0,98471,,119,0,119 F,2,98471,99071,1,0 S,2,98471,99071,1,0.2 P,0,98471,99071,A
Sprite,Foreground,Centre,"sb\glow.png",156,186 C,0,98587,,119,0,119 F,2,98587,99187,1,0 S,2,98587,99187,1,0.2 P,0,98587,99187,A
Sprite,Foreground,Centre,"sb\glow.png",0,0 C,0,98702,,119,0,119 M,0,98702,98817,175,260,100.6221,268.971 F,2,98702,99417,1,0 S,2,98702,99417,1,0.2 P,0,98702,99417,A
Sprite,Foreground,Centre,"sb\glow.png",0,0 C,0,98933,,119,0,119 M,0,98933,99048,323,293,351.9272,224.123 F,2,98933,99648,1,0 S,2,98933,99648,1,0.2 P,0,98933,99648,A
Sprite,Foreground,Centre,"sb\glow.png",0,0 C,0,99164,,119,0,119 M,0,99164,99279,236,375,281,434 F,2,99164,99879,1,0 S,2,99164,99879,1,0.2 P,0,99164,99879,A
Sprite,Foreground,Centre,"sb\glow.png",175,433 C,0,99394,,242,113,193 F,2,99394,99994,1,0 S,2,99394,99994,1,0.2 P,0,99394,99994,A
Sprite,Foreground,Centre,"sb\glow.png",147,364 C,0,99510,,242,113,193 F,2,99510,100110,1,0 S,2,99510,100110,1,0.2 P,0,99510,100110,A
Sprite,Foreground,Centre,"sb\glow.png",224,359 C,0,99625,,242,113,193 F,2,99625,100225,1,0 S,2,99625,100225,1,0.2 P,0,99625,100225,A
Sprite,Foreground,Centre,"sb\glow.png",443,288 C,0,99856,,242,113,193 F,2,99856,100456,1,0 S,2,99856,100456,1,0.2 P,0,99856,100456,A
Sprite,Foreground,Centre,"sb\glow.png",471,219 C,0,99971,,242,113,193 F,2,99971,100571,1,0 S,2,99971,100571,1,0.2 P,0,99971,100571,A
Sprite,Foreground,Centre,"sb\glow.png",394,214 C,0,100087,,242,113,193 F,2,100087,100687,1,0 S,2,100087,100687,1,0.2 P,0,100087,100687,A
Sprite,Foreground,Centre,"sb\glow.png",138,188 C,0,100317,,242,113,193 F,2,100317,100917,1,0 S,2,100317,100917,1,0.2 P,0,100317,100917,A
Sprite,Foreground,Centre,"sb\glow.png",110,119 C,0,100433,,242,113,193 F,2,100433,101033,1,0 S,2,100433,101033,1,0.2 P,0,100433,101033,A
Sprite,Foreground,Centre,"sb\glow.png",187,114 C,0,100548,,242,113,193 F,2,100548,101148,1,0 S,2,100548,101148,1,0.2 P,0,100548,101148,A
Sprite,Foreground,Centre,"sb\glow.png",215,184 C,0,100664,,242,113,193 F,2,100664,101264,1,0 S,2,100664,101264,1,0.2 P,0,100664,101264,A
Sprite,Foreground,Centre,"sb\glow.png",0,0 C,0,100779,,242,113,193 M,0,100779,100894,216,199,276.8272,155.1246 F,2,100779,101494,1,0 S,2,100779,101494,1,0.2 P,0,100779,101494,A
Sprite,Foreground,Centre,"sb\glow.png",0,0 C,0,101010,,255,157,206 M,0,101010,101125,424,297,363.1728,340.8754 F,2,101010,101725,1,0 S,2,101010,101725,1,0.2 P,0,101010,101725,A
Sprite,Foreground,Centre,"sb\glow.png",363,340 C,0,101356,,255,157,206 F,2,101356,101956,1,0 S,2,101356,101956,1,0.2 P,0,101356,101956,A
Sprite,Foreground,Centre,"sb\glow.png",0,0 C,0,101471,,255,157,206 M,0,101471,101586,363,341,423.8272,297.1246 F,2,101471,102186,1,0 S,2,101471,102186,1,0.2 P,0,101471,102186,A
Sprite,Foreground,Centre,"sb\glow.png",0,0 C,0,101702,,119,0,119 M,0,101702,101817,133,277,74.33033,196.0193 F,2,101702,102417,1,0 S,2,101702,102417,1,0.2 P,0,101702,102417,A
Sprite,Foreground,Centre,"sb\glow.png",118,140 C,0,101933,,119,0,119 F,2,101933,102533,1,0 S,2,101933,102533,1,0.2 P,0,101933,102533,A
Sprite,Foreground,Centre,"sb\glow.png",118,140 C,0,102048,,119,0,119 F,2,102048,102648,1,0 S,2,102048,102648,1,0.2 P,0,102048,102648,A
Sprite,Foreground,Centre,"sb\glow.png",118,140 C,0,102164,,119,0,119 F,2,102164,102764,1,0 S,2,102164,102764,1,0.2 P,0,102164,102764,A
Sprite,Foreground,Centre,"sb\glow.png",429,209 C,0,102394,,119,0,119 F,2,102394,102994,1,0 S,2,102394,102994,1,0.2 P,0,102394,102994,A
Sprite,Foreground,Centre,"sb\glow.png",448,209 C,0,102510,,119,0,119 F,2,102510,103110,1,0 S,2,102510,103110,1,0.2 P,0,102510,103110,A
Sprite,Foreground,Centre,"sb\glow.png",405,143 C,0,102625,,119,0,119 F,2,102625,103225,1,0 S,2,102625,103225,1,0.2 P,0,102625,103225,A
Sprite,Foreground,Centre,"sb\glow.png",422,140 C,0,102740,,119,0,119 F,2,102740,103340,1,0 S,2,102740,103340,1,0.2 P,0,102740,103340,A
Sprite,Foreground,Centre,"sb\glow.png",0,0 C,0,102856,,242,113,193 M,0,102856,102971,334,201,324.0375,275.3354 F,2,102856,103571,1,0 S,2,102856,103571,1,0.2 P,0,102856,103571,A
Sprite,Foreground,Centre,"sb\glow.png",264,149 C,0,103087,,242,113,193 F,2,103087,103687,1,0 S,2,103087,103687,1,0.2 P,0,103087,103687,A
Sprite,Foreground,Centre,"sb\glow.png",0,0 C,0,103202,,242,113,193 M,0,103202,103317,264,149,209.2576,97.73332 F,2,103202,103917,1,0 S,2,103202,103917,1,0.2 P,0,103202,103917,A
Sprite,Foreground,Centre,"sb\glow.png",330,119 C,0,103433,,242,113,193 F,2,103433,104033,1,0 S,2,103433,104033,1,0.2 P,0,103433,104033,A
Sprite,Foreground,Centre,"sb\glow.png",0,0 C,0,103548,,242,113,193 M,0,103548,103663,330,119,395.8422,83.08609 F,2,103548,104263,1,0 S,2,103548,104263,1,0.2 P,0,103548,104263,A
Sprite,Foreground,Centre,"sb\glow.png",298,225 C,0,103779,,242,113,193 F,2,103779,104379,1,0 S,2,103779,104379,1,0.2 P,0,103779,104379,A
Sprite,Foreground,Centre,"sb\glow.png",0,0 C,0,103894,,242,113,193 M,0,103894,104009,298,225,295.4153,299.9554 F,2,103894,104609,1,0 S,2,103894,104609,1,0.2 P,0,103894,104609,A
Sprite,Foreground,Centre,"sb\glow.png",253,366 C,0,104125,,242,113,193 F,2,104125,104725,1,0 S,2,104125,104725,1,0.2 P,0,104125,104725,A
Sprite,Foreground,Centre,"sb\glow.png",322,391 C,0,104240,,242,113,193 F,2,104240,104840,1,0 S,2,104240,104840,1,0.2 P,0,104240,104840,A
Sprite,Foreground,Centre,"sb\glow.png",281,415 C,0,104356,,242,113,193 F,2,104356,104956,1,0 S,2,104356,104956,1,0.2 P,0,104356,104956,A
Sprite,Foreground,Centre,"sb\glow.png",0,0 C,0,104471,,242,113,193 M,0,104471,104586,286,398,275.278,323.7704 F,2,104471,105186,1,0 S,2,104471,105186,1,0.2 P,0,104471,105186,A
Sprite,Foreground,Centre,"sb\glow.png",0,0 C,0,104702,,255,157,206 M,0,104702,104817,453,225,437.139,298.3036 F,2,104702,105532,1,0 S,2,104702,105532,1,0.2 P,0,104702,105532,A M,0,104817,104932,437.139,298.3036,421.278,371.6073
Sprite,Foreground,Centre,"sb\glow.png",0,0 C,0,105164,,255,157,206 M,0,105164,105279,165,395,149.0471,321.7163 F,2,105164,105994,1,0 S,2,105164,105994,1,0.2 P,0,105164,105994,A M,0,105279,105394,149.0471,321.7163,133.0942,248.4325
Sprite,Foreground,Centre,"sb\glow.png",117,178 C,0,105510,,255,157,206 F,2,105510,106110,1,0 S,2,105510,106110,1,0.2 P,0,105510,106110,A
Sprite,Foreground,Centre,"sb\glow.png",85,68 C,0,105625,,255,157,206 F,2,105625,106225,1,0 S,2,105625,106225,1,0.2 P,0,105625,106225,A
Sprite,Foreground,Centre,"sb\glow.png",209,198 C,0,105856,,255,157,206 F,2,105856,106456,1,0 S,2,105856,106456,1,0.2 P,0,105856,106456,A
Sprite,Foreground,Centre,"sb\glow.png",463,90 C,0,106087,,255,157,206 F,2,106087,106687,1,0 S,2,106087,106687,1,0.2 P,0,106087,106687,A
Sprite,Foreground,Centre,"sb\glow.png",497,77 C,0,106202,,255,157,206 F,2,106202,106802,1,0 S,2,106202,106802,1,0.2 P,0,106202,106802,A
Sprite,Foreground,Centre,"sb\glow.png",557,124 C,0,106317,,255,157,206 F,2,106317,106917,1,0 S,2,106317,106917,1,0.2 P,0,106317,106917,A
Sprite,Foreground,Centre,"sb\glow.png",528,194 C,0,106433,,255,157,206 F,2,106433,107033,1,0 S,2,106433,107033,1,0.2 P,0,106433,107033,A
Sprite,Foreground,Centre,"sb\glow.png",464,180 C,0,106548,,119,0,119 F,2,106548,107148,1,0 S,2,106548,107148,1,0.2 P,0,106548,107148,A
Sprite,Foreground,Centre,"sb\glow.png",363,153 C,0,106664,,242,113,193 F,2,106664,107264,1,0 S,2,106664,107264,1,0.2 P,0,106664,107264,A
Sprite,Foreground,Centre,"sb\glow.png",242,116 C,0,106779,,255,157,206 F,2,106779,107379,1,0 S,2,106779,107379,1,0.2 P,0,106779,107379,A
Sprite,Foreground,Centre,"sb\glow.png",149,82 C,0,106894,,119,0,119 F,2,106894,107494,1,0 S,2,106894,107494,1,0.2 P,0,106894,107494,A
Sprite,Foreground,Centre,"sb\glow.png",0,0 C,0,107010,,119,0,119 M,0,107010,107125,136,125,138.4749,77.50673 F,2,107010,107725,1,0 S,2,107010,107725,1,0.2 P,0,107010,107725,A
Sprite,Foreground,Centre,"sb\glow.png",0,0 C,0,107240,,119,0,119 M,0,107240,107355,145,75,153.0116,125.2226 F,2,107240,107955,1,0 S,2,107240,107955,1,0.2 P,0,107240,107955,A
Sprite,Foreground,Centre,"sb\glow.png",207,184 C,0,107471,,242,113,193 F,2,107471,108071,1,0 S,2,107471,108071,1,0.2 P,0,107471,108071,A
Sprite,Foreground,Centre,"sb\glow.png",249,266 C,0,107587,,255,157,206 F,2,107587,108187,1,0 S,2,107587,108187,1,0.2 P,0,107587,108187,A
Sprite,Foreground,Centre,"sb\glow.png",286,363 C,0,107702,,119,0,119 F,2,107702,108302,1,0 S,2,107702,108302,1,0.2 P,0,107702,108302,A
Sprite,Foreground,Centre,"sb\glow.png",315,436 C,0,107817,,242,113,193 F,2,107817,108417,1,0 S,2,107817,108417,1,0.2 P,0,107817,108417,A
Sprite,Foreground,Centre,"sb\glow.png",0,0 C,0,107933,,242,113,193 M,0,107933,108048,344,414,345.498,365.7236 F,2,107933,108648,1,0 S,2,107933,108648,1,0.2 P,0,107933,108648,A
Sprite,Foreground,Centre,"sb\glow.png",0,0 C,0,108163,,242,113,193 M,0,108163,108278,377,390,385.0116,440.2226 F,2,108163,108878,1,0 S,2,108163,108878,1,0.2 P,0,108163,108878,A
Sprite,Foreground,Centre,"sb\glow.png",436,320 C,0,108394,,255,157,206 F,2,108394,108994,1,0 S,2,108394,108994,1,0.2 P,0,108394,108994,A
Sprite,Foreground,Centre,"sb\glow.png",481,247 C,0,108510,,119,0,119 F,2,108510,109110,1,0 S,2,108510,109110,1,0.2 P,0,108510,109110,A
Sprite,Foreground,Centre,"sb\glow.png",526,153 C,0,108625,,242,113,193 F,2,108625,109225,1,0 S,2,108625,109225,1,0.2 P,0,108625,109225,A
Sprite,Foreground,Centre,"sb\glow.png",545,58 C,0,108740,,255,157,206 F,2,108740,109340,1,0 S,2,108740,109340,1,0.2 P,0,108740,109340,A
Sprite,Foreground,Centre,"sb\glow.png",468,102 C,0,108856,,119,0,119 F,2,108856,109456,1,0 S,2,108856,109456,1,0.2 P,0,108856,109456,A
Sprite,Foreground,Centre,"sb\glow.png",497,173 C,0,108971,,242,113,193 F,2,108971,109571,1,0 S,2,108971,109571,1,0.2 P,0,108971,109571,A
Sprite,Foreground,Centre,"sb\glow.png",570,144 C,0,109087,,242,113,193 F,2,109087,109687,1,0 S,2,109087,109687,1,0.2 P,0,109087,109687,A
Sprite,Foreground,Centre,"sb\glow.png",535,132 C,0,109202,,242,113,193 F,2,109202,109802,1,0 S,2,109202,109802,1,0.2 P,0,109202,109802,A
Sprite,Foreground,Centre,"sb\glow.png",558,218 C,0,109317,,255,157,206 F,2,109317,109917,1,0 S,2,109317,109917,1,0.2 P,0,109317,109917,A
Sprite,Foreground,Centre,"sb\glow.png",573,226 C,0,109433,,255,157,206 F,2,109433,110033,1,0 S,2,109433,110033,1,0.2 P,0,109433,110033,A
Sprite,Foreground,Centre,"sb\glow.png",576,216 C,0,109548,,255,157,206 F,2,109548,110148,1,0 S,2,109548,110148,1,0.2 P,0,109548,110148,A
Sprite,Foreground,Centre,"sb\glow.png",562,213 C,0,109664,,255,157,206 F,2,109664,110264,1,0 S,2,109664,110264,1,0.2 P,0,109664,110264,A
Sprite,Foreground,Centre,"sb\glow.png",493,259 C,0,109779,,119,0,119 F,2,109779,110379,1,0 S,2,109779,110379,1,0.2 P,0,109779,110379,A
Sprite,Foreground,Centre,"sb\glow.png",422,289 C,0,109894,,119,0,119 F,2,109894,110494,1,0 S,2,109894,110494,1,0.2 P,0,109894,110494,A
Sprite,Foreground,Centre,"sb\glow.png",450,370 C,0,110010,,242,113,193 F,2,110010,110610,1,0 S,2,110010,110610,1,0.2 P,0,110010,110610,A
Sprite,Foreground,Centre,"sb\glow.png",505,361 C,0,110125,,242,113,193 F,2,110125,110725,1,0 S,2,110125,110725,1,0.2 P,0,110125,110725,A
Sprite,Foreground,Centre,"sb\glow.png",0,0 C,0,139779,,255,157,206 M,0,139779,139894,419,133,479.6574,102.6485 F,2,139779,140494,1,0 S,2,139779,140494,1,0.2 P,0,139779,140494,A
Sprite,Foreground,Centre,"sb\glow.png",246,307 C,0,140010,,255,157,206 F,2,140010,140610,1,0 S,2,140010,140610,1,0.2 P,0,140010,140610,A
Sprite,Foreground,Centre,"sb\glow.png",0,0 C,0,140125,,255,157,206 M,0,140125,140240,246,307,182.745,358.956 F,2,140125,140955,1,0 S,2,140125,140955,1,0.2 P,0,140125,140955,A M,0,140240,140355,182.745,358.956,246,307
Sprite,Foreground,Centre,"sb\glow.png",0,0 C,0,140471,,119,0,119 M,0,140471,140586,170,103,182.7279,192.0955 F,2,140471,141186,1,0 S,2,140471,141186,1,0.2 P,0,140471,141186,A
Sprite,Foreground,Centre,"sb\glow.png",0,0 C,0,140702,,119,0,119 M,0,140702,140817,437,367,424.2721,277.9045 F,2,140702,141417,1,0 S,2,140702,141417,1,0.2 P,0,140702,141417,A
Sprite,Foreground,Centre,"sb\glow.png",274,415 C,0,140933,,119,0,119 F,2,140933,141533,1,0 S,2,140933,141533,1,0.2 P,0,140933,141533,A
Sprite,Foreground,Centre,"sb\glow.png",0,0 C,0,141048,,119,0,119 M,0,141048,141163,274,415,188.1717,431.1823 F,2,141048,141878,1,0 S,2,141048,141878,1,0.2 P,0,141048,141878,A M,0,141163,141278,188.1717,431.1823,274,415
Sprite,Foreground,Centre,"sb\glow.png",0,0 C,0,141394,,242,113,193 M,0,141394,141451,503,247,527.4199,216.1129 F,2,141394,142051,1,0 S,2,141394,142051,1,0.2 P,0,141394,142051,A
Sprite,Foreground,Centre,"sb\glow.png",0,0 C,0,141510,,242,113,193 M,0,141510,141567,448,203,455,159.8924 F,2,141510,142167,1,0 S,2,141510,142167,1,0.2 P,0,141510,142167,A
Sprite,Foreground,Centre,"sb\glow.png",0,0 C,0,141625,,242,113,193 M,0,141625,141740,380,183,318.4562,211.2725 F,2,141625,142571,1,0 S,2,141625,142571,1,0.2 P,0,141625,142571,A M,0,141740,141855,318.4562,211.2725,342.5011,124.9894 M,0,141855,141971,342.5011,124.9894,400.1023,57.20921
Sprite,Foreground,Centre,"sb\glow.png",0,0 C,0,142087,,255,157,206 M,0,142087,142202,468,85,538.1537,65.05637 F,2,142087,142802,1,0 S,2,142087,142802,1,0.2 P,0,142087,142802,A
Sprite,Foreground,Centre,"sb\glow.png",380,183 C,0,142317,,255,157,206 F,2,142317,142917,1,0 S,2,142317,142917,1,0.2 P,0,142317,142917,A
Sprite,Foreground,Centre,"sb\glow.png",0,0 C,0,142433,,255,157,206 M,0,142433,142548,380,183,460.9008,216.9449 F,2,142433,143263,1,0 S,2,142433,143263,1,0.2 P,0,142433,143263,A M,0,142548,142663,460.9008,216.9449,544.838,245.274
Sprite,Foreground,Centre,"sb\glow.png",0,0 C,0,142779,,119,0,119 M,0,142779,142894,544,245,554.343,161.6784 F,2,142779,143494,1,0 S,2,142779,143494,1,0.2 P,0,142779,143494,A
Sprite,Foreground,Centre,"sb\glow.png",0,0 C,0,143010,,242,113,193 M,0,143010,143125,450,328,469.9569,240.7441 F,2,143010,143725,1,0 S,2,143010,143725,1,0.2 P,0,143010,143725,A
Sprite,Foreground,Centre,"sb\glow.png",0,0 C,0,143240,,255,157,206 M,0,143240,143355,361,419,343.4403,330.8069 F,2,143240,144301,1,0 S,2,143240,144301,1,0.2 P,0,143240,144301,A M,0,143355,143470,343.4403,330.8069,313.9105,245.8729 M,0,143470,143586,313.9105,245.8729,343.4403,330.8069 M,0,143586,143701,343.4403,330.8069,361,419
Sprite,Foreground,Centre,"sb\glow.png",551,81 C,0,143933,,119,0,119 F,2,143933,144533,1,0 S,2,143933,144533,1,0.2 P,0,143933,144533,A
Sprite,Foreground,Centre,"sb\glow.png",368,97 C,0,144164,,119,0,119 F,2,144164,144764,1,0 S,2,144164,144764,1,0.2 P,0,144164,144764,A
Sprite,Foreground,Centre,"sb\glow.png",0,0 C,0,144279,,119,0,119 M,0,144279,144394,303,134,342.4894,191.2107 F,2,144279,145109,1,0 S,2,144279,145109,1,0.2 P,0,144279,145109,A M,0,144394,144509,342.4894,191.2107,303,134
Sprite,Foreground,Centre,"sb\glow.png",0,0 C,0,144625,,242,113,193 M,0,144625,144740,267,216,184.346,188.2127 F,2,144625,145340,1,0 S,2,144625,145340,1,0.2 P,0,144625,145340,A
Sprite,Foreground,Centre,"sb\glow.png",0,0 C,0,144856,,242,113,193 M,0,144856,144971,399,263,410.6544,349.4322 F,2,144856,145571,1,0 S,2,144856,145571,1,0.2 P,0,144856,145571,A
Sprite,Foreground,Centre,"sb\glow.png",0,0 C,0,145087,,242,113,193 M,0,145087,145202,312,328,288.7742,414.3095 F,2,145087,145802,1,0 S,2,145087,145802,1,0.2 P,0,145087,145802,A
Sprite,Foreground,Centre,"sb\glow.png",109,432 C,0,145317,,255,157,206 F,2,145317,145917,1,0 S,2,145317,145917,1,0.2 P,0,145317,145917,A
Sprite,Foreground,Centre,"sb\glow.png",83,418 C,0,145433,,255,157,206 F,2,145433,146033,1,0 S,2,145433,146033,1,0.2 P,0,145433,146033,A
Sprite,Foreground,Centre,"sb\glow.png",146,356 C,0,145548,,255,157,206 F,2,145548,146148,1,0 S,2,145548,146148,1,0.2 P,0,145548,146148,A
Sprite,Foreground,Centre,"sb\glow.png",0,0 C,0,145664,,255,157,206 M,0,145664,145779,193,434,281.3522,416.857 F,2,145664,146494,1,0 S,2,145664,146494,1,0.2 P,0,145664,146494,A M,0,145779,145894,281.3522,416.857,369.7045,399.7141
Sprite,Foreground,Centre,"sb\glow.png",0,0 C,0,146010,,119,0,119 M,0,146010,146125,439,385 F,2,146010,146725,1,0 S,2,146010,146725,1,0.2 P,0,146010,146725,A
Sprite,Foreground,Centre,"sb\glow.png",0,0 C,0,146240,,119,0,119 M,0,146240,146355,347,440,429.3508,406.1349 F,2,146240,147070,1,0 S,2,146240,147070,1,0.2 P,0,146240,147070,A M,0,146355,146470,429.3508,406.1349,517.8916,415.1653
Sprite,Foreground,Centre,"sb\glow.png",537,291 C,0,146587,,119,0,119 F,2,146587,147187,1,0 S,2,146587,147187,1,0.2 P,0,146587,147187,A
Sprite,Foreground,Centre,"sb\glow.png",517,266 C,0,146702,,242,113,193 F,2,146702,147302,1,0 S,2,146702,147302,1,0.2 P,0,146702,147302,A
Sprite,Foreground,Centre,"sb\glow.png",460,253 C,0,146817,,242,113,193 F,2,146817,147417,1,0 S,2,146817,147417,1,0.2 P,0,146817,147417,A
Sprite,Foreground,Centre,"sb\glow.png",390,237 C,0,146933,,242,113,193 F,2,146933,147533,1,0 S,2,146933,147533,1,0.2 P,0,146933,147533,A
Sprite,Foreground,Centre,"sb\glow.png",321,220 C,0,147048,,242,113,193 F,2,147048,147648,1,0 S,2,147048,147648,1,0.2 P,0,147048,147648,A
Sprite,Foreground,Centre,"sb\glow.png",0,0 C,0,147164,,242,113,193 M,0,147164,147279,243,200,156.6824,191.7332 F,2,147164,148110,1,0 S,2,147164,148110,1,0.2 P,0,147164,148110,A M,0,147279,147394,156.6824,191.7332,98.98948,256.4116 M,0,147394,147510,98.98948,256.4116,117.0091,341.1487
Sprite,Foreground,Centre,"sb\glow.png",0,0 C,0,147625,,255,157,206 M,0,147625,147740,176,392,263.2928,382.3113 F,2,147625,148340,1,0 S,2,147625,148340,1,0.2 P,0,147625,148340,A
Sprite,Foreground,Centre,"sb\glow.png",0,0 C,0,147856,,255,157,206 M,0,147856,147913,458,427,501.7501,416.4676 F,2,147856,148513,1,0 S,2,147856,148513,1,0.2 P,0,147856,148513,A
Sprite,Foreground,Centre,"sb\glow.png",0,0 C,0,147971,,255,157,206 M,0,147971,148086,547,440,555,359 F,2,147971,148801,1,0 S,2,147971,148801,1,0.2 P,0,147971,148801,A M,0,148086,148201,555,359,547,440
Sprite,Foreground,Centre,"sb\glow.png",0,0 C,0,148317,,255,157,206 M,0,148317,148432,447,349,417.4446,279.1511 F,2,148317,149147,1,0 S,2,148317,149147,1,0.2 P,0,148317,149147,A M,0,148432,148547,417.4446,279.1511,466.2199,203.514
Sprite,Foreground,Centre,"sb\glow.png",532,135 C,0,148664,,255,157,206 F,2,148664,149264,1,0 S,2,148664,149264,1,0.2 P,0,148664,149264,A
Sprite,Foreground,Centre,"sb\glow.png",509,145 C,0,148779,,119,0,119 F,2,148779,149379,1,0 S,2,148779,149379,1,0.2 P,0,148779,149379,A
Sprite,Foreground,Centre,"sb\glow.png",556,169 C,0,148894,,119,0,119 F,2,148894,149494,1,0 S,2,148894,149494,1,0.2 P,0,148894,149494,A
Sprite,Foreground,Centre,"sb\glow.png",494,109 C,0,149010,,119,0,119 F,2,149010,149610,1,0 S,2,149010,149610,1,0.2 P,0,149010,149610,A
Sprite,Foreground,Centre,"sb\glow.png",366,226 C,0,149240,,242,113,193 F,2,149240,149840,1,0 S,2,149240,149840,1,0.2 P,0,149240,149840,A
Sprite,Foreground,Centre,"sb\glow.png",322,249 C,0,149356,,242,113,193 F,2,149356,149956,1,0 S,2,149356,149956,1,0.2 P,0,149356,149956,A
Sprite,Foreground,Centre,"sb\glow.png",0,0 C,0,149471,,242,113,193 M,0,149471,149586,279,192,190.7982,181.954 F,2,149471,150301,1,0 S,2,149471,150301,1,0.2 P,0,149471,150301,A M,0,149586,149701,190.7982,181.954,102.838,168.2854
Sprite,Foreground,Centre,"sb\glow.png",72,147 C,0,149817,,242,113,193 F,2,149817,150417,1,0 S,2,149817,150417,1,0.2 P,0,149817,150417,A
Sprite,Foreground,Centre,"sb\glow.png",0,0 C,0,149933,,242,113,193 M,0,149933,150048,102,205,88.13998,266.2728 F,2,149933,150648,1,0 S,2,149933,150648,1,0.2 P,0,149933,150648,A
Sprite,Foreground,Centre,"sb\glow.png",276,366 C,0,150164,,255,157,206 F,2,150164,150764,1,0 S,2,150164,150764,1,0.2 P,0,150164,150764,A
Sprite,Foreground,Centre,"sb\glow.png",0,0 C,0,150279,,255,157,206 M,0,150279,150394,311,331,245.239,352.8034 F,2,150279,151109,1,0 S,2,150279,151109,1,0.2 P,0,150279,151109,A M,0,150394,150509,245.239,352.8034,311,331
Sprite,Foreground,Centre,"sb\glow.png",364,386 C,0,150625,,255,157,206 F,2,150625,151225,1,0 S,2,150625,151225,1,0.2 P,0,150625,151225,A
Sprite,Foreground,Centre,"sb\glow.png",296,223 C,0,150856,,119,0,119 F,2,150856,151456,1,0 S,2,150856,151456,1,0.2 P,0,150856,151456,A
Sprite,Foreground,Centre,"sb\glow.png",225,198 C,0,150971,,119,0,119 F,2,150971,151571,1,0 S,2,150971,151571,1,0.2 P,0,150971,151571,A
Sprite,Foreground,Centre,"sb\glow.png",203,200 C,0,151087,,119,0,119 F,2,151087,151687,1,0 S,2,151087,151687,1,0.2 P,0,151087,151687,A
Sprite,Foreground,Centre,"sb\glow.png",186,216 C,0,151202,,119,0,119 F,2,151202,151802,1,0 S,2,151202,151802,1,0.2 P,0,151202,151802,A
Sprite,Foreground,Centre,"sb\glow.png",240,270 C,0,151317,,242,113,193 F,2,151317,151917,1,0 S,2,151317,151917,1,0.2 P,0,151317,151917,A
Sprite,Foreground,Centre,"sb\glow.png",296,223 C,0,151433,,242,113,193 F,2,151433,152033,1,0 S,2,151433,152033,1,0.2 P,0,151433,152033,A
Sprite,Foreground,Centre,"sb\glow.png",309,178 C,0,151548,,242,113,193 F,2,151548,152148,1,0 S,2,151548,152148,1,0.2 P,0,151548,152148,A
Sprite,Foreground,Centre,"sb\glow.png",294,139 C,0,151664,,242,113,193 F,2,151664,152264,1,0 S,2,151664,152264,1,0.2 P,0,151664,152264,A
Sprite,Foreground,Centre,"sb\glow.png",225,198 C,0,151779,,255,157,206 F,2,151779,152379,1,0 S,2,151779,152379,1,0.2 P,0,151779,152379,A
Sprite,Foreground,Centre,"sb\glow.png",296,223 C,0,151894,,255,157,206 F,2,151894,152494,1,0 S,2,151894,152494,1,0.2 P,0,151894,152494,A
Sprite,Foreground,Centre,"sb\glow.png",355,223 C,0,152010,,255,157,206 F,2,152010,152610,1,0 S,2,152010,152610,1,0.2 P,0,152010,152610,A
Sprite,Foreground,Centre,"sb\glow.png",389,176 C,0,152125,,255,157,206 F,2,152125,152725,1,0 S,2,152125,152725,1,0.2 P,0,152125,152725,A
Sprite,Foreground,Centre,"sb\glow.png",0,0 C,0,152240,,119,0,119 M,0,152240,152355,295,71,292.2816,133.5786 F,2,152240,152955,1,0 S,2,152240,152955,1,0.2 P,0,152240,152955,A
Sprite,Foreground,Centre,"sb\glow.png",0,0 C,0,152471,,242,113,193 M,0,152471,152586,336,340,338.7184,277.4214 F,2,152471,153186,1,0 S,2,152471,153186,1,0.2 P,0,152471,153186,A
Sprite,Foreground,Centre,"sb\glow.png",0,0 C,0,152702,,255,157,206 M,0,152702,152817,96,212,170.4073,221.003 F,2,152702,153475,1,0 S,2,152702,153475,1,0.2 P,0,152702,153475,A M,0,152817,152875,170.4073,221.003,207.8814,222.1416
Sprite,Foreground,Centre,"sb\glow.png",0,0 C,0,152933,,255,157,206 M,0,152933,152990,245,204,246.4695,241.4712 F,2,152933,153590,1,0 S,2,152933,153590,1,0.2 P,0,152933,153590,A
Sprite,Foreground,Centre,"sb\glow.png",0,0 C,0,153048,,255,157,206 M,0,153048,153105,279,239,293,273 F,2,153048,153705,1,0 S,2,153048,153705,1,0.2 P,0,153048,153705,A
Sprite,Foreground,Centre,"sb\glow.png",352,228 C,0,153164,,119,0,119 F,2,153164,153764,1,0 S,2,153164,153764,1,0.2 P,0,153164,153764,A
Sprite,Foreground,Centre,"sb\glow.png",0,0 C,0,153394,,242,113,193 M,0,153394,153509,559,308,485.802,291.6969 F,2,153394,154224,1,0 S,2,153394,154224,1,0.2 P,0,153394,154224,A M,0,153509,153624,485.802,291.6969,411.8588,279.2023
Sprite,Foreground,Centre,"sb\glow.png",478,243 C,0,153740,,242,113,193 F,2,153740,154340,1,0 S,2,153740,154340,1,0.2 P,0,153740,154340,A
Sprite,Foreground,Centre,"sb\glow.png",417,190 C,0,153856,,242,113,193 F,2,153856,154456,1,0 S,2,153856,154456,1,0.2 P,0,153856,154456,A
Sprite,Foreground,Centre,"sb\glow.png",446,154 C,0,153971,,242,113,193 F,2,153971,154571,1,0 S,2,153971,154571,1,0.2 P,0,153971,154571,A
Sprite,Foreground,Centre,"sb\glow.png",0,0 C,0,154087,,242,113,193 M,0,154087,154202,406,130,420.8346,56.82132 F,2,154087,154802,1,0 S,2,154087,154802,1,0.2 P,0,154087,154802,A
Sprite,Foreground,Centre,"sb\glow.png",0,0 C,0,154317,,242,113,193 M,0,154317,154432,289,123,215.7019,138.6979 F,2,154317,155032,1,0 S,2,154317,155032,1,0.2 P,0,154317,155032,A
Sprite,Foreground,Centre,"sb\glow.png",0,0 C,0,154548,,255,157,206 M,0,154548,154663,331,222,343.4245,311.1372 F,2,154548,155378,1,0 S,2,154548,155378,1,0.2 P,0,154548,155378,A M,0,154663,154778,343.4245,311.1372,354.3667,400.4685
Sprite,Foreground,Centre,"sb\glow.png",427,375 C,0,154894,,255,157,206 F,2,154894,155494,1,0 S,2,154894,155494,1,0.2 P,0,154894,155494,A
Sprite,Foreground,Centre,"sb\glow.png",0,0 C,0,155010,,255,157,206 M,0,155010,155125,303,344,259.1637,407.9167 F,2,155010,155725,1,0 S,2,155010,155725,1,0.2 P,0,155010,155725,A
Sprite,Foreground,Centre,"sb\glow.png",0,0 C,0,155240,,255,157,206 M,0,155240,155355,419,282,426.0092,194.3057 F,2,155240,155955,1,0 S,2,155240,155955,1,0.2 P,0,155240,155955,A
Sprite,Foreground,Centre,"sb\glow.png",276,164 C,0,155471,,255,157,206 F,2,155471,156071,1,0 S,2,155471,156071,1,0.2 P,0,155471,156071,A
Sprite,Foreground,Centre,"sb\glow.png",238,207 C,0,155587,,255,157,206 F,2,155587,156187,1,0 S,2,155587,156187,1,0.2 P,0,155587,156187,A
Sprite,Foreground,Centre,"sb\glow.png",160,201 C,0,155702,,255,157,206 F,2,155702,156302,1,0 S,2,155702,156302,1,0.2 P,0,155702,156302,A
Sprite,Foreground,Centre,"sb\glow.png",100,245 C,0,155817,,255,157,206 F,2,155817,156417,1,0 S,2,155817,156417,1,0.2 P,0,155817,156417,A
Sprite,Foreground,Centre,"sb\glow.png",0,0 C,0,155933,,119,0,119 M,0,155933,156048,85,226,135.1125,277.9261 F,2,155933,156648,1,0 S,2,155933,156648,1,0.2 P,0,155933,156648,A
Sprite,Foreground,Centre,"sb\glow.png",0,0 C,0,156164,,119,0,119 M,0,156164,156279,227,321 F,2,156164,156879,1,0 S,2,156164,156879,1,0.2 P,0,156164,156879,A
Sprite,Foreground,Centre,"sb\glow.png",0,0 C,0,156394,,242,113,193 M,0,156394,156509,313,261,401.8717,275.2062 F,2,156394,157340,1,0 S,2,156394,157340,1,0.2 P,0,156394,157340,A M,0,156509,156624,401.8717,275.2062,490.7434,289.4125 M,0,156624,156740,490.7434,289.4125,579.6151,303.6188
Sprite,Foreground,Centre,"sb\glow.png",544,236 C,0,156856,,242,113,193 F,2,156856,157456,1,0 S,2,156856,157456,1,0.2 P,0,156856,157456,A
Sprite,Foreground,Centre,"sb\glow.png",475,246 C,0,156971,,242,113,193 F,2,156971,157571,1,0 S,2,156971,157571,1,0.2 P,0,156971,157571,A
Sprite,Foreground,Centre,"sb\glow.png",462,314 C,0,157087,,242,113,193 F,2,157087,157687,1,0 S,2,157087,157687,1,0.2 P,0,157087,157687,A
Sprite,Foreground,Centre,"sb\glow.png",529,359 C,0,157202,,242,113,193 F,2,157202,157802,1,0 S,2,157202,157802,1,0.2 P,0,157202,157802,A
Sprite,Foreground,Centre,"sb\glow.png",0,0 C,0,157317,,255,157,206 M,0,157317,157432,571,290,556.9609,201.3489 F,2,157317,158032,1,0 S,2,157317,158032,1,0.2 P,0,157317,158032,A
Sprite,Foreground,Centre,"sb\glow.png",0,0 C,0,157548,,255,157,206 M,0,157548,157663,393,216,409.3874,127.7927 F,2,157548,158263,1,0 S,2,157548,158263,1,0.2 P,0,157548,158263,A
Sprite,Foreground,Centre,"sb\glow.png",249,161 C,0,157779,,255,157,206 F,2,157779,158379,1,0 S,2,157779,158379,1,0.2 P,0,157779,158379,A
Sprite,Foreground,Centre,"sb\glow.png",204,151 C,0,157894,,255,157,206 F,2,157894,158494,1,0 S,2,157894,158494,1,0.2 P,0,157894,158494,A
Sprite,Foreground,Centre,"sb\glow.png",231,76 C,0,158010,,255,157,206 F,2,158010,158610,1,0 S,2,158010,158610,1,0.2 P,0,158010,158610,A
Sprite,Foreground,Centre,"sb\glow.png",205,108 C,0,158125,,255,157,206 F,2,158125,158725,1,0 S,2,158125,158725,1,0.2 P,0,158125,158725,A
Sprite,Foreground,Centre,"sb\glow.png",0,0 C,0,158240,,119,0,119 M,0,158240,158355,151,56,108.2818,134.5819 F,2,158240,159070,1,0 S,2,158240,159070,1,0.2 P,0,158240,159070,A M,0,158355,158470,108.2818,134.5819,97.3195,223.3239
Sprite,Foreground,Centre,"sb\glow.png",87,209 C,0,158587,,119,0,119 F,2,158587,159187,1,0 S,2,158587,159187,1,0.2 P,0,158587,159187,A
Sprite,Foreground,Centre,"sb\glow.png",0,0 C,0,158702,,119,0,119 M,0,158702,158817,175,257,243.8616,313.5783 F,2,158702,159417,1,0 S,2,158702,159417,1,0.2 P,0,158702,159417,A
Sprite,Foreground,Centre,"sb\glow.png",0,0 C,0,158933,,119,0,119 M,0,158933,159048,119,425,208.3616,415.3671 F,2,158933,159763,1,0 S,2,158933,159763,1,0.2 P,0,158933,159763,A M,0,159048,159163,208.3616,415.3671,294.5847,389.998
Sprite,Foreground,Centre,"sb\glow.png",359,352 C,0,159279,,119,0,119 F,2,159279,159879,1,0 S,2,159279,159879,1,0.2 P,0,159279,159879,A
Sprite,Foreground,Centre,"sb\glow.png",454,340 C,0,159394,,119,0,119 F,2,159394,159994,1,0 S,2,159394,159994,1,0.2 P,0,159394,159994,A
Sprite,Foreground,Centre,"sb\glow.png",532,369 C,0,159510,,119,0,119 F,2,159510,160110,1,0 S,2,159510,160110,1,0.2 P,0,159510,160110,A
Sprite,Foreground,Centre,"sb\glow.png",0,0 C,0,159625,,119,0,119 M,0,159625,159740,556,414,559.6982,326.3075 F,2,159625,160340,1,0 S,2,159625,160340,1,0.2 P,0,159625,160340,A
Sprite,Foreground,Centre,"sb\glow.png",0,0 C,0,159856,,119,0,119 M,0,159856,159971,422,242,484.978,197.0994 F,2,159856,160571,1,0 S,2,159856,160571,1,0.2 P,0,159856,160571,A
Sprite,Foreground,Centre,"sb\glow.png",0,0 C,0,160087,,242,113,193 M,0,160087,160202,483,68,532.5886,140.0163 F,2,160087,160917,1,0 S,2,160087,160917,1,0.2 P,0,160087,160917,A M,0,160202,160317,532.5886,140.0163,453.1058,175.6017
Sprite,Foreground,Centre,"sb\glow.png",346,119 C,0,160433,,242,113,193 F,2,160433,161033,1,0 S,2,160433,161033,1,0.2 P,0,160433,161033,A
Sprite,Foreground,Centre,"sb\glow.png",0,0 C,0,160548,,242,113,193 M,0,160548,160663,232,167,194.1511,232.6478 F,2,160548,161263,1,0 S,2,160548,161263,1,0.2 P,0,160548,161263,A
Sprite,Foreground,Centre,"sb\glow.png",0,0 C,0,160779,,242,113,193 M,0,160779,160894,310,424,387.1794,369.4529 F,2,160779,161725,1,0 S,2,160779,161725,1,0.2 P,0,160779,161725,A M,0,160894,161009,387.1794,369.4529,369.3736,276.7998 M,0,161009,161125,369.3736,276.7998,277.7223,254.8125
Sprite,Foreground,Centre,"sb\glow.png",0,0 C,0,161240,,255,157,206 M,0,161240,161355,217,305 F,2,161240,162013,1,0 S,2,161240,162013,1,0.2 P,0,161240,162013,A M,0,161355,161413,217,305,238.9601,343.3449
Sprite,Foreground,Centre,"sb\glow.png",0,0 C,0,161471,,255,157,206 M,0,161471,161586,324,170 F,2,161471,162244,1,0 S,2,161471,162244,1,0.2 P,0,161471,162244,A M,0,161586,161644,324,170,279.8408,169.0913
Sprite,Foreground,Centre,"sb\glow.png",0,0 C,0,161702,,255,157,206 M,0,161702,161817,396,303 F,2,161702,162475,1,0 S,2,161702,162475,1,0.2 P,0,161702,162475,A M,0,161817,161875,396,303,417.1035,263.9441
Sprite,Foreground,Centre,"sb\glow.png",0,0 C,0,161933,,119,0,119 M,0,161933,162048,312,345,324.6019,255.8866 F,2,161933,162648,1,0 S,2,161933,162648,1,0.2 P,0,161933,162648,A
Sprite,Foreground,Centre,"sb\glow.png",250,238 C,0,162164,,119,0,119 F,2,162164,162764,1,0 S,2,162164,162764,1,0.2 P,0,162164,162764,A
Sprite,Foreground,Centre,"sb\glow.png",195,187 C,0,162279,,119,0,119 F,2,162279,162879,1,0 S,2,162279,162879,1,0.2 P,0,162279,162879,A
Sprite,Foreground,Centre,"sb\glow.png",0,0 C,0,162394,,119,0,119 M,0,162394,162509,151,214,138,303 F,2,162394,163109,1,0 S,2,162394,163109,1,0.2 P,0,162394,163109,A
Sprite,Foreground,Centre,"sb\glow.png",0,0 C,0,162625,,119,0,119 M,0,162625,162740,270,156,359,168 F,2,162625,163340,1,0 S,2,162625,163340,1,0.2 P,0,162625,163340,A
Sprite,Foreground,Centre,"sb\glow.png",0,0 C,0,162856,,119,0,119 M,0,162856,162971,90,154,101.8947,64.78949 F,2,162856,163571,1,0 S,2,162856,163571,1,0.2 P,0,162856,163571,A
Sprite,Foreground,Centre,"sb\glow.png",0,0 C,0,163087,,119,0,119 M,0,163087,163202,325,241,414,253 F,2,163087,163802,1,0 S,2,163087,163802,1,0.2 P,0,163087,163802,A
Sprite,Foreground,Centre,"sb\glow.png",489,226 C,0,163317,,242,113,193 F,2,163317,163917,1,0 S,2,163317,163917,1,0.2 P,0,163317,163917,A
Sprite,Foreground,Centre,"sb\glow.png",525,193 C,0,163433,,242,113,193 F,2,163433,164033,1,0 S,2,163433,164033,1,0.2 P,0,163433,164033,A
Sprite,Foreground,Centre,"sb\glow.png",499,109 C,0,163548,,242,113,193 F,2,163548,164148,1,0 S,2,163548,164148,1,0.2 P,0,163548,164148,A
Sprite,Foreground,Centre,"sb\glow.png",425,125 C,0,163664,,242,113,193 F,2,163664,164264,1,0 S,2,163664,164264,1,0.2 P,0,163664,164264,A
Sprite,Foreground,Centre,"sb\glow.png",0,0 C,0,163779,,255,157,206 M,0,163779,163894,417,244,327.9244,231.1335 F,2,163779,164494,1,0 S,2,163779,164494,1,0.2 P,0,163779,164494,A
Sprite,Foreground,Centre,"sb\glow.png",264,205 C,0,164010,,255,157,206 F,2,164010,164610,1,0 S,2,164010,164610,1,0.2 P,0,164010,164610,A
Sprite,Foreground,Centre,"sb\glow.png",215,185 C,0,164125,,255,157,206 F,2,164125,164725,1,0 S,2,164125,164725,1,0.2 P,0,164125,164725,A
Sprite,Foreground,Centre,"sb\glow.png",0,0 C,0,164240,,255,157,206 M,0,164240,164355,132,253,221,240 F,2,164240,164955,1,0 S,2,164240,164955,1,0.2 P,0,164240,164955,A
Sprite,Foreground,Centre,"sb\glow.png",270,293 C,0,164471,,255,157,206 F,2,164471,165071,1,0 S,2,164471,165071,1,0.2 P,0,164471,165071,A
Sprite,Foreground,Centre,"sb\glow.png",327,287 C,0,164587,,255,157,206 F,2,164587,165187,1,0 S,2,164587,165187,1,0.2 P,0,164587,165187,A
Sprite,Foreground,Centre,"sb\glow.png",0,0 C,0,164702,,255,157,206 M,0,164702,164817,375,381,285.9244,368.1335 F,2,164702,165417,1,0 S,2,164702,165417,1,0.2 P,0,164702,165417,A
Sprite,Foreground,Centre,"sb\glow.png",210,346 C,0,164933,,255,157,206 F,2,164933,165533,1,0 S,2,164933,165533,1,0.2 P,0,164933,165533,A
Sprite,Foreground,Centre,"sb\glow.png",169,361 C,0,165048,,255,157,206 F,2,165048,165648,1,0 S,2,165048,165648,1,0.2 P,0,165048,165648,A
Sprite,Foreground,Centre,"sb\glow.png",105,309 C,0,165164,,255,157,206 F,2,165164,165764,1,0 S,2,165164,165764,1,0.2 P,0,165164,165764,A
Sprite,Foreground,Centre,"sb\glow.png",121,232 C,0,165279,,255,157,206 F,2,165279,165879,1,0 S,2,165279,165879,1,0.2 P,0,165279,165879,A
Sprite,Foreground,Centre,"sb\glow.png",203,201 C,0,165394,,255,157,206 F,2,165394,165994,1,0 S,2,165394,165994,1,0.2 P,0,165394,165994,A
Sprite,Foreground,Centre,"sb\glow.png",233,126 C,0,165510,,255,157,206 F,2,165510,166110,1,0 S,2,165510,166110,1,0.2 P,0,165510,166110,A
Sprite,Foreground,Centre,"sb\glow.png",0,0 C,0,165625,,119,0,119 M,0,165625,165740,160,74,172.6417,163.1072 F,2,165625,166686,1,0 S,2,165625,166686,1,0.2 P,0,165625,166686,A M,0,165740,165855,172.6417,163.1072,184.6319,252.3048 M,0,165855,165971,184.6319,252.3048,196.3366,341.5405 M,0,165971,166086,196.3366,341.5405,207.8702,430.7984
Sprite,Foreground,Centre,"sb\glow.png",215,396 C,0,166202,,119,0,119 F,2,166202,166802,1,0 S,2,166202,166802,1,0.2 P,0,166202,166802,A
Sprite,Foreground,Centre,"sb\glow.png",150,322 C,0,166317,,119,0,119 F,2,166317,166917,1,0 S,2,166317,166917,1,0.2 P,0,166317,166917,A
Sprite,Foreground,Centre,"sb\glow.png",234,206 C,0,166433,,119,0,119 F,2,166433,167033,1,0 S,2,166433,167033,1,0.2 P,0,166433,167033,A
Sprite,Foreground,Centre,"sb\glow.png",0,0 C,0,166548,,242,113,193 M,0,166548,166663,160,74,172.6417,163.1072 F,2,166548,167609,1,0 S,2,166548,167609,1,0.2 P,0,166548,167609,A M,0,166663,166778,172.6417,163.1072,184.6319,252.3048 M,0,166778,166894,184.6319,252.3048,196.3366,341.5405 M,0,166894,167009,196.3366,341.5405,207.8702,430.7984
Sprite,Foreground,Centre,"sb\glow.png",230,386 C,0,167125,,242,113,193 F,2,167125,167725,1,0 S,2,167125,167725,1,0.2 P,0,167125,167725,A
Sprite,Foreground,Centre,"sb\glow.png",131,302 C,0,167240,,242,113,193 F,2,167240,167840,1,0 S,2,167240,167840,1,0.2 P,0,167240,167840,A
Sprite,Foreground,Centre,"sb\glow.png",254,179 C,0,167356,,242,113,193 F,2,167356,167956,1,0 S,2,167356,167956,1,0.2 P,0,167356,167956,A
Sprite,Foreground,Centre,"sb\glow.png",0,0 C,0,167471,,255,157,206 M,0,167471,167586,160,74,176.6826,192.8337 F,2,167471,168417,1,0 S,2,167471,168417,1,0.2 P,0,167471,168417,A M,0,167586,167701,176.6826,192.8337,192.4578,311.7922 M,0,167701,167817,192.4578,311.7922,207.8702,430.7984
Sprite,Foreground,Centre,"sb\glow.png",246,378 C,0,167933,,255,157,206 F,2,167933,168533,1,0 S,2,167933,168533,1,0.2 P,0,167933,168533,A
Sprite,Foreground,Centre,"sb\glow.png",106,282 C,0,168048,,255,157,206 F,2,168048,168648,1,0 S,2,168048,168648,1,0.2 P,0,168048,168648,A
Sprite,Foreground,Centre,"sb\glow.png",275,197 C,0,168164,,255,157,206 F,2,168164,168764,1,0 S,2,168164,168764,1,0.2 P,0,168164,168764,A
Sprite,Foreground,Centre,"sb\glow.png",106,131 C,0,168279,,255,157,206 F,2,168279,168879,1,0 S,2,168279,168879,1,0.2 P,0,168279,168879,A
Sprite,Foreground,Centre,"sb\glow.png",0,0 C,0,168394,,119,0,119 M,0,168394,168509,160,74,173.1583,173.1217 F,2,168394,169109,1,0 S,2,168394,169109,1,0.2 P,0,168394,169109,A
Sprite,Foreground,Centre,"sb\glow.png",0,0 C,0,168625,,242,113,193 M,0,168625,168740,530,194,430.8783,207.1583 F,2,168625,169340,1,0 S,2,168625,169340,1,0.2 P,0,168625,169340,A
Sprite,Foreground,Centre,"sb\glow.png",0,0 C,0,168856,,255,157,206 M,0,168856,168971,339,440,325.8417,340.8783 F,2,168856,169571,1,0 S,2,168856,169571,1,0.2 P,0,168856,169571,A
Sprite,Foreground,Centre,"sb\glow.png",0,0 C,0,169087,,119,0,119 M,0,169087,169202,168,277,267.1217,263.8417 F,2,169087,169802,1,0 S,2,169087,169802,1,0.2 P,0,169087,169802,A
Sprite,Foreground,Centre,"sb\glow.png",0,0 C,0,169317,,242,113,193 M,0,169317,169432,323,137,336.1583,236.1217 F,2,169317,170032,1,0 S,2,169317,170032,1,0.2 P,0,169317,170032,A
Sprite,Foreground,Centre,"sb\glow.png",386,296 C,0,169548,,242,113,193 F,2,169548,170148,1,0 S,2,169548,170148,1,0.2 P,0,169548,170148,A
Sprite,Foreground,Centre,"sb\glow.png",429,276 C,0,169664,,242,113,193 F,2,169664,170264,1,0 S,2,169664,170264,1,0.2 P,0,169664,170264,A
Sprite,Foreground,Centre,"sb\glow.png",0,0 C,0,169779,,242,113,193 M,0,169779,169894,556,274,463.3972,271.0726 F,2,169779,170609,1,0 S,2,169779,170609,1,0.2 P,0,169779,170609,A M,0,169894,170009,463.3972,271.0726,437.6667,360.0676
Sprite,Foreground,Centre,"sb\glow.png",492,425 C,0,170125,,242,113,193 F,2,170125,170725,1,0 S,2,170125,170725,1,0.2 P,0,170125,170725,A
Sprite,Foreground,Centre,"sb\glow.png",538,378 C,0,170240,,242,113,193 F,2,170240,170840,1,0 S,2,170240,170840,1,0.2 P,0,170240,170840,A
Sprite,Foreground,Centre,"sb\glow.png",0,0 C,0,170356,,242,113,193 M,0,170356,170471,436,359,336.4589,352.2195 F,2,170356,171071,1,0 S,2,170356,171071,1,0.2 P,0,170356,171071,A
Sprite,Foreground,Centre,"sb\glow.png",275,380 C,0,170587,,242,113,193 F,2,170587,171187,1,0 S,2,170587,171187,1,0.2 P,0,170587,171187,A
Sprite,Foreground,Centre,"sb\glow.png",0,0 C,0,170702,,242,113,193 M,0,170702,170817,182,320,128.2484,241.2179 F,2,170702,171532,1,0 S,2,170702,171532,1,0.2 P,0,170702,171532,A M,0,170817,170932,128.2484,241.2179,170.1101,155.6386
Sprite,Foreground,Centre,"sb\glow.png",185,85 C,0,171048,,242,113,193 F,2,171048,171648,1,0 S,2,171048,171648,1,0.2 P,0,171048,171648,A
Sprite,Foreground,Centre,"sb\glow.png",0,0 C,0,171164,,255,157,206 M,0,171164,171279,108,241,108.4388,340.9657 F,2,171164,171994,1,0 S,2,171164,171994,1,0.2 P,0,171164,171994,A M,0,171279,171394,108.4388,340.9657,100.0745,440.5807
Sprite,Foreground,Centre,"sb\glow.png",88,367 C,0,171510,,255,157,206 F,2,171510,172110,1,0 S,2,171510,172110,1,0.2 P,0,171510,172110,A
Sprite,Foreground,Centre,"sb\glow.png",0,0 C,0,171625,,255,157,206 M,0,171625,171740,78,343,69.09564,243.4474 F,2,171625,172340,1,0 S,2,171625,172340,1,0.2 P,0,171625,172340,A
Sprite,Foreground,Centre,"sb\glow.png",271,335 C,0,171856,,255,157,206 F,2,171856,172456,1,0 S,2,171856,172456,1,0.2 P,0,171856,172456,A
Sprite,Foreground,Centre,"sb\glow.png",0,0 C,0,171971,,255,157,206 M,0,171971,172086,261,311,252.0956,211.4474 F,2,171971,172801,1,0 S,2,171971,172801,1,0.2 P,0,171971,172801,A M,0,172086,172201,252.0956,211.4474,261,311
Sprite,Foreground,Centre,"sb\glow.png",0,0 C,0,172317,,255,157,206 M,0,172317,172432,562,153,570.9044,252.5526 F,2,172317,173032,1,0 S,2,172317,173032,1,0.2 P,0,172317,173032,A
Sprite,Foreground,Centre,"sb\glow.png",0,0 C,0,172548,,255,157,206 M,0,172548,172663,379,185,387.9044,284.5526 F,2,172548,173263,1,0 S,2,172548,173263,1,0.2 P,0,172548,173263,A
Sprite,Foreground,Centre,"sb\glow.png",0,0 C,0,172779,,255,157,206 M,0,172779,172894,162,225,170.9044,324.5526 F,2,172779,173494,1,0 S,2,172779,173494,1,0.2 P,0,172779,173494,A
Sprite,Foreground,Centre,"sb\glow.png",0,0 C,0,173010,,255,157,206 M,0,173010,173125,478,271,469.0956,171.4474 F,2,173010,173725,1,0 S,2,173010,173725,1,0.2 P,0,173010,173725,A
Sprite,Foreground,Centre,"sb\glow.png",478,97 C,0,173240,,119,0,119 F,2,173240,173840,1,0 S,2,173240,173840,1,0.2 P,0,173240,173840,A
Sprite,Foreground,Centre,"sb\glow.png",454,71 C,0,173356,,119,0,119 F,2,173356,173956,1,0 S,2,173356,173956,1,0.2 P,0,173356,173956,A
Sprite,Foreground,Centre,"sb\glow.png",0,0 C,0,173471,,119,0,119 M,0,173471,173586,344,146,297.2088,227.7504 F,2,173471,174301,1,0 S,2,173471,174301,1,0.2 P,0,173471,174301,A M,0,173586,173701,297.2088,227.7504,354.6186,302.197
Sprite,Foreground,Centre,"sb\glow.png",385,379 C,0,173817,,119,0,119 F,2,173817,174417,1,0 S,2,173817,174417,1,0.2 P,0,173817,174417,A
Sprite,Foreground,Centre,"sb\glow.png",0,0 C,0,173933,,119,0,119 M,0,173933,174048,407,203,453.3665,121.6589 F,2,173933,174763,1,0 S,2,173933,174763,1,0.2 P,0,173933,174763,A M,0,174048,174163,453.3665,121.6589,391.984,51.21509
Sprite,Foreground,Centre,"sb\glow.png",261,118 C,0,174279,,119,0,119 F,2,174279,174879,1,0 S,2,174279,174879,1,0.2 P,0,174279,174879,A
Sprite,Foreground,Centre,"sb\glow.png",0,0 C,0,174394,,119,0,119 M,0,174394,174509,110,78,53.22656,151.6291 F,2,174394,175224,1,0 S,2,174394,175224,1,0.2 P,0,174394,175224,A M,0,174509,174624,53.22656,151.6291,108.3672,226.1983
Sprite,Foreground,Centre,"sb\glow.png",165,276 C,0,174740,,119,0,119 F,2,174740,175340,1,0 S,2,174740,175340,1,0.2 P,0,174740,175340,A
Sprite,Foreground,Centre,"sb\glow.png",134,390 C,0,174856,,242,113,193 F,2,174856,175456,1,0 S,2,174856,175456,1,0.2 P,0,174856,175456,A
Sprite,Foreground,Centre,"sb\glow.png",197,408 C,0,174971,,242,113,193 F,2,174971,175571,1,0 S,2,174971,175571,1,0.2 P,0,174971,175571,A
Sprite,Foreground,Centre,"sb\glow.png",248,352 C,0,175087,,242,113,193 F,2,175087,175687,1,0 S,2,175087,175687,1,0.2 P,0,175087,175687,A
Sprite,Foreground,Centre,"sb\glow.png",210,278 C,0,175202,,242,113,193 F,2,175202,175802,1,0 S,2,175202,175802,1,0.2 P,0,175202,175802,A
Sprite,Foreground,Centre,"sb\glow.png",0,0 C,0,175317,,242,113,193 M,0,175317,175432,130,343,187.8065,416.3404 F,2,175317,176032,1,0 S,2,175317,176032,1,0.2 P,0,175317,176032,A
Sprite,Foreground,Centre,"sb\glow.png",0,0 C,0,175548,,242,113,193 M,0,175548,175663,354,370,402.812,290.2905 F,2,175548,176263,1,0 S,2,175548,176263,1,0.2 P,0,175548,176263,A
Sprite,Foreground,Centre,"sb\glow.png",430,218 C,0,175779,,242,113,193 F,2,175779,176379,1,0 S,2,175779,176379,1,0.2 P,0,175779,176379,A
Sprite,Foreground,Centre,"sb\glow.png",409,156 C,0,175894,,242,113,193 F,2,175894,176494,1,0 S,2,175894,176494,1,0.2 P,0,175894,176494,A
Sprite,Foreground,Centre,"sb\glow.png",324,135 C,0,176010,,242,113,193 F,2,176010,176610,1,0 S,2,176010,176610,1,0.2 P,0,176010,176610,A
Sprite,Foreground,Centre,"sb\glow.png",259,196 C,0,176125,,242,113,193 F,2,176125,176725,1,0 S,2,176125,176725,1,0.2 P,0,176125,176725,A
Sprite,Foreground,Centre,"sb\glow.png",0,0 C,0,176240,,242,113,193 M,0,176240,176355,302,289,350.6943,210.22 F,2,176240,176955,1,0 S,2,176240,176955,1,0.2 P,0,176240,176955,A
Sprite,Foreground,Centre,"sb\glow.png",0,0 C,0,176471,,242,113,193 M,0,176471,176586,138,99,89.30574,177.7801 F,2,176471,177186,1,0 S,2,176471,177186,1,0.2 P,0,176471,177186,A
Sprite,Foreground,Centre,"sb\glow.png",0,0 C,0,176702,,255,157,206 M,0,176702,176817,197,348,200.3616,252.8226 F,2,176702,177532,1,0 S,2,176702,177532,1,0.2 P,0,176702,177532,A M,0,176817,176932,200.3616,252.8226,118.7066,204.0458
Sprite,Foreground,Centre,"sb\glow.png",190,178 C,0,177048,,255,157,206 F,2,177048,177648,1,0 S,2,177048,177648,1,0.2 P,0,177048,177648,A
Sprite,Foreground,Centre,"sb\glow.png",0,0 C,0,177164,,255,157,206 M,0,177164,177279,92,293,93.61575,193.042 F,2,177164,177879,1,0 S,2,177164,177879,1,0.2 P,0,177164,177879,A
Sprite,Foreground,Centre,"sb\glow.png",172,276 C,0,177394,,255,157,206 F,2,177394,177994,1,0 S,2,177394,177994,1,0.2 P,0,177394,177994,A
Sprite,Foreground,Centre,"sb\glow.png",0,0 C,0,177510,,255,157,206 M,0,177510,177625,350,379,251.5292,361.59 F,2,177510,178340,1,0 S,2,177510,178340,1,0.2 P,0,177510,178340,A M,0,177625,177740,251.5292,361.59,152.7057,346.3085
Sprite,Foreground,Centre,"sb\glow.png",113,411 C,0,177856,,255,157,206 F,2,177856,178456,1,0 S,2,177856,178456,1,0.2 P,0,177856,178456,A
Sprite,Foreground,Centre,"sb\glow.png",144,428 C,0,177971,,255,157,206 F,2,177971,178571,1,0 S,2,177971,178571,1,0.2 P,0,177971,178571,A
Sprite,Foreground,Centre,"sb\glow.png",218,411 C,0,178087,,255,157,206 F,2,178087,178687,1,0 S,2,178087,178687,1,0.2 P,0,178087,178687,A
Sprite,Foreground,Centre,"sb\glow.png",253,343 C,0,178202,,255,157,206 F,2,178202,178802,1,0 S,2,178202,178802,1,0.2 P,0,178202,178802,A
Sprite,Foreground,Centre,"sb\glow.png",271,264 C,0,178317,,255,157,206 F,2,178317,178917,1,0 S,2,178317,178917,1,0.2 P,0,178317,178917,A
Sprite,Foreground,Centre,"sb\glow.png",343,213 C,0,178433,,255,157,206 F,2,178433,179033,1,0 S,2,178433,179033,1,0.2 P,0,178433,179033,A
Sprite,Foreground,Centre,"sb\glow.png",0,0 C,0,178548,,119,0,119 M,0,178548,178663,462,216,547.1438,268.2094 F,2,178548,179263,1,0 S,2,178548,179263,1,0.2 P,0,178548,179263,A
Sprite,Foreground,Centre,"sb\glow.png",455,297 C,0,178779,,119,0,119 F,2,178779,179379,1,0 S,2,178779,179379,1,0.2 P,0,178779,179379,A
Sprite,Foreground,Centre,"sb\glow.png",404,277 C,0,178894,,119,0,119 F,2,178894,179494,1,0 S,2,178894,179494,1,0.2 P,0,178894,179494,A
Sprite,Foreground,Centre,"sb\glow.png",0,0 C,0,179010,,119,0,119 M,0,179010,179125,388,207,302.8562,259.2094 F,2,179010,179725,1,0 S,2,179010,179725,1,0.2 P,0,179010,179725,A
Sprite,Foreground,Centre,"sb\glow.png",0,0 C,0,179240,,119,0,119 M,0,179240,179355,445,154,530.1438,206.2094 F,2,179240,179955,1,0 S,2,179240,179955,1,0.2 P,0,179240,179955,A
Sprite,Foreground,Centre,"sb\glow.png",0,0 C,0,179471,,119,0,119 M,0,179471,179586,369,127,283.8562,179.2094 F,2,179471,180186,1,0 S,2,179471,180186,1,0.2 P,0,179471,180186,A
Sprite,Foreground,Centre,"sb\glow.png",0,0 C,0,179702,,119,0,119 M,0,179702,179817,453,68,538.1438,120.2094 F,2,179702,180417,1,0 S,2,179702,180417,1,0.2 P,0,179702,180417,A
Sprite,Foreground,Centre,"sb\glow.png",408,127 C,0,179933,,119,0,119 F,2,179933,180533,1,0 S,2,179933,180533,1,0.2 P,0,179933,180533,A
Sprite,Foreground,Centre,"sb\glow.png",365,66 C,0,180048,,119,0,119 F,2,180048,180648,1,0 S,2,180048,180648,1,0.2 P,0,180048,180648,A
Sprite,Foreground,Centre,"sb\glow.png",0,0 C,0,180164,,242,113,193 M,0,180164,180279,285,89,197.1378,136.7046 F,2,180164,180994,1,0 S,2,180164,180994,1,0.2 P,0,180164,180994,A M,0,180279,180394,197.1378,136.7046,106.0474,177.9101
Sprite,Foreground,Centre,"sb\glow.png",117,100 C,0,180510,,242,113,193 F,2,180510,181110,1,0 S,2,180510,181110,1,0.2 P,0,180510,181110,A
Sprite,Foreground,Centre,"sb\glow.png",175,146 C,0,180625,,242,113,193 F,2,180625,181225,1,0 S,2,180625,181225,1,0.2 P,0,180625,181225,A
Sprite,Foreground,Centre,"sb\glow.png",166,226 C,0,180740,,242,113,193 F,2,180740,181340,1,0 S,2,180740,181340,1,0.2 P,0,180740,181340,A
Sprite,Foreground,Centre,"sb\glow.png",99,294 C,0,180856,,242,113,193 F,2,180856,181456,1,0 S,2,180856,181456,1,0.2 P,0,180856,181456,A
Sprite,Foreground,Centre,"sb\glow.png",65,187 C,0,180971,,242,113,193 F,2,180971,181571,1,0 S,2,180971,181571,1,0.2 P,0,180971,181571,A
Sprite,Foreground,Centre,"sb\glow.png",0,0 C,0,181087,,242,113,193 M,0,181087,181202,129,189,155.8557,245.3901 F,2,181087,181802,1,0 S,2,181087,181802,1,0.2 P,0,181087,181802,A
Sprite,Foreground,Centre,"sb\glow.png",0,0 C,0,181317,,242,113,193 M,0,181317,181432,84,277,35.3896,205.8476 F,2,181317,182147,1,0 S,2,181317,182147,1,0.2 P,0,181317,182147,A M,0,181432,181547,35.3896,205.8476,106.2244,150.1855
Sprite,Foreground,Centre,"sb\glow.png",118,344 C,0,181664,,255,157,206 F,2,181664,182264,1,0 S,2,181664,182264,1,0.2 P,0,181664,182264,A
Sprite,Foreground,Centre,"sb\glow.png",198,360 C,0,181779,,255,157,206 F,2,181779,182379,1,0 S,2,181779,182379,1,0.2 P,0,181779,182379,A
Sprite,Foreground,Centre,"sb\glow.png",273,295 C,0,181894,,255,157,206 F,2,181894,182494,1,0 S,2,181894,182494,1,0.2 P,0,181894,182494,A
Sprite,Foreground,Centre,"sb\glow.png",332,218 C,0,182010,,255,157,206 F,2,182010,182610,1,0 S,2,182010,182610,1,0.2 P,0,182010,182610,A
Sprite,Foreground,Centre,"sb\glow.png",415,210 C,0,182125,,255,157,206 F,2,182125,182725,1,0 S,2,182125,182725,1,0.2 P,0,182125,182725,A
Sprite,Foreground,Centre,"sb\glow.png",508,312 C,0,182240,,119,0,119 F,2,182240,182840,1,0 S,2,182240,182840,1,0.2 P,0,182240,182840,A
Sprite,Foreground,Centre,"sb\glow.png",499,349 C,0,182356,,119,0,119 F,2,182356,182956,1,0 S,2,182356,182956,1,0.2 P,0,182356,182956,A
Sprite,Foreground,Centre,"sb\glow.png",471,352 C,0,182471,,119,0,119 F,2,182471,183071,1,0 S,2,182471,183071,1,0.2 P,0,182471,183071,A
Sprite,Foreground,Centre,"sb\glow.png",451,338 C,0,182587,,119,0,119 F,2,182587,183187,1,0 S,2,182587,183187,1,0.2 P,0,182587,183187,A
Sprite,Foreground,Centre,"sb\glow.png",463,265 C,0,182702,,119,0,119 F,2,182702,183302,1,0 S,2,182702,183302,1,0.2 P,0,182702,183302,A
Sprite,Foreground,Centre,"sb\glow.png",407,198 C,0,182817,,119,0,119 F,2,182817,183417,1,0 S,2,182817,183417,1,0.2 P,0,182817,183417,A
Sprite,Foreground,Centre,"sb\glow.png",0,0 C,0,182933,,119,0,119 M,0,182933,183048,321,230,295.6315,314.8659 F,2,182933,183648,1,0 S,2,182933,183648,1,0.2 P,0,182933,183648,A
Sprite,Foreground,Centre,"sb\glow.png",425,98 C,0,183164,,242,113,193 F,2,183164,183764,1,0 S,2,183164,183764,1,0.2 P,0,183164,183764,A
Sprite,Foreground,Centre,"sb\glow.png",417,88 C,0,183279,,242,113,193 F,2,183279,183879,1,0 S,2,183279,183879,1,0.2 P,0,183279,183879,A
Sprite,Foreground,Centre,"sb\glow.png",326,105 C,0,183394,,242,113,193 F,2,183394,183994,1,0 S,2,183394,183994,1,0.2 P,0,183394,183994,A
Sprite,Foreground,Centre,"sb\glow.png",310,92 C,0,183510,,242,113,193 F,2,183510,184110,1,0 S,2,183510,184110,1,0.2 P,0,183510,184110,A
Sprite,Foreground,Centre,"sb\glow.png",407,198 C,0,183625,,242,113,193 F,2,183625,184225,1,0 S,2,183625,184225,1,0.2 P,0,183625,184225,A
Sprite,Foreground,Centre,"sb\glow.png",377,184 C,0,183740,,242,113,193 F,2,183740,184340,1,0 S,2,183740,184340,1,0.2 P,0,183740,184340,A
Sprite,Foreground,Centre,"sb\glow.png",256,197 C,0,183856,,242,113,193 F,2,183856,184456,1,0 S,2,183856,184456,1,0.2 P,0,183856,184456,A
Sprite,Foreground,Centre,"sb\glow.png",215,189 C,0,183971,,242,113,193 F,2,183971,184571,1,0 S,2,183971,184571,1,0.2 P,0,183971,184571,A
Sprite,Foreground,Centre,"sb\glow.png",0,0 C,0,184087,,242,113,193 M,0,184087,184202,165,109 F,2,184087,184802,1,0 S,2,184087,184802,1,0.2 P,0,184087,184802,A
Sprite,Foreground,Centre,"sb\glow.png",392,290 C,0,184317,,255,157,206 F,2,184317,184917,1,0 S,2,184317,184917,1,0.2 P,0,184317,184917,A
Sprite,Foreground,Centre,"sb\glow.png",0,0 C,0,184433,,255,157,206 M,0,184433,184548,337,247,429,274 F,2,184433,185148,1,0 S,2,184433,185148,1,0.2 P,0,184433,185148,A
Sprite,Foreground,Centre,"sb\glow.png",274,349 C,0,184664,,255,157,206 F,2,184664,185264,1,0 S,2,184664,185264,1,0.2 P,0,184664,185264,A
Sprite,Foreground,Centre,"sb\glow.png",0,0 C,0,184779,,255,157,206 M,0,184779,184894,316,408,218.9156,385.191 F,2,184779,185494,1,0 S,2,184779,185494,1,0.2 P,0,184779,185494,A
Sprite,Foreground,Centre,"sb\glow.png",0,0 C,0,185010,,255,157,206 M,0,185010,185125,151,257,248.0844,279.809 F,2,185010,185725,1,0 S,2,185010,185725,1,0.2 P,0,185010,185725,A
Sprite,Foreground,Centre,"sb\glow.png",453,136 C,0,185240,,119,0,119 F,2,185240,185840,1,0 S,2,185240,185840,1,0.2 P,0,185240,185840,A
Sprite,Foreground,Centre,"sb\glow.png",379,126 C,0,185356,,119,0,119 F,2,185356,185956,1,0 S,2,185356,185956,1,0.2 P,0,185356,185956,A
Sprite,Foreground,Centre,"sb\glow.png",320,176 C,0,185471,,119,0,119 F,2,185471,186071,1,0 S,2,185471,186071,1,0.2 P,0,185471,186071,A
Sprite,Foreground,Centre,"sb\glow.png",397,149 C,0,185587,,119,0,119 F,2,185587,186187,1,0 S,2,185587,186187,1,0.2 P,0,185587,186187,A
Sprite,Foreground,Centre,"sb\glow.png",488,191 C,0,185702,,242,113,193 F,2,185702,186302,1,0 S,2,185702,186302,1,0.2 P,0,185702,186302,A
Sprite,Foreground,Centre,"sb\glow.png",0,0 C,0,185817,,242,113,193 M,0,185817,185874,436,101,411.853,59.96054 F,2,185817,186474,1,0 S,2,185817,186474,1,0.2 P,0,185817,186474,A
Sprite,Foreground,Centre,"sb\glow.png",0,0 C,0,185933,,242,113,193 M,0,185933,186048,343,139,244.5809,137.6524 F,2,185933,186879,1,0 S,2,185933,186879,1,0.2 P,0,185933,186879,A M,0,186048,186163,244.5809,137.6524,175.5526,207.8371 M,0,186163,186279,175.5526,207.8371,93.36263,259.9371
Sprite,Foreground,Centre,"sb\glow.png",0,0 C,0,186394,,255,157,206 M,0,186394,186509,152,403,96.21815,401.9047 F,2,186394,187109,1,0 S,2,186394,187109,1,0.2 P,0,186394,187109,A
Sprite,Foreground,Centre,"sb\glow.png",270,303 C,0,186625,,255,157,206 F,2,186625,187225,1,0 S,2,186625,187225,1,0.2 P,0,186625,187225,A
Sprite,Foreground,Centre,"sb\glow.png",0,0 C,0,186740,,255,157,206 M,0,186740,186797,229,335,199.7789,380.8424 F,2,186740,187397,1,0 S,2,186740,187397,1,0.2 P,0,186740,187397,A
Sprite,Foreground,Centre,"sb\glow.png",0,0 C,0,186856,,119,0,119 M,0,186856,186971,275,391,364.9902,398.3091 F,2,186856,187686,1,0 S,2,186856,187686,1,0.2 P,0,186856,187686,A M,0,186971,187086,364.9902,398.3091,465.6541,351.7983
Sprite,Foreground,Centre,"sb\glow.png",440,397 C,0,187202,,119,0,119 F,2,187202,187802,1,0 S,2,187202,187802,1,0.2 P,0,187202,187802,A
Sprite,Foreground,Centre,"sb\glow.png",505,421 C,0,187317,,119,0,119 F,2,187317,187917,1,0 S,2,187317,187917,1,0.2 P,0,187317,187917,A
Sprite,Foreground,Centre,"sb\glow.png",569,384 C,0,187432,,119,0,119 F,2,187432,188032,1,0 S,2,187432,188032,1,0.2 P,0,187432,188032,A
Sprite,Foreground,Centre,"sb\glow.png",575,304 C,0,187548,,119,0,119 F,2,187548,188148,1,0 S,2,187548,188148,1,0.2 P,0,187548,188148,A
Sprite,Foreground,Centre,"sb\glow.png",495,251 C,0,187663,,119,0,119 F,2,187663,188263,1,0 S,2,187663,188263,1,0.2 P,0,187663,188263,A
Sprite,Foreground,Centre,"sb\glow.png",0,0 C,0,187779,,119,0,119 M,0,187779,187894,397,301 F,2,187779,188725,1,0 S,2,187779,188725,1,0.2 P,0,187779,188725,A M,0,187894,188009,397,301 M,0,188009,188125,397,301
Sprite,Foreground,Centre,"sb\glow.png",0,0 C,0,188240,,242,113,193 M,0,188240,188355,331,265,349.7096,149.3728 F,2,188240,189070,1,0 S,2,188240,189070,1,0.2 P,0,188240,189070,A M,0,188355,188470,349.7096,149.3728,247.1576,93.14043
Sprite,Foreground,Centre,"sb\glow.png",217,61 C,0,188587,,242,113,193 F,2,188587,189187,1,0 S,2,188587,189187,1,0.2 P,0,188587,189187,A
Sprite,Foreground,Centre,"sb\glow.png",219,152 C,0,188702,,242,113,193 F,2,188702,189302,1,0 S,2,188702,189302,1,0.2 P,0,188702,189302,A
Sprite,Foreground,Centre,"sb\glow.png",163,109 C,0,188817,,242,113,193 F,2,188817,189417,1,0 S,2,188817,189417,1,0.2 P,0,188817,189417,A
Sprite,Foreground,Centre,"sb\glow.png",0,0 C,0,188933,,242,113,193 M,0,188933,189048,95,138,73.85836,259.3824 F,2,188933,189648,1,0 S,2,188933,189648,1,0.2 P,0,188933,189648,A
Sprite,Foreground,Centre,"sb\glow.png",0,0 C,0,189164,,242,113,193 M,0,189164,189279,222,195,233.1366,317.4282 F,2,189164,189879,1,0 S,2,189164,189879,1,0.2 P,0,189164,189879,A
Sprite,Foreground,Centre,"sb\glow.png",337,359 C,0,189395,,255,157,206 F,2,189395,189995,1,0 S,2,189395,189995,1,0.2 P,0,189395,189995,A
Sprite,Foreground,Centre,"sb\glow.png",424,298 C,0,189510,,255,157,206 F,2,189510,190110,1,0 S,2,189510,190110,1,0.2 P,0,189510,190110,A
Sprite,Foreground,Centre,"sb\glow.png",530,318 C,0,189625,,255,157,206 F,2,189625,190225,1,0 S,2,189625,190225,1,0.2 P,0,189625,190225,A
Sprite,Foreground,Centre,"sb\glow.png",543,312 C,0,189740,,255,157,206 F,2,189740,190340,1,0 S,2,189740,190340,1,0.2 P,0,189740,190340,A
Sprite,Foreground,Centre,"sb\glow.png",524,295 C,0,189856,,255,157,206 F,2,189856,190456,1,0 S,2,189856,190456,1,0.2 P,0,189856,190456,A
Sprite,Foreground,Centre,"sb\glow.png",500,330 C,0,189971,,255,157,206 F,2,189971,190571,1,0 S,2,189971,190571,1,0.2 P,0,189971,190571,A
Sprite,Foreground,Centre,"sb\glow.png",559,291 C,0,190087,,255,157,206 F,2,190087,190687,1,0 S,2,190087,190687,1,0.2 P,0,190087,190687,A
Sprite,Foreground,Centre,"sb\glow.png",487,250 C,0,190202,,255,157,206 F,2,190202,190802,1,0 S,2,190202,190802,1,0.2 P,0,190202,190802,A
Sprite,Foreground,Centre,"sb\glow.png",0,0 C,0,190317,,255,157,206 M,0,190317,190432,576,380 F,2,190317,191032,1,0 S,2,190317,191032,1,0.2 P,0,190317,191032,A
Sprite,Foreground,Centre,"sb\glow.png",406,400 C,0,190664,,119,0,119 F,2,190664,191264,1,0 S,2,190664,191264,1,0.2 P,0,190664,191264,A
Sprite,Foreground,Centre,"sb\glow.png",0,0 C,0,190779,,119,0,119 M,0,190779,190894,479,428,382.6314,417.3232 F,2,190779,191494,1,0 S,2,190779,191494,1,0.2 P,0,190779,191494,A
Sprite,Foreground,Centre,"sb\glow.png",246,435 C,0,191010,,119,0,119 F,2,191010,191610,1,0 S,2,191010,191610,1,0.2 P,0,191010,191610,A
Sprite,Foreground,Centre,"sb\glow.png",296,410 C,0,191125,,119,0,119 F,2,191125,191725,1,0 S,2,191125,191725,1,0.2 P,0,191125,191725,A
Sprite,Foreground,Centre,"sb\glow.png",335,278 C,0,191240,,119,0,119 F,2,191240,191840,1,0 S,2,191240,191840,1,0.2 P,0,191240,191840,A
Sprite,Foreground,Centre,"sb\glow.png",343,326 C,0,191355,,119,0,119 F,2,191355,191955,1,0 S,2,191355,191955,1,0.2 P,0,191355,191955,A
Sprite,Foreground,Centre,"sb\glow.png",0,0 C,0,191471,,242,113,193 M,0,191471,191586,204,348,85.24046,333.4373 F,2,191471,192301,1,0 S,2,191471,192301,1,0.2 P,0,191471,192301,A M,0,191586,191701,85.24046,333.4373,98.86465,311.6457
Sprite,Foreground,Centre,"sb\glow.png",177,396 C,0,191817,,242,113,193 F,2,191817,192417,1,0 S,2,191817,192417,1,0.2 P,0,191817,192417,A
Sprite,Foreground,Centre,"sb\glow.png",0,0 C,0,191933,,242,113,193 M,0,191933,192048,231,374,353.31,374.2539 F,2,191933,192879,1,0 S,2,191933,192879,1,0.2 P,0,191933,192879,A M,0,192048,192163,353.31,374.2539,231,374 M,0,192163,192279,231,374,353.31,374.2539
Sprite,Foreground,Centre,"sb\glow.png",0,0 C,0,192394,,242,113,193 M,0,192394,192509,395,225,518.2407,225.8745 F,2,192394,193340,1,0 S,2,192394,193340,1,0.2 P,0,192394,193340,A M,0,192509,192624,518.2407,225.8745,395,225 M,0,192624,192740,395,225,518.2407,225.8745
Sprite,Foreground,Centre,"sb\glow.png",348,278 C,0,192856,,255,157,206 F,2,192856,193456,1,0 S,2,192856,193456,1,0.2 P,0,192856,193456,A
Sprite,Foreground,Centre,"sb\glow.png",280,261 C,0,192971,,255,157,206 F,2,192971,193571,1,0 S,2,192971,193571,1,0.2 P,0,192971,193571,A
Sprite,Foreground,Centre,"sb\glow.png",264,192 C,0,193087,,255,157,206 F,2,193087,193687,1,0 S,2,193087,193687,1,0.2 P,0,193087,193687,A
Sprite,Foreground,Centre,"sb\glow.png",343,150 C,0,193202,,255,157,206 F,2,193202,193802,1,0 S,2,193202,193802,1,0.2 P,0,193202,193802,A
Sprite,Foreground,Centre,"sb\glow.png",0,0 C,0,193317,,119,0,119 M,0,193317,193432,382,62,394.1716,170.2896 F,2,193317,194378,1,0 S,2,193317,194378,1,0.2 P,0,193317,194378,A M,0,193432,193547,394.1716,170.2896,437.0818,277.384 M,0,193547,193663,437.0818,277.384,394.1716,170.2896 M,0,193663,193778,394.1716,170.2896,382,62
Sprite,Foreground,Centre,"sb\glow.png",456,71 C,0,193894,,242,113,193 F,2,193894,194494,1,0 S,2,193894,194494,1,0.2 P,0,193894,194494,A
Sprite,Foreground,Centre,"sb\glow.png",0,0 C,0,194010,,255,157,206 M,0,194010,194125,524,103 F,2,194010,194725,1,0 S,2,194010,194725,1,0.2 P,0,194010,194725,A
Sprite,Foreground,Centre,"sb\glow.png",0,0 C,0,194240,,119,0,119 M,0,194240,194355,251,198 F,2,194240,194955,1,0 S,2,194240,194955,1,0.2 P,0,194240,194955,A
Sprite,Foreground,Centre,"sb\glow.png",0,0 C,0,194471,,242,113,193 M,0,194471,194586,478,358 F,2,194471,195186,1,0 S,2,194471,195186,1,0.2 P,0,194471,195186,A
Sprite,Foreground,Centre,"sb\glow.png",0,0 C,0,194702,,255,157,206 M,0,194702,194817,320,425,205.3571,377.4965 F,2,194702,195763,1,0 S,2,194702,195763,1,0.2 P,0,194702,195763,A M,0,194817,194932,205.3571,377.4965,81.30909,380.0775 M,0,194932,195048,81.30909,380.0775,205.3571,377.4965 M,0,195048,195163,205.3571,377.4965,320,425
Sprite,Foreground,Centre,"sb\glow.png",0,0 C,0,202548,,255,157,206 M,0,202548,202663,82,235,200.6617,256.9082 F,2,202548,203378,1,0 S,2,202548,203378,1,0.2 P,0,202548,203378,A M,0,202663,202778,200.6617,256.9082,290.6802,176.6797
Sprite,Foreground,Centre,"sb\glow.png",0,0 C,0,202894,,255,157,206 M,0,202894,203009,373,267,468.6025,292.0457 F,2,202894,203724,1,0 S,2,202894,203724,1,0.2 P,0,202894,203724,A M,0,203009,203124,468.6025,292.0457,373,267
Sprite,Foreground,Centre,"sb\glow.png",451,360 C,0,203240,,255,157,206 F,2,203240,203840,1,0 S,2,203240,203840,1,0.2 P,0,203240,203840,A
Sprite,Foreground,Centre,"sb\glow.png",0,0 C,0,203356,,255,157,206 M,0,203356,203471,363,256,394.6357,162.7289 F,2,203356,204186,1,0 S,2,203356,204186,1,0.2 P,0,203356,204186,A M,0,203471,203586,394.6357,162.7289,363,256
Sprite,Foreground,Centre,"sb\glow.png",0,0 C,0,203702,,119,0,119 M,0,203702,203817,287,380,253.4017,299.7138 F,2,203702,204417,1,0 S,2,203702,204417,1,0.2 P,0,203702,204417,A
Sprite,Foreground,Centre,"sb\glow.png",0,0 C,0,203933,,119,0,119 M,0,203933,204048,493,280,450.18,359.5652 F,2,203933,204648,1,0 S,2,203933,204648,1,0.2 P,0,203933,204648,A
Sprite,Foreground,Centre,"sb\glow.png",0,0 C,0,204164,,119,0,119 M,0,204164,204279,321,152,353.0612,245.7162 F,2,204164,204879,1,0 S,2,204164,204879,1,0.2 P,0,204164,204879,A
Sprite,Foreground,Centre,"sb\glow.png",0,0 C,0,204394,,242,113,193 M,0,204394,204509,490,420,575.1854,384.4588 F,2,204394,205397,1,0 S,2,204394,205397,1,0.2 P,0,204394,205397,A M,0,204509,204624,575.1854,384.4588,497.4098,386.935 M,0,204624,204740,497.4098,386.935,412.6081,437.0459 M,0,204740,204797,412.6081,437.0459,363.345,430.4185
Sprite,Foreground,Centre,"sb\glow.png",0,0 C,0,204856,,242,113,193 M,0,204856,204971,299,396,274.5302,401.1216 F,2,204856,205859,1,0 S,2,204856,205859,1,0.2 P,0,204856,205859,A M,0,204971,205086,274.5302,401.1216,250.5473,402.337 M,0,205086,205202,250.5473,402.337,228.0831,391.3661 M,0,205202,205259,228.0831,391.3661,216.851,385.8807
Sprite,Foreground,Centre,"sb\glow.png",0,0 C,0,205317,,255,157,206 M,0,205317,205374,148,421,192.4935,406.8384 F,2,205317,205974,1,0 S,2,205317,205974,1,0.2 P,0,205317,205974,A
Sprite,Foreground,Centre,"sb\glow.png",0,0 C,0,205433,,255,157,206 M,0,205433,205548,217,386,222.8356,293.8102 F,2,205433,206206,1,0 S,2,205433,206206,1,0.2 P,0,205433,206206,A M,0,205548,205606,222.8356,293.8102,182.8806,265.4937
Sprite,Foreground,Centre,"sb\glow.png",0,0 C,0,205664,,255,157,206 M,0,205664,205721,157,289,147.1429,332.5741 F,2,205664,206321,1,0 S,2,205664,206321,1,0.2 P,0,205664,206321,A
Sprite,Foreground,Centre,"sb\glow.png",0,0 C,0,205779,,255,157,206 M,0,205779,205894,103,326,183,379 F,2,205779,206494,1,0 S,2,205779,206494,1,0.2 P,0,205779,206494,A
Sprite,Foreground,Centre,"sb\glow.png",455,170 C,0,206010,,119,0,119 F,2,206010,206610,1,0 S,2,206010,206610,1,0.2 P,0,206010,206610,A
Sprite,Foreground,Centre,"sb\glow.png",476,268 C,0,206125,,119,0,119 F,2,206125,206725,1,0 S,2,206125,206725,1,0.2 P,0,206125,206725,A
Sprite,Foreground,Centre,"sb\glow.png",553,246 C,0,206240,,119,0,119 F,2,206240,206840,1,0 S,2,206240,206840,1,0.2 P,0,206240,206840,A
Sprite,Foreground,Centre,"sb\glow.png",0,0 C,0,206356,,119,0,119 M,0,206356,206471,520,222,525.5216,271.6942 F,2,206356,207186,1,0 S,2,206356,207186,1,0.2 P,0,206356,207186,A M,0,206471,206586,525.5216,271.6942,520,222
Sprite,Foreground,Centre,"sb\glow.png",295,242 C,0,206702,,119,0,119 F,2,206702,207302,1,0 S,2,206702,207302,1,0.2 P,0,206702,207302,A
Sprite,Foreground,Centre,"sb\glow.png",0,0 C,0,206817,,119,0,119 M,0,206817,206932,315,280,324.799,205.6429 F,2,206817,207647,1,0 S,2,206817,207647,1,0.2 P,0,206817,207647,A M,0,206932,207047,324.799,205.6429,315,280
Sprite,Foreground,Centre,"sb\glow.png",81,249 C,0,207164,,119,0,119 F,2,207164,207764,1,0 S,2,207164,207764,1,0.2 P,0,207164,207764,A
Sprite,Foreground,Centre,"sb\glow.png",0,0 C,0,207279,,119,0,119 M,0,207279,207394,136,201,124.5119,300.338 F,2,207279,208109,1,0 S,2,207279,208109,1,0.2 P,0,207279,208109,A M,0,207394,207509,124.5119,300.338,136,201
Sprite,Foreground,Centre,"sb\glow.png",0,0 C,0,207625,,242,113,193 M,0,207625,207682,219,176,214.3111,130.9854 F,2,207625,208282,1,0 S,2,207625,208282,1,0.2 P,0,207625,208282,A
Sprite,Foreground,Centre,"sb\glow.png",0,0 C,0,207740,,242,113,193 M,0,207740,207797,256,143,249.5106,97.70442 F,2,207740,208397,1,0 S,2,207740,208397,1,0.2 P,0,207740,208397,A
Sprite,Foreground,Centre,"sb\glow.png",0,0 C,0,207856,,242,113,193 M,0,207856,207913,313,190,311.1509,143.4528 F,2,207856,208513,1,0 S,2,207856,208513,1,0.2 P,0,207856,208513,A
Sprite,Foreground,Centre,"sb\glow.png",0,0 C,0,207971,,242,113,193 M,0,207971,208028,372,136,371.1104,88.35656 F,2,207971,208628,1,0 S,2,207971,208628,1,0.2 P,0,207971,208628,A
Sprite,Foreground,Centre,"sb\glow.png",0,0 C,0,208087,,242,113,193 M,0,208087,208202,431,85,438.428,160.384 F,2,208087,209610,1,0 S,2,208087,209610,1,0.2 P,0,208087,209610,A M,0,208202,208317,438.428,160.384,450.9696,246.9805 M,0,208317,208433,450.9696,246.9805,463.5112,333.5771 M,0,208433,208548,463.5112,333.5771,466.8946,418.4345 M,0,208548,208663,466.8946,418.4345,463.5112,333.5771 M,0,208663,208779,463.5112,333.5771,450.9696,246.9805 M,0,208779,208894,450.9696,246.9805,438.428,160.384 M,0,208894,209010,438.428,160.384,431,85
Sprite,Foreground,Centre,"sb\glow.png",479,66 C,0,209125,,255,157,206 F,2,209125,209725,1,0 S,2,209125,209725,1,0.2 P,0,209125,209725,A
Sprite,Foreground,Centre,"sb\glow.png",528,129 C,0,209240,,119,0,119 F,2,209240,209840,1,0 S,2,209240,209840,1,0.2 P,0,209240,209840,A
Sprite,Foreground,Centre,"sb\glow.png",498,220 C,0,209356,,242,113,193 F,2,209356,209956,1,0 S,2,209356,209956,1,0.2 P,0,209356,209956,A
Sprite,Foreground,Centre,"sb\glow.png",395,259 C,0,209471,,255,157,206 F,2,209471,210071,1,0 S,2,209471,210071,1,0.2 P,0,209471,210071,A
Sprite,Foreground,Centre,"sb\glow.png",295,237 C,0,209587,,119,0,119 F,2,209587,210187,1,0 S,2,209587,210187,1,0.2 P,0,209587,210187,A
Sprite,Foreground,Centre,"sb\glow.png",243,168 C,0,209702,,242,113,193 F,2,209702,210302,1,0 S,2,209702,210302,1,0.2 P,0,209702,210302,A
Sprite,Foreground,Centre,"sb\glow.png",268,94 C,0,209817,,255,157,206 F,2,209817,210417,1,0 S,2,209817,210417,1,0.2 P,0,209817,210417,A
Sprite,Foreground,Centre,"sb\glow.png",0,0 C,0,209933,,119,0,119 M,0,209933,210048,392,123,350.0901,189.3091 F,2,209933,210879,1,0 S,2,209933,210879,1,0.2 P,0,209933,210879,A M,0,210048,210163,350.0901,189.3091,392,123 M,0,210163,210279,392,123,350.0901,189.3091
Sprite,Foreground,Centre,"sb\glow.png",0,0 C,0,210394,,119,0,119 M,0,210394,210509,361,334,324.5955,264.6593 F,2,210394,211340,1,0 S,2,210394,211340,1,0.2 P,0,210394,211340,A M,0,210509,210624,324.5955,264.6593,361,334 M,0,210624,210740,361,334,324.5955,264.6593
Sprite,Foreground,Centre,"sb\glow.png",0,0 C,0,210856,,119,0,119 M,0,210856,210971,193,204,271.3328,206.6597 F,2,210856,211571,1,0 S,2,210856,211571,1,0.2 P,0,210856,211571,A
Sprite,Foreground,Centre,"sb\glow.png",131,160 C,0,211087,,242,113,193 F,2,211087,211687,1,0 S,2,211087,211687,1,0.2 P,0,211087,211687,A
Sprite,Foreground,Centre,"sb\glow.png",210,122 C,0,211202,,242,113,193 F,2,211202,211802,1,0 S,2,211202,211802,1,0.2 P,0,211202,211802,A
Sprite,Foreground,Centre,"sb\glow.png",0,0 C,0,211317,,242,113,193 M,0,211317,211432,274,189,314.6951,122.194 F,2,211317,212032,1,0 S,2,211317,212032,1,0.2 P,0,211317,212032,A
Sprite,Foreground,Centre,"sb\glow.png",0,0 C,0,211548,,242,113,193 M,0,211548,211663,318,287,281.58,217.6727 F,2,211548,212263,1,0 S,2,211548,212263,1,0.2 P,0,211548,212263,A
Sprite,Foreground,Centre,"sb\glow.png",0,0 C,0,211779,,255,157,206 M,0,211779,211894,64,334,125.9967,284.6491 F,2,211779,212609,1,0 S,2,211779,212609,1,0.2 P,0,211779,212609,A M,0,211894,212009,125.9967,284.6491,197.9581,243.5654
Sprite,Foreground,Centre,"sb\glow.png",244,323 C,0,212125,,255,157,206 F,2,212125,212725,1,0 S,2,212125,212725,1,0.2 P,0,212125,212725,A
Sprite,Foreground,Centre,"sb\glow.png",0,0 C,0,212240,,255,157,206 M,0,212240,212355,318,287,389.9678,327.7925 F,2,212240,213070,1,0 S,2,212240,213070,1,0.2 P,0,212240,213070,A M,0,212355,212470,389.9678,327.7925,451,377
Sprite,Foreground,Centre,"sb\glow.png",458,388 C,0,212587,,255,157,206 F,2,212587,213187,1,0 S,2,212587,213187,1,0.2 P,0,212587,213187,A
Sprite,Foreground,Centre,"sb\glow.png",452,397 C,0,212702,,255,157,206 F,2,212702,213302,1,0 S,2,212702,213302,1,0.2 P,0,212702,213302,A
Sprite,Foreground,Centre,"sb\glow.png",555,219 C,0,212933,,255,157,206 F,2,212933,213533,1,0 S,2,212933,213533,1,0.2 P,0,212933,213533,A
Sprite,Foreground,Centre,"sb\glow.png",312,82 C,0,213164,,119,0,119 F,2,213164,213764,1,0 S,2,213164,213764,1,0.2 P,0,213164,213764,A
Sprite,Foreground,Centre,"sb\glow.png",288,152 C,0,213279,,119,0,119 F,2,213279,213879,1,0 S,2,213279,213879,1,0.2 P,0,213279,213879,A
Sprite,Foreground,Centre,"sb\glow.png",321,176 C,0,213394,,119,0,119 F,2,213394,213994,1,0 S,2,213394,213994,1,0.2 P,0,213394,213994,A
Sprite,Foreground,Centre,"sb\glow.png",298,217 C,0,213510,,119,0,119 F,2,213510,214110,1,0 S,2,213510,214110,1,0.2 P,0,213510,214110,A
Sprite,Foreground,Centre,"sb\glow.png",0,0 C,0,213625,,119,0,119 M,0,213625,213740,323,288,334.069,201.2296 F,2,213625,214340,1,0 S,2,213625,214340,1,0.2 P,0,213625,214340,A
Sprite,Foreground,Centre,"sb\glow.png",0,0 C,0,213856,,119,0,119 M,0,213856,213971,256,347,267.069,260.2296 F,2,213856,214571,1,0 S,2,213856,214571,1,0.2 P,0,213856,214571,A
Sprite,Foreground,Centre,"sb\glow.png",0,0 C,0,214087,,119,0,119 M,0,214087,214202,411,359,422.069,272.2296 F,2,214087,214802,1,0 S,2,214087,214802,1,0.2 P,0,214087,214802,A
Sprite,Foreground,Centre,"sb\glow.png",127,164 C,0,214317,,242,113,193 F,2,214317,214917,1,0 S,2,214317,214917,1,0.2 P,0,214317,214917,A
Sprite,Foreground,Centre,"sb\glow.png",0,0 C,0,214433,,242,113,193 M,0,214433,214490,162,97,199.9439,82.416 F,2,214433,215090,1,0 S,2,214433,215090,1,0.2 P,0,214433,215090,A
Sprite,Foreground,Centre,"sb\glow.png",0,0 C,0,214548,,242,113,193 M,0,214548,214663,150,64,153.7359,151.4192 F,2,214548,215494,1,0 S,2,214548,215494,1,0.2 P,0,214548,215494,A M,0,214663,214778,153.7359,151.4192,156.072,238.887 M,0,214778,214894,156.072,238.887,157.0011,326.3811
Sprite,Foreground,Centre,"sb\glow.png",208,389 C,0,215010,,242,113,193 F,2,215010,215610,1,0 S,2,215010,215610,1,0.2 P,0,215010,215610,A
Sprite,Foreground,Centre,"sb\glow.png",319,368 C,0,215125,,242,113,193 F,2,215125,215725,1,0 S,2,215125,215725,1,0.2 P,0,215125,215725,A
Sprite,Foreground,Centre,"sb\glow.png",432,389 C,0,215240,,242,113,193 F,2,215240,215840,1,0 S,2,215240,215840,1,0.2 P,0,215240,215840,A
Sprite,Foreground,Centre,"sb\glow.png",376,439 C,0,215356,,242,113,193 F,2,215356,215956,1,0 S,2,215356,215956,1,0.2 P,0,215356,215956,A
Sprite,Foreground,Centre,"sb\glow.png",0,0 C,0,215471,,255,157,206 M,0,215471,215586,482,326,482.8997,238.5062 F,2,215471,216417,1,0 S,2,215471,216417,1,0.2 P,0,215471,216417,A M,0,215586,215701,482.8997,238.5062,485.5713,151.0486 M,0,215701,215817,485.5713,151.0486,490,64
Sprite,Foreground,Centre,"sb\glow.png",473,85 C,0,215933,,255,157,206 F,2,215933,216533,1,0 S,2,215933,216533,1,0.2 P,0,215933,216533,A
Sprite,Foreground,Centre,"sb\glow.png",465,109 C,0,216048,,255,157,206 F,2,216048,216648,1,0 S,2,216048,216648,1,0.2 P,0,216048,216648,A
Sprite,Foreground,Centre,"sb\glow.png",457,134 C,0,216164,,255,157,206 F,2,216164,216764,1,0 S,2,216164,216764,1,0.2 P,0,216164,216764,A
Sprite,Foreground,Centre,"sb\glow.png",450,159 C,0,216279,,255,157,206 F,2,216279,216879,1,0 S,2,216279,216879,1,0.2 P,0,216279,216879,A
Sprite,Foreground,Centre,"sb\glow.png",444,184 C,0,216394,,255,157,206 F,2,216394,216994,1,0 S,2,216394,216994,1,0.2 P,0,216394,216994,A
Sprite,Foreground,Centre,"sb\glow.png",439,209 C,0,216510,,255,157,206 F,2,216510,217110,1,0 S,2,216510,217110,1,0.2 P,0,216510,217110,A
Sprite,Foreground,Centre,"sb\glow.png",434,234 C,0,216625,,255,157,206 F,2,216625,217225,1,0 S,2,216625,217225,1,0.2 P,0,216625,217225,A
Sprite,Foreground,Centre,"sb\glow.png",430,259 C,0,216740,,255,157,206 F,2,216740,217340,1,0 S,2,216740,217340,1,0.2 P,0,216740,217340,A
Sprite,Foreground,Centre,"sb\glow.png",427,285 C,0,216856,,119,0,119 F,2,216856,217456,1,0 S,2,216856,217456,1,0.2 P,0,216856,217456,A
Sprite,Foreground,Centre,"sb\glow.png",347,258 C,0,216971,,119,0,119 F,2,216971,217571,1,0 S,2,216971,217571,1,0.2 P,0,216971,217571,A
Sprite,Foreground,Centre,"sb\glow.png",260,243 C,0,217087,,119,0,119 F,2,217087,217687,1,0 S,2,217087,217687,1,0.2 P,0,217087,217687,A
Sprite,Foreground,Centre,"sb\glow.png",169,241 C,0,217202,,119,0,119 F,2,217202,217802,1,0 S,2,217202,217802,1,0.2 P,0,217202,217802,A
Sprite,Foreground,Centre,"sb\glow.png",0,0 C,0,217317,,242,113,193 M,0,217317,217432,259,375,310.8182,337.7521 F,2,217317,218263,1,0 S,2,217317,218263,1,0.2 P,0,217317,218263,A M,0,217432,217547,310.8182,337.7521,339.1539,267.4439 M,0,217547,217663,339.1539,267.4439,270.9725,228.0251
Sprite,Foreground,Centre,"sb\glow.png",226,297 C,0,217779,,242,113,193 F,2,217779,218379,1,0 S,2,217779,218379,1,0.2 P,0,217779,218379,A
Sprite,Foreground,Centre,"sb\glow.png",299,315 C,0,217894,,242,113,193 F,2,217894,218494,1,0 S,2,217894,218494,1,0.2 P,0,217894,218494,A
Sprite,Foreground,Centre,"sb\glow.png",373,265 C,0,218010,,242,113,193 F,2,218010,218610,1,0 S,2,218010,218610,1,0.2 P,0,218010,218610,A
Sprite,Foreground,Centre,"sb\glow.png",348,169 C,0,218125,,242,113,193 F,2,218125,218725,1,0 S,2,218125,218725,1,0.2 P,0,218125,218725,A
Sprite,Foreground,Centre,"sb\glow.png",245,148 C,0,218240,,242,113,193 F,2,218240,218840,1,0 S,2,218240,218840,1,0.2 P,0,218240,218840,A
Sprite,Foreground,Centre,"sb\glow.png",209,73 C,0,218356,,242,113,193 F,2,218356,218956,1,0 S,2,218356,218956,1,0.2 P,0,218356,218956,A
Sprite,Foreground,Centre,"sb\glow.png",240,57 C,0,218471,,242,113,193 F,2,218471,219071,1,0 S,2,218471,219071,1,0.2 P,0,218471,219071,A
Sprite,Foreground,Centre,"sb\glow.png",241,75 C,0,218587,,242,113,193 F,2,218587,219187,1,0 S,2,218587,219187,1,0.2 P,0,218587,219187,A
Sprite,Foreground,Centre,"sb\glow.png",172,104 C,0,218702,,255,157,206 F,2,218702,219302,1,0 S,2,218702,219302,1,0.2 P,0,218702,219302,A
Sprite,Foreground,Centre,"sb\glow.png",98,59 C,0,218817,,255,157,206 F,2,218817,219417,1,0 S,2,218817,219417,1,0.2 P,0,218817,219417,A
Sprite,Foreground,Centre,"sb\glow.png",0,0 C,0,218933,,255,157,206 M,0,218933,219048,103,137,88.07457,205.2292 F,2,218933,219648,1,0 S,2,218933,219648,1,0.2 P,0,218933,219648,A
Sprite,Foreground,Centre,"sb\glow.png",0,0 C,0,219164,,119,0,119 M,0,219164,219279,158,411,125.0234,329.9731 F,2,219164,219994,1,0 S,2,219164,219994,1,0.2 P,0,219164,219994,A M,0,219279,219394,125.0234,329.9731,182.4391,263.9451
Sprite,Foreground,Centre,"sb\glow.png",238,184 C,0,219510,,119,0,119 F,2,219510,220110,1,0 S,2,219510,220110,1,0.2 P,0,219510,220110,A
Sprite,Foreground,Centre,"sb\glow.png",0,0 C,0,219625,,119,0,119 M,0,219625,219740,315,101,347.9766,182.0269 F,2,219625,220455,1,0 S,2,219625,220455,1,0.2 P,0,219625,220455,A M,0,219740,219855,347.9766,182.0269,290.5609,248.0549
Sprite,Foreground,Centre,"sb\glow.png",391,317 C,0,219971,,119,0,119 F,2,219971,220571,1,0 S,2,219971,220571,1,0.2 P,0,219971,220571,A
Sprite,Foreground,Centre,"sb\glow.png",0,0 C,0,220087,,119,0,119 M,0,220087,220202,504,384,471.0234,302.973 F,2,220087,220917,1,0 S,2,220087,220917,1,0.2 P,0,220087,220917,A M,0,220202,220317,471.0234,302.973,528.4391,236.9451
Sprite,Foreground,Centre,"sb\glow.png",468,119 C,0,220433,,119,0,119 F,2,220433,221033,1,0 S,2,220433,221033,1,0.2 P,0,220433,221033,A
Sprite,Foreground,Centre,"sb\glow.png",0,0 C,0,220548,,119,0,119 M,0,220548,220663,416,217,371.5513,292.3695 F,2,220548,221263,1,0 S,2,220548,221263,1,0.2 P,0,220548,221263,A
Sprite,Foreground,Centre,"sb\glow.png",0,0 C,0,220779,,119,0,119 M,0,220779,220894,224,279,268.4487,203.6305 F,2,220779,221494,1,0 S,2,220779,221494,1,0.2 P,0,220779,221494,A
Sprite,Foreground,Centre,"sb\glow.png",328,91 C,0,221010,,242,113,193 F,2,221010,221610,1,0 S,2,221010,221610,1,0.2 P,0,221010,221610,A
Sprite,Foreground,Centre,"sb\glow.png",307,90 C,0,221125,,242,113,193 F,2,221125,221725,1,0 S,2,221125,221725,1,0.2 P,0,221125,221725,A
Sprite,Foreground,Centre,"sb\glow.png",330,80 C,0,221240,,242,113,193 F,2,221240,221840,1,0 S,2,221240,221840,1,0.2 P,0,221240,221840,A
Sprite,Foreground,Centre,"sb\glow.png",306,77 C,0,221356,,242,113,193 F,2,221356,221956,1,0 S,2,221356,221956,1,0.2 P,0,221356,221956,A
Sprite,Foreground,Centre,"sb\glow.png",376,173 C,0,221471,,255,157,206 F,2,221471,222071,1,0 S,2,221471,222071,1,0.2 P,0,221471,222071,A
Sprite,Foreground,Centre,"sb\glow.png",355,172 C,0,221586,,255,157,206 F,2,221586,222186,1,0 S,2,221586,222186,1,0.2 P,0,221586,222186,A
Sprite,Foreground,Centre,"sb\glow.png",378,162 C,0,221701,,255,157,206 F,2,221701,222301,1,0 S,2,221701,222301,1,0.2 P,0,221701,222301,A
Sprite,Foreground,Centre,"sb\glow.png",354,159 C,0,221817,,255,157,206 F,2,221817,222417,1,0 S,2,221817,222417,1,0.2 P,0,221817,222417,A
Sprite,Foreground,Centre,"sb\glow.png",291,238 C,0,221933,,119,0,119 F,2,221933,222533,1,0 S,2,221933,222533,1,0.2 P,0,221933,222533,A
Sprite,Foreground,Centre,"sb\glow.png",270,237 C,0,222048,,119,0,119 F,2,222048,222648,1,0 S,2,222048,222648,1,0.2 P,0,222048,222648,A
Sprite,Foreground,Centre,"sb\glow.png",300,318 C,0,222163,,119,0,119 F,2,222163,222763,1,0 S,2,222163,222763,1,0.2 P,0,222163,222763,A
Sprite,Foreground,Centre,"sb\glow.png",276,315 C,0,222279,,119,0,119 F,2,222279,222879,1,0 S,2,222279,222879,1,0.2 P,0,222279,222879,A
Sprite,Foreground,Centre,"sb\glow.png",386,351 C,0,222394,,242,113,193 F,2,222394,222994,1,0 S,2,222394,222994,1,0.2 P,0,222394,222994,A
Sprite,Foreground,Centre,"sb\glow.png",365,350 C,0,222509,,242,113,193 F,2,222509,223109,1,0 S,2,222509,223109,1,0.2 P,0,222509,223109,A
Sprite,Foreground,Centre,"sb\glow.png",321,410 C,0,222624,,242,113,193 F,2,222624,223224,1,0 S,2,222624,223224,1,0.2 P,0,222624,223224,A
Sprite,Foreground,Centre,"sb\glow.png",297,407 C,0,222740,,242,113,193 F,2,222740,223340,1,0 S,2,222740,223340,1,0.2 P,0,222740,223340,A
Sprite,Foreground,Centre,"sb\glow.png",0,0 C,0,222856,,255,157,206 M,0,222856,222971,236,357,322.0079,373.0899 F,2,222856,223802,1,0 S,2,222856,223802,1,0.2 P,0,222856,223802,A M,0,222971,223086,322.0079,373.0899,408.0159,389.1798 M,0,223086,223202,408.0159,389.1798,494.0238,405.2698
Sprite,Foreground,Centre,"sb\glow.png",526,388 C,0,223317,,255,157,206 F,2,223317,223917,1,0 S,2,223317,223917,1,0.2 P,0,223317,223917,A
Sprite,Foreground,Centre,"sb\glow.png",527,315 C,0,223433,,255,157,206 F,2,223433,224033,1,0 S,2,223433,224033,1,0.2 P,0,223433,224033,A
Sprite,Foreground,Centre,"sb\glow.png",525,210 C,0,223548,,255,157,206 F,2,223548,224148,1,0 S,2,223548,224148,1,0.2 P,0,223548,224148,A
Sprite,Foreground,Centre,"sb\glow.png",516,92 C,0,223664,,255,157,206 F,2,223664,224264,1,0 S,2,223664,224264,1,0.2 P,0,223664,224264,A
Sprite,Foreground,Centre,"sb\glow.png",0,0 C,0,223779,,119,0,119 M,0,223779,223894,406,176,320.5603,157.1238 F,2,223779,224494,1,0 S,2,223779,224494,1,0.2 P,0,223779,224494,A
Sprite,Foreground,Centre,"sb\glow.png",0,0 C,0,224010,,119,0,119 M,0,224010,224125,168,81,253.4397,99.87621 F,2,224010,224725,1,0 S,2,224010,224725,1,0.2 P,0,224010,224725,A
Sprite,Foreground,Centre,"sb\glow.png",346,73 C,0,224240,,242,113,193 F,2,224240,224840,1,0 S,2,224240,224840,1,0.2 P,0,224240,224840,A
Sprite,Foreground,Centre,"sb\glow.png",311,144 C,0,224356,,242,113,193 F,2,224356,224956,1,0 S,2,224356,224956,1,0.2 P,0,224356,224956,A
Sprite,Foreground,Centre,"sb\glow.png",272,212 C,0,224471,,242,113,193 F,2,224471,225071,1,0 S,2,224471,225071,1,0.2 P,0,224471,225071,A
Sprite,Foreground,Centre,"sb\glow.png",340,244 C,0,224587,,242,113,193 F,2,224587,225187,1,0 S,2,224587,225187,1,0.2 P,0,224587,225187,A
Sprite,Foreground,Centre,"sb\glow.png",0,0 C,0,224702,,242,113,193 M,0,224702,224817,411,274,405.8304,216.9391 F,2,224702,225648,1,0 S,2,224702,225648,1,0.2 P,0,224702,225648,A M,0,224817,224932,405.8304,216.9391,357.8631,280.4406 M,0,224932,225048,357.8631,280.4406,356.0356,367.243
Sprite,Foreground,Centre,"sb\glow.png",284,392 C,0,225164,,242,113,193 F,2,225164,225764,1,0 S,2,225164,225764,1,0.2 P,0,225164,225764,A
Sprite,Foreground,Centre,"sb\glow.png",356,397 C,0,225279,,242,113,193 F,2,225279,225879,1,0 S,2,225279,225879,1,0.2 P,0,225279,225879,A
Sprite,Foreground,Centre,"sb\glow.png",0,0 C,0,225394,,242,113,193 M,0,225394,225509,318,358,319.3102,271.4059 F,2,225394,226109,1,0 S,2,225394,226109,1,0.2 P,0,225394,226109,A
Sprite,Foreground,Centre,"sb\glow.png",0,0 C,0,225625,,242,113,193 M,0,225625,225740,285,200,286.8153,113.1594 F,2,225625,226455,1,0 S,2,225625,226455,1,0.2 P,0,225625,226455,A M,0,225740,225855,286.8153,113.1594,285,200
Sprite,Foreground,Centre,"sb\glow.png",225,238 C,0,225971,,242,113,193 F,2,225971,226571,1,0 S,2,225971,226571,1,0.2 P,0,225971,226571,A
Sprite,Foreground,Centre,"sb\glow.png",0,0 C,0,226087,,242,113,193 M,0,226087,226202,132,244,56.18968,286.222 F,2,226087,226917,1,0 S,2,226087,226917,1,0.2 P,0,226087,226917,A M,0,226202,226317,56.18968,286.222,132,244
Sprite,Foreground,Centre,"sb\glow.png",169,145 C,0,226433,,242,113,193 F,2,226433,227033,1,0 S,2,226433,227033,1,0.2 P,0,226433,227033,A
Sprite,Foreground,Centre,"sb\glow.png",0,0 C,0,226548,,255,157,206 M,0,226548,226663,203,340,219.8033,425.8429 F,2,226548,227263,1,0 S,2,226548,227263,1,0.2 P,0,226548,227263,A
Sprite,Foreground,Centre,"sb\glow.png",0,0 C,0,226779,,255,157,206 M,0,226779,226894,332,268,309.3065,352.4197 F,2,226779,227494,1,0 S,2,226779,227494,1,0.2 P,0,226779,227494,A
Sprite,Foreground,Centre,"sb\glow.png",0,0 C,0,227010,,255,157,206 M,0,227010,227125,422,184,435.8829,270.1833 F,2,227010,227725,1,0 S,2,227010,227725,1,0.2 P,0,227010,227725,A
Sprite,Foreground,Centre,"sb\glow.png",551,137 C,0,227240,,119,0,119 F,2,227240,227840,1,0 S,2,227240,227840,1,0.2 P,0,227240,227840,A
Sprite,Foreground,Centre,"sb\glow.png",490,80 C,0,227356,,119,0,119 F,2,227356,227956,1,0 S,2,227356,227956,1,0.2 P,0,227356,227956,A
Sprite,Foreground,Centre,"sb\glow.png",0,0 C,0,227471,,119,0,119 M,0,227471,227586,523,153,565.4053,228.1245 F,2,227471,228301,1,0 S,2,227471,228301,1,0.2 P,0,227471,228301,A M,0,227586,227701,565.4053,228.1245,560.8933,314.2274
Sprite,Foreground,Centre,"sb\glow.png",423,360 C,0,227817,,119,0,119 F,2,227817,228417,1,0 S,2,227817,228417,1,0.2 P,0,227817,228417,A
Sprite,Foreground,Centre,"sb\glow.png",0,0 C,0,227933,,119,0,119 M,0,227933,228048,528,433,524.9149,345.7124 F,2,227933,228648,1,0 S,2,227933,228648,1,0.2 P,0,227933,228648,A
Sprite,Foreground,Centre,"sb\glow.png",409,245 C,0,228164,,242,113,193 F,2,228164,228764,1,0 S,2,228164,228764,1,0.2 P,0,228164,228764,A
Sprite,Foreground,Centre,"sb\glow.png",320,299 C,0,228279,,242,113,193 F,2,228279,228879,1,0 S,2,228279,228879,1,0.2 P,0,228279,228879,A
Sprite,Foreground,Centre,"sb\glow.png",398,378 C,0,228394,,242,113,193 F,2,228394,228994,1,0 S,2,228394,228994,1,0.2 P,0,228394,228994,A
Sprite,Foreground,Centre,"sb\glow.png",0,0 C,0,228510,,255,157,206 M,0,228510,228625,450,311,478.6003,305.28 F,2,228510,229340,1,0 S,2,228510,229340,1,0.2 P,0,228510,229340,A M,0,228625,228740,478.6003,305.28,507.2005,299.5599
Sprite,Foreground,Centre,"sb\glow.png",0,0 C,0,228856,,255,157,206 M,0,228856,228971,214,312,184.8747,310.4467 F,2,228856,229686,1,0 S,2,228856,229686,1,0.2 P,0,228856,229686,A M,0,228971,229086,184.8747,310.4467,155.7495,308.8933
Sprite,Foreground,Centre,"sb\glow.png",0,0 C,0,229202,,255,157,206 M,0,229202,229317,356,156,384.9108,152.1452 F,2,229202,230032,1,0 S,2,229202,230032,1,0.2 P,0,229202,230032,A M,0,229317,229432,384.9108,152.1452,413.8216,148.2905
Sprite,Foreground,Centre,"sb\glow.png",0,0 C,0,229548,,255,157,206 M,0,229548,229663,231,80,191.904,124.7841 F,2,229548,230378,1,0 S,2,229548,230378,1,0.2 P,0,229548,230378,A M,0,229663,229778,191.904,124.7841,131.9966,198.8741
Sprite,Foreground,Centre,"sb\glow.png",95,262 C,0,229894,,255,157,206 F,2,229894,230494,1,0 S,2,229894,230494,1,0.2 P,0,229894,230494,A
Sprite,Foreground,Centre,"sb\glow.png",156,309 C,0,230010,,255,157,206 F,2,230010,230610,1,0 S,2,230010,230610,1,0.2 P,0,230010,230610,A
Sprite,Foreground,Centre,"sb\glow.png",147,382 C,0,230125,,255,157,206 F,2,230125,230725,1,0 S,2,230125,230725,1,0.2 P,0,230125,230725,A
Sprite,Foreground,Centre,"sb\glow.png",0,0 C,0,230240,,119,0,119 M,0,230240,230355,164,415,251.2827,408.8502 F,2,230240,231186,1,0 S,2,230240,231186,1,0.2 P,0,230240,231186,A M,0,230355,230470,251.2827,408.8502,338.6499,404.0489 M,0,230470,230586,338.6499,404.0489,426.0811,400.6025
Sprite,Foreground,Centre,"sb\glow.png",0,0 C,0,230702,,119,0,119 M,0,230702,230817,224,373,311.4622,374.9364 F,2,230702,231417,1,0 S,2,230702,231417,1,0.2 P,0,230702,231417,A
Sprite,Foreground,Centre,"sb\glow.png",0,0 C,0,230933,,119,0,119 M,0,230933,231048,476,81,388.7173,87.14983 F,2,230933,231879,1,0 S,2,230933,231879,1,0.2 P,0,230933,231879,A M,0,231048,231163,388.7173,87.14983,301.3501,91.95111 M,0,231163,231279,301.3501,91.95111,213.9189,95.39749
Sprite,Foreground,Centre,"sb\glow.png",321,233 C,0,231394,,119,0,119 F,2,231394,231994,1,0 S,2,231394,231994,1,0.2 P,0,231394,231994,A
Sprite,Foreground,Centre,"sb\glow.png",387,263 C,0,231625,,242,113,193 F,2,231625,232225,1,0 S,2,231625,232225,1,0.2 P,0,231625,232225,A
Sprite,Foreground,Centre,"sb\glow.png",309,188 C,0,231740,,242,113,193 F,2,231740,232340,1,0 S,2,231740,232340,1,0.2 P,0,231740,232340,A
Sprite,Foreground,Centre,"sb\glow.png",297,291 C,0,231856,,242,113,193 F,2,231856,232456,1,0 S,2,231856,232456,1,0.2 P,0,231856,232456,A
Sprite,Foreground,Centre,"sb\glow.png",325,240 C,0,231971,,242,113,193 F,2,231971,232571,1,0 S,2,231971,232571,1,0.2 P,0,231971,232571,A
Sprite,Foreground,Centre,"sb\glow.png",0,0 C,0,232087,,255,157,206 M,0,232087,232202,430,201,507.5154,230.0933 F,2,232087,232917,1,0 S,2,232087,232917,1,0.2 P,0,232087,232917,A M,0,232202,232317,507.5154,230.0933,515.5193,312.5021
Sprite,Foreground,Centre,"sb\glow.png",396,267 C,0,232433,,255,157,206 F,2,232433,233033,1,0 S,2,232433,233033,1,0.2 P,0,232433,233033,A
Sprite,Foreground,Centre,"sb\glow.png",0,0 C,0,232548,,255,157,206 M,0,232548,232663,325,240,306.7368,163.31 F,2,232548,233263,1,0 S,2,232548,233263,1,0.2 P,0,232548,233263,A
Sprite,Foreground,Centre,"sb\glow.png",0,0 C,0,232779,,255,157,206 M,0,232779,232894,395,337,326.7249,376.9685 F,2,232779,233494,1,0 S,2,232779,233494,1,0.2 P,0,232779,233494,A
Sprite,Foreground,Centre,"sb\glow.png",0,0 C,0,233010,,119,0,119 M,0,233010,233125,94,262,136.1661,189.3729 F,2,233010,233840,1,0 S,2,233010,233840,1,0.2 P,0,233010,233840,A M,0,233125,233240,136.1661,189.3729,219.804,182.1216
Sprite,Foreground,Centre,"sb\glow.png",166,293 C,0,233356,,119,0,119 F,2,233356,233956,1,0 S,2,233356,233956,1,0.2 P,0,233356,233956,A
Sprite,Foreground,Centre,"sb\glow.png",0,0 C,0,233471,,119,0,119 M,0,233471,233586,154,370,81.43604,403.7359 F,2,233471,234186,1,0 S,2,233471,234186,1,0.2 P,0,233471,234186,A
Sprite,Foreground,Centre,"sb\glow.png",0,0 C,0,233702,,119,0,119 M,0,233702,233817,243,293,295.2758,348.1328 F,2,233702,234417,1,0 S,2,233702,234417,1,0.2 P,0,233702,234417,A
Sprite,Foreground,Centre,"sb\glow.png",0,0 C,0,233933,,242,113,193 M,0,233933,234048,518,164,455.0266,107.832 F,2,233933,234763,1,0 S,2,233933,234763,1,0.2 P,0,233933,234763,A M,0,234048,234163,455.0266,107.832,371.958,122.6093
Sprite,Foreground,Centre,"sb\glow.png",303,98 C,0,234279,,242,113,193 F,2,234279,234879,1,0 S,2,234279,234879,1,0.2 P,0,234279,234879,A
Sprite,Foreground,Centre,"sb\glow.png",0,0 C,0,234394,,242,113,193 M,0,234394,234509,360,244,312.1476,179.1547 F,2,234394,235109,1,0 S,2,234394,235109,1,0.2 P,0,234394,235109,A
Sprite,Foreground,Centre,"sb\glow.png",0,0 C,0,234625,,242,113,193 M,0,234625,234740,162,133,240.6597,149.4877 F,2,234625,235340,1,0 S,2,234625,235340,1,0.2 P,0,234625,235340,A
Sprite,Foreground,Centre,"sb\glow.png",0,0 C,0,234856,,255,157,206 M,0,234856,234971,280,407,203.771,372.8549 F,2,234856,235686,1,0 S,2,234856,235686,1,0.2 P,0,234856,235686,A M,0,234971,235086,203.771,372.8549,193.1691,290.0621
Sprite,Foreground,Centre,"sb\glow.png",261,255 C,0,235202,,255,157,206 F,2,235202,235802,1,0 S,2,235202,235802,1,0.2 P,0,235202,235802,A
Sprite,Foreground,Centre,"sb\glow.png",319,307 C,0,235317,,255,157,206 F,2,235317,235917,1,0 S,2,235317,235917,1,0.2 P,0,235317,235917,A
Sprite,Foreground,Centre,"sb\glow.png",397,303 C,0,235433,,255,157,206 F,2,235433,236033,1,0 S,2,235433,236033,1,0.2 P,0,235433,236033,A
Sprite,Foreground,Centre,"sb\glow.png",477,299 C,0,235548,,255,157,206 F,2,235548,236148,1,0 S,2,235548,236148,1,0.2 P,0,235548,236148,A
Sprite,Foreground,Centre,"sb\glow.png",528,244 C,0,235664,,255,157,206 F,2,235664,236264,1,0 S,2,235664,236264,1,0.2 P,0,235664,236264,A
Sprite,Foreground,Centre,"sb\glow.png",0,0 C,0,235779,,119,0,119 M,0,235779,235894,390,191,377.2693,104.4311 F,2,235779,236725,1,0 S,2,235779,236725,1,0.2 P,0,235779,236725,A M,0,235894,236009,377.2693,104.4311,390,191 M,0,236009,236125,390,191,377.2693,104.4311
Sprite,Foreground,Centre,"sb\glow.png",0,0 C,0,236240,,119,0,119 M,0,236240,236355,323,240,310.2693,153.4311 F,2,236240,236955,1,0 S,2,236240,236955,1,0.2 P,0,236240,236955,A
Sprite,Foreground,Centre,"sb\glow.png",0,0 C,0,236471,,119,0,119 M,0,236471,236586,212,171,199.2693,84.43107 F,2,236471,237186,1,0 S,2,236471,237186,1,0.2 P,0,236471,237186,A
Sprite,Foreground,Centre,"sb\glow.png",0,0 C,0,236702,,242,113,193 M,0,236702,236817,468,158,480,244 F,2,236702,237532,1,0 S,2,236702,237532,1,0.2 P,0,236702,237532,A M,0,236817,236932,480,244,468,158
Sprite,Foreground,Centre,"sb\glow.png",377,306 C,0,237048,,242,113,193 F,2,237048,237648,1,0 S,2,237048,237648,1,0.2 P,0,237048,237648,A
Sprite,Foreground,Centre,"sb\glow.png",0,0 C,0,237164,,242,113,193 M,0,237164,237279,282,358,269.0688,271.4608 F,2,237164,237879,1,0 S,2,237164,237879,1,0.2 P,0,237164,237879,A
Sprite,Foreground,Centre,"sb\glow.png",208,208 C,0,237394,,242,113,193 F,2,237394,237994,1,0 S,2,237394,237994,1,0.2 P,0,237394,237994,A
Sprite,Foreground,Centre,"sb\glow.png",242,102 C,0,237510,,242,113,193 F,2,237510,238110,1,0 S,2,237510,238110,1,0.2 P,0,237510,238110,A
Sprite,Foreground,Centre,"sb\glow.png",0,0 C,0,237625,,255,157,206 M,0,237625,237740,151,70,167.6593,155.8995 F,2,237625,238571,1,0 S,2,237625,238571,1,0.2 P,0,237625,238571,A M,0,237740,237855,167.6593,155.8995,184.3186,241.7989 M,0,237855,237971,184.3186,241.7989,200.9779,327.6984
Sprite,Foreground,Centre,"sb\glow.png",251,188 C,0,238087,,255,157,206 F,2,238087,238687,1,0 S,2,238087,238687,1,0.2 P,0,238087,238687,A
Sprite,Foreground,Centre,"sb\glow.png",83,146 C,0,238202,,255,157,206 F,2,238202,238802,1,0 S,2,238202,238802,1,0.2 P,0,238202,238802,A
Sprite,Foreground,Centre,"sb\glow.png",0,0 C,0,238317,,119,0,119 M,0,238317,238432,140,56,155.8993,142.0434 F,2,238317,239147,1,0 S,2,238317,239147,1,0.2 P,0,238317,239147,A M,0,238432,238547,155.8993,142.0434,171.7986,228.0867
Sprite,Foreground,Centre,"sb\glow.png",123,287 C,0,238664,,119,0,119 F,2,238664,239264,1,0 S,2,238664,239264,1,0.2 P,0,238664,239264,A
Sprite,Foreground,Centre,"sb\glow.png",263,357 C,0,238779,,119,0,119 F,2,238779,239379,1,0 S,2,238779,239379,1,0.2 P,0,238779,239379,A
Sprite,Foreground,Centre,"sb\glow.png",207,431 C,0,238894,,119,0,119 F,2,238894,239494,1,0 S,2,238894,239494,1,0.2 P,0,238894,239494,A
Sprite,Foreground,Centre,"sb\glow.png",148,369 C,0,239010,,242,113,193 F,2,239010,239610,1,0 S,2,239010,239610,1,0.2 P,0,239010,239610,A
Sprite,Foreground,Centre,"sb\glow.png",250,266 C,0,239125,,242,113,193 F,2,239125,239725,1,0 S,2,239125,239725,1,0.2 P,0,239125,239725,A
Sprite,Foreground,Centre,"sb\glow.png",110,183 C,0,239240,,242,113,193 F,2,239240,239840,1,0 S,2,239240,239840,1,0.2 P,0,239240,239840,A
Sprite,Foreground,Centre,"sb\glow.png",172,96 C,0,239356,,242,113,193 F,2,239356,239956,1,0 S,2,239356,239956,1,0.2 P,0,239356,239956,A
Sprite,Foreground,Centre,"sb\lyrics\_000.png",0,0 F,0,2806,3106,0,1 MY,1,2806,3106,430,400 S,0,3106,,0.5 MX,0,3106,36394,110,145 F,0,36094,36394,1,0
Sprite,Foreground,Centre,"sb\lyrics\_001.png",0,0 F,0,37883,38183,0,1 MY,1,37883,38183,430,400 S,0,38183,,0.5 MX,0,38183,65702,110,145 F,0,65402,65702,1,0
Sprite,Foreground,Centre,"sb\lyrics\_000.png",0,0 F,0,65575,65875,0,1 MY,1,65575,65875,430,400 S,0,65875,,0.5 MX,0,65875,93625,110,145 F,0,93325,93625,1,0
Sprite,Foreground,Centre,"sb\lyrics\_001.png",0,0 F,0,95056,95356,0,1 MY,1,95056,95356,430,400 S,0,95356,,0.5 MX,0,95356,124548,110,145 F,0,124248,124548,1,0
Sprite,Foreground,Centre,"sb\lyrics\_000.png",0,0 F,0,124594,124894,0,1 MY,1,124594,124894,430,400 S,0,124894,,0.5 MX,0,124894,152702,110,145 F,0,152402,152702,1,0
Sprite,Foreground,Centre,"sb\lyrics\_001.png",0,0 F,0,154133,154433,0,1 MY,1,154133,154433,430,400 S,0,154433,,0.5 MX,0,154433,181779,110,145 F,0,181479,181779,1,0
Sprite,Foreground,Centre,"sb\lyrics\_000.png",0,0 F,0,183671,183971,0,1 MY,1,183671,183971,430,400 S,0,183971,,0.5 MX,0,183971,208087,110,145 F,0,207787,208087,1,0
Sprite,Foreground,Centre,"sb\lyrics\_001.png",0,0 F,0,209517,209817,0,1 MY,1,209517,209817,430,400 S,0,209817,,0.5 MX,0,209817,239010,110,145 F,0,238710,239010,1,0
Sprite,Foreground,Centre,"sb\lyrics\_000.png",0,0 F,0,239056,239356,0,1 MY,1,239056,239356,430,400 S,0,239356,,0.5 MX,0,239356,254240,110,145 F,0,253940,254240,1,0
//Storyboard Layer 4 (Overlay)
//Storyboard Sound Samples

[TimingPoints]
395,461.538461538462,4,2,1,5,1,0
395,-400,4,2,1,5,0,0
2241,-400,4,2,1,25,0,0
3048,-400,4,2,1,5,0,0
3164,461.538461538462,4,2,1,60,1,0
17010,-76.9230769230769,4,2,1,60,0,0
17471,-100,4,2,1,60,0,0
35471,-400,4,2,1,60,0,0
36164,-133.333333333333,4,2,1,65,0,0
36394,-100,4,2,1,65,0,0
37664,-83.3333333333333,4,2,1,65,0,0
38240,-90.9090909090909,4,2,1,70,0,0
51164,-200,4,2,1,65,0,0
52548,-200,4,2,1,70,0,0
52779,-100,4,2,1,70,0,0
53010,-90.9090909090909,4,2,1,70,0,0
65933,-71.4285714285714,4,2,1,70,0,0
71933,-90.9090909090909,4,2,1,70,0,0
72394,-71.4285714285714,4,2,1,70,0,0
77933,-62.5,4,2,1,70,0,0
79317,-50,4,2,1,70,0,0
79548,-100,4,2,1,70,0,0
80471,-80,4,2,1,70,0,0
80702,-66.6666666666667,4,2,1,80,0,1
82548,-50,4,2,1,80,0,1
83010,-66.6666666666667,4,2,1,80,0,1
86240,-50,4,2,1,80,0,1
86587,-100,4,2,1,80,0,1
88087,-66.6666666666667,4,2,1,80,0,1
93625,-55.5555555555556,4,2,1,80,0,1
93971,-50,4,2,1,80,0,1
95356,-50,4,2,1,80,0,0
95471,-66.6666666666667,4,2,1,80,0,1
101702,-50,4,2,1,80,0,1
102856,-66.6666666666667,4,2,1,80,0,1
110240,-200,4,2,1,70,0,0
111625,-133.333333333333,4,2,1,70,0,0
111856,-66.6666666666667,4,2,1,70,0,0
112087,-50,4,2,1,70,0,0
112433,-66.6666666666667,4,2,1,70,0,0
131702,-55.5555555555556,4,2,1,70,0,0
131933,-47.6190476190476,4,2,1,70,0,0
132394,-66.6666666666667,4,2,1,70,0,0
137702,-50,4,2,1,70,0,0
138625,-100,4,2,1,70,0,0
139779,-55.5555555555556,4,2,1,80,0,1
149933,-66.6666666666667,4,2,1,80,0,1
154433,-66.6666666666667,4,2,1,80,0,0
154548,-55.5555555555556,4,2,1,80,0,1
160087,-50,4,2,1,80,0,1
161933,-55.5555555555556,4,2,1,80,0,1
167471,-41.6666666666667,4,2,1,80,0,1
168394,-50,4,2,1,80,0,1
169202,-50,4,2,1,80,0,0
169317,-50,4,2,1,80,0,1
183971,-50,4,2,1,80,0,0
184087,-33.3333333333333,4,2,1,80,0,1
184317,-50,4,2,1,80,0,1
186394,-40,4,2,1,80,0,1
190664,-50,4,2,1,80,0,1
191471,-40,4,2,1,80,0,1
194010,-50,4,2,1,80,0,1
194240,-40,4,2,1,80,0,1
194471,-33.3333333333333,4,2,1,80,0,1
194702,-40,4,2,1,80,0,1
195164,-100,4,2,1,70,0,0
202087,-66.6666666666667,4,2,1,70,0,0
202548,-40,4,2,1,80,0,1
202894,-50,4,2,1,80,0,1
204856,-200,4,2,1,80,0,1
205317,-50,4,2,1,80,0,1
206356,-100,4,2,1,80,0,1
206817,-66.6666666666667,4,2,1,80,0,1
207279,-50,4,2,1,80,0,1
208087,-57.1428571428571,4,2,1,80,0,1
209933,-57.1428571428571,4,2,1,80,0,0
228510,-57.1428571428571,4,2,1,85,0,0
229548,-50,4,2,1,85,0,0
230240,-57.1428571428571,4,2,1,90,0,0
232087,-57.1428571428571,4,2,1,85,0,0
239471,-133.333333333333,4,2,1,70,0,0
240164,-133.333333333333,4,2,1,60,0,0
241317,-100,4,2,1,60,0,0
260702,-133.333333333333,4,2,1,25,0,0
261548,-133.333333333333,4,2,1,5,0,0
261625,-100,4,2,1,25,0,0
262087,-100,4,2,1,10,0,0
263010,-100,4,2,1,25,0,0
263471,-100,4,2,1,5,0,0

[Colours]
Combo1 : 255,157,206
Combo2 : 119,0,119
Combo3 : 242,113,193

[HitObjects]
256,192,510,12,0,1779,0:0:0:0:
84,210,2241,6,0,L|172:202,1,87.5,0|0,0:0|0:0,1:0:0:0:
353,252,3164,6,0,L|303:246,1,50,2|0,0:0|0:0,0:0:0:0:
216,220,3394,1,0,0:0:0:0:
171,213,3510,1,0,0:0:0:0:
146,246,3625,2,0,P|121:246|99:234,1,50,2|0,0:0|0:0,0:0:0:0:
101,139,3856,5,0,0:0:0:0:
92,128,3971,1,0,0:0:0:0:
56,103,4087,2,0,L|72:19,1,50,2|0,0:0|0:0,0:0:0:0:
160,27,4317,2,0,L|144:111,1,50
195,178,4548,1,2,0:0:0:0:
251,132,4664,1,0,0:0:0:0:
284,148,4779,1,2,0:0:0:0:
440,318,5010,5,0,0:0:0:0:
394,303,5125,1,0,0:0:0:0:
371,295,5240,1,2,0:0:0:0:
391,137,5471,1,0,0:0:0:0:
345,152,5586,1,0,0:0:0:0:
319,162,5701,1,2,0:0:0:0:
207,332,5933,5,0,0:0:0:0:
199,317,6048,1,0,0:0:0:0:
180,274,6164,1,2,0:0:0:0:
66,189,6394,1,0,0:0:0:0:
85,183,6510,1,0,0:0:0:0:
126,165,6625,1,2,0:0:0:0:
316,37,6856,6,0,B|332:114|281:102|298:182,1,150,6|0,1:2|3:0,0:0:0:0:
323,202,7317,1,2,0:0:0:0:
321,369,7548,2,0,P|249:346|228:315,1,100,0|2,1:0|0:0,0:0:0:0:
272,292,7894,1,0,0:0:0:0:
282,297,8010,1,2,0:0:0:0:
455,362,8240,2,0,L|314:338,1,100,2|2,3:2|0:0,0:0:0:0:
37,181,8702,6,0,B|116:174|95:222|184:213,2,150,0|0|2,1:0|3:0|1:2,0:0:0:0:
161,102,9625,1,0,0:0:0:0:
158,111,9740,1,0,0:0:0:0:
158,131,9856,2,0,P|236:118|282:132,1,100,2|0,0:0|3:0,0:0:0:0:
242,145,10202,2,0,L|344:135,1,100,0|0,3:0|0:0,0:0:0:0:
393,80,10548,5,2,1:2:0:0:
374,225,10779,1,0,0:0:0:0:
369,236,10894,1,0,3:0:0:0:
367,249,11010,1,2,0:0:0:0:
483,173,11240,1,0,1:0:0:0:
291,128,11471,5,2,0:0:0:0:
248,122,11587,1,0,0:0:0:0:
257,81,11702,1,2,0:0:0:0:
53,232,11933,1,2,3:2:0:0:
84,222,12048,1,0,0:0:0:0:
127,209,12164,1,2,0:0:0:0:
224,366,12394,6,0,P|222:299|233:231,1,100,0|2,1:0|3:2,0:0:0:0:
252,224,12740,2,0,B|259:252|259:252|249:296,1,50,0|0,3:0|0:0,0:0:0:0:
13,34,13087,2,0,P|27:66|138:61,1,150,2|0,1:2|0:0,0:0:0:0:
219,21,13548,2,0,L|212:71,1,50,2|0,0:0|0:0,0:0:0:0:
286,109,13779,2,0,L|288:146,6,25,0|0|0|0|6|0|0,3:0|0:0|3:0|0:0|0:0|0:0|0:0,0:0:0:0:
347,204,14240,6,0,B|462:211|462:211|495:258,1,150,6|0,1:2|3:0,0:0:0:0:
460,247,14702,1,2,0:0:0:0:
156,255,14933,2,0,L|36:263,1,100,0|2,1:0|0:0,0:0:0:0:
36,282,15279,5,0,0:0:0:0:
75,290,15394,1,2,0:0:0:0:
229,323,15625,1,2,3:2:0:0:
252,316,15740,1,0,0:0:0:0:
419,336,15971,1,2,0:0:0:0:
419,336,16087,2,0,P|411:318|408:217,1,100,0|2,1:0|3:2,0:0:0:0:
417,199,16433,5,0,3:0:0:0:
407,190,16548,1,0,0:0:0:0:
368,224,16664,2,0,L|314:160,1,50,2|2,0:0|1:2,0:0:0:0:
283,119,16894,1,2,0:0:0:0:
240,147,17010,2,0,B|215:105|215:105|179:139|179:139|149:90|149:90|110:121,1,194.999991073609,2|0,0:0|0:0,0:0:0:0:
81,90,17471,2,0,B|65:83|65:83|29:31,1,50,2|0,3:2|3:0,0:0:0:0:
0,251,17702,1,6,0:0:0:0:
384,253,17933,6,0,L|359:97,1,150,6|0,1:2|3:0,0:0:0:0:
334,74,18394,1,2,0:0:0:0:
512,18,18625,2,0,P|481:65|430:52,1,100,0|2,1:0|0:0,0:0:0:0:
415,42,18971,1,0,3:0:0:0:
422,30,19087,1,2,0:0:0:0:
265,102,19317,5,2,3:2:0:0:
258,90,19433,1,0,3:0:0:0:
243,61,19548,1,2,0:0:0:0:
268,232,19779,5,0,1:0:0:0:
126,147,20010,2,0,L|134:225,1,50,2|0,3:2|3:0,0:0:0:0:
62,218,20240,1,0,0:0:0:0:
218,319,20471,2,0,P|277:332|368:268,1,150,2|0,1:2|0:0,0:0:0:0:
410,240,20933,2,0,L|397:164,1,50,2|0,0:0|0:0,0:0:0:0:
314,127,21164,2,0,L|318:90,6,25,0|0|0|0|6|0|0,3:0|0:0|3:0|0:0|0:0|0:0|0:0,0:0:0:0:
244,36,21625,6,0,B|168:22|166:108|80:87,1,150,6|0,1:2|3:0,0:0:0:0:
49,48,22087,1,2,0:0:0:0:
314,127,22317,2,0,P|388:124|473:129,1,150,0|0,1:0|0:0,0:0:0:0:
442,151,22779,1,2,0:0:0:0:
265,215,23010,1,2,3:2:0:0:
249,197,23124,1,0,3:0:0:0:
249,197,23240,2,0,L|184:194,1,50,2|0,0:0|0:0,0:0:0:0:
16,260,23471,6,0,P|83:245|119:342,1,150,0|0,1:0|3:0,0:0:0:0:
85,361,23933,1,0,0:0:0:0:
258,321,24164,2,0,P|339:337|444:317,1,150,2|0,1:2|0:0,0:0:0:0:
359,307,24625,1,2,0:0:0:0:
500,382,24856,1,0,3:0:0:0:
492,351,24971,1,0,3:0:0:0:
479,296,25087,1,6,0:0:0:0:
304,202,25317,5,6,1:2:0:0:
438,141,25548,1,0,3:0:0:0:
469,165,25664,2,0,L|477:95,1,50,0|2,3:0|0:0,0:0:0:0:
389,30,25894,1,0,3:0:0:0:
342,39,26010,2,0,P|228:67|172:88,1,150,0|0,1:0|0:0,0:0:0:0:
212,30,26471,1,2,0:0:0:0:
13,115,26702,6,0,B|65:115|65:115|116:137,1,100,2|2,3:2|0:0,0:0:0:0:
107,159,27048,1,0,3:0:0:0:
158,139,27164,1,0,1:0:0:0:
193,160,27279,1,0,3:0:0:0:
213,151,27394,2,0,L|246:212,1,50,2|0,3:2|3:0,0:0:0:0:
57,291,27740,5,0,3:0:0:0:
18,319,27856,2,0,L|28:380,1,50,2|0,1:2|0:0,0:0:0:0:
393,237,28202,5,0,3:0:0:0:
323,211,28317,2,0,L|312:283,1,50,2|0,0:0|0:0,0:0:0:0:
251,299,28548,2,0,L|254:344,2,25,0|0|0,3:0|0:0|3:0,0:0:0:0:
288,329,28779,2,0,L|291:374,2,25,6|0|0,0:0|0:0|0:0,0:0:0:0:
172,372,29010,6,0,P|129:296|162:231,1,150,6|0,1:2|3:0,0:0:0:0:
209,202,29471,1,2,0:0:0:0:
83,58,29702,2,0,B|66:106|66:106|106:172,1,100,0|2,1:0|0:0,0:0:0:0:
146,150,30048,1,0,3:0:0:0:
189,114,30164,2,0,P|192:88|177:65,1,50,2|0,0:0|0:0,0:0:0:0:
268,9,30394,5,2,3:2:0:0:
333,70,30548,5,2,3:2:0:0:
403,28,30702,5,2,3:2:0:0:
458,81,30856,6,0,P|439:186|440:237,1,150,0|0,1:0|3:0,0:0:0:0:
489,283,31317,1,0,0:0:0:0:
238,240,31548,2,0,L|155:226,1,50,2|0,1:2|0:0,0:0:0:0:
121,265,31779,1,0,3:0:0:0:
82,240,31894,1,0,3:0:0:0:
37,251,32010,2,0,L|86:179,1,50,2|0,0:0|0:0,0:0:0:0:
136,86,32240,2,0,L|163:159,1,50,0|0,3:0|3:0,0:0:0:0:
7,58,32471,1,6,0:0:0:0:
429,79,32702,6,0,B|350:68|363:123|271:116,1,150,6|0,1:2|3:0,0:0:0:0:
215,86,33164,1,2,0:0:0:0:
58,205,33394,2,0,L|70:311,1,100,0|2,1:0|0:0,0:0:0:0:
54,316,33740,1,0,3:0:0:0:
50,335,33856,1,0,3:0:0:0:
268,299,34087,1,2,3:2:0:0:
308,310,34202,1,0,3:0:0:0:
332,316,34317,1,2,0:0:0:0:
168,84,34548,6,0,B|182:76|182:76|257:99,1,50,0|0,1:0|0:0,0:0:0:0:
273,130,34779,1,2,3:2:0:0:
327,119,34894,1,0,3:0:0:0:
353,134,35010,2,0,B|426:123|380:145|471:130,1,100,0|2,0:0|1:2,0:0:0:0:
141,270,35471,6,0,L|74:286,1,62.5,0|0,0:0|3:0,1:0:0:0:
65,302,36164,6,0,L|60:341,1,37.5000014305115,6|0,1:2|0:0,0:0:0:0:
247,281,36394,2,0,L|257:350,1,50,4|0,1:2|0:0,0:0:0:0:
181,251,36856,5,2,0:0:0:0:
238,156,37087,2,0,L|245:208,1,50,2|0,0:0|0:0,0:0:0:0:
56,140,37317,1,2,0:0:0:0:
56,140,37433,2,0,L|46:209,1,50,2|0,0:0|0:0,0:0:0:0:
17,196,37664,2,0,P|50:138|5:93,1,119.999996337891,2|0,0:0|0:0,0:0:0:0:
31,83,38010,1,2,0:0:0:0:
24,66,38125,1,0,0:0:0:0:
32,51,38240,6,0,P|101:72|116:77,1,55.0000016784668,6|0,1:2|0:0,0:0:0:0:
185,51,38471,1,0,3:0:0:0:
152,92,38587,2,0,P|221:113|236:118,1,55.0000016784668,2|0,3:2|1:0,0:0:0:0:
274,85,38817,1,0,3:0:0:0:
280,100,38933,1,2,3:2:0:0:
329,98,39048,1,0,3:0:0:0:
378,93,39164,2,0,P|309:114|294:119,1,55.0000016784668,2|0,1:2|0:0,0:0:0:0:
461,146,39394,2,0,P|392:167|377:172,1,55.0000016784668,0|0,3:0|0:0,0:0:0:0:
490,8,39625,1,0,1:0:0:0:
482,56,39740,1,0,3:0:0:0:
475,105,39856,1,2,3:2:0:0:
461,146,39971,2,0,P|392:167|377:172,1,55.0000016784668,0|6,3:0|1:2,0:0:0:0:
265,283,40317,5,2,0:0:0:0:
287,238,40433,1,0,3:0:0:0:
331,260,40548,2,0,P|357:251|383:244,2,55.0000016784668,2|0|2,1:2|0:0|0:2,0:0:0:0:
229,346,40894,2,0,P|202:353|117:381,1,110.000003356934,2|0,3:2|3:0,0:0:0:0:
53,351,41240,1,0,3:0:0:0:
117,304,41356,1,0,3:0:0:0:
106,296,41471,1,0,1:0:0:0:
26,222,41702,1,2,3:2:0:0:
175,151,41933,5,2,1:2:0:0:
221,166,42048,1,0,3:0:0:0:
268,182,42164,1,2,0:2:0:0:
317,177,42279,2,0,P|323:142|322:110,1,55.0000016784668,0|2,3:2|1:2,0:0:0:0:
261,229,42510,1,0,3:0:0:0:
311,284,42625,2,0,P|310:207|310:135,1,110.000003356934,2|0,0:2|1:2,0:0:0:0:
394,224,42971,1,0,3:0:0:0:
415,243,43087,1,0,3:2:0:0:
452,228,43202,1,0,3:0:0:0:
475,252,43317,1,0,1:2:0:0:
390,324,43548,1,2,3:2:0:0:
385,100,43779,6,0,P|460:89|502:79,1,110.000003356934,6|0,1:2|0:2,0:0:0:0:
127,284,44240,2,0,P|52:295|10:305,1,110.000003356934,2|0,1:2|0:2,0:0:0:0:
305,241,44702,5,2,1:2:0:0:
189,147,44933,1,2,3:2:0:0:
305,135,45164,1,2,1:2:0:0:
201,254,45394,1,2,3:2:0:0:
127,100,45625,6,0,P|52:89|10:79,1,110.000003356934,6|0,1:2|0:2,0:0:0:0:
385,284,46087,2,0,P|460:295|502:305,1,110.000003356934,2|0,1:2|0:2,0:0:0:0:
385,89,46548,5,6,1:2:0:0:
136,320,46779,1,0,3:2:0:0:
98,288,46894,1,0,3:0:0:0:
146,276,47010,1,4,1:2:0:0:
250,363,47240,1,2,3:2:0:0:
297,349,47356,1,0,3:2:0:0:
291,300,47471,6,0,P|301:245|301:222,1,55.0000016784668,6|0,1:2|0:0,0:0:0:0:
228,345,47702,2,0,P|218:290|218:267,1,55.0000016784668,2|0,0:2|3:2,0:0:0:0:
377,246,47933,2,0,P|387:191|387:168,1,55.0000016784668,2|0,1:2|0:0,0:0:0:0:
145,303,48164,2,0,P|135:248|135:225,1,55.0000016784668,2|0,0:2|0:2,0:0:0:0:
310,112,48394,1,2,1:2:0:0:
310,112,48510,2,0,P|313:139|319:165,1,55.0000016784668,2|0,3:2|3:2,0:0:0:0:
186,197,48740,1,2,3:2:0:0:
186,197,48856,2,0,P|192:170|195:143,1,55.0000016784668,0|0,1:2|3:2,0:0:0:0:
238,77,49087,2,0,P|231:50|228:23,1,55.0000016784668,2|0,3:2|3:2,0:0:0:0:
81,121,49317,6,0,P|75:197|73:266,1,110.000003356934,6|0,1:2|0:2,0:0:0:0:
184,335,49664,6,0,P|181:280|176:225,1,110.000003356934,2|0,1:2|0:0,0:0:0:0:
334,102,50010,6,0,P|329:156|329:195,1,55.0000016784668,2|0,1:2|0:2,0:0:0:0:
493,212,50240,5,2,1:2:0:0:
493,212,50356,1,0,3:0:0:0:
493,212,50471,1,0,3:2:0:0:
493,212,50587,1,0,3:0:0:0:
433,259,50702,5,0,1:2:0:0:
433,259,50818,1,0,3:2:0:0:
433,259,50933,1,0,1:2:0:0:
433,259,51049,1,0,3:2:0:0:
352,216,51164,6,0,P|342:283|335:336,1,100,4|10,1:2|0:0,0:0:0:0:
391,370,51856,1,0,1:2:0:0:
441,311,52087,1,2,3:2:0:0:
441,311,52202,1,2,3:2:0:0:
277,360,52433,1,2,3:0:0:0:
277,360,52548,1,0,1:2:0:0:
321,239,52779,2,0,P|315:200|313:179,1,50,2|0,1:2|3:2,0:0:0:0:
238,159,53010,5,6,1:2:0:0:
202,124,53125,1,0,0:0:0:0:
244,98,53240,1,0,0:2:0:0:
221,134,53356,2,0,P|223:158|231:189,1,55.0000016784668,2|0,3:2|1:2,0:0:0:0:
320,98,53587,1,0,3:0:0:0:
358,66,53702,2,0,P|355:90|347:123,1,55.0000016784668,2|0,0:2|0:2,0:0:0:0:
128,19,53933,2,0,P|142:85|155:147,1,110.000003356934,2|0,1:2|3:2,0:0:0:0:
92,177,54279,1,0,3:0:0:0:
70,221,54394,1,0,1:2:0:0:
100,260,54510,1,0,3:2:0:0:
129,299,54625,1,2,3:2:0:0:
158,338,54740,1,0,3:2:0:0:
157,320,54856,6,0,P|201:300|229:294,1,55.0000016784668,6|0,1:2|0:0,0:0:0:0:
83,288,55087,2,0,P|78:336|69:363,1,55.0000016784668,2|0,0:2|3:2,0:0:0:0:
152,239,55317,2,0,P|112:210|93:189,1,55.0000016784668,2|0,1:2|0:0,0:0:0:0:
260,183,55548,5,2,0:2:0:0:
304,245,55664,2,0,P|351:197|398:145,1,110.000003356934,2|0,3:2|3:0,0:0:0:0:
391,93,56010,1,0,3:2:0:0:
431,103,56125,1,0,3:0:0:0:
424,54,56240,1,0,1:2:0:0:
449,214,56471,1,2,3:2:0:0:
265,122,56702,5,6,1:2:0:0:
240,79,56817,1,0,3:0:0:0:
287,92,56933,2,0,P|240:103|212:106,1,55.0000016784668,2|0,0:2|3:2,0:0:0:0:
262,253,57164,2,0,P|275:206|287:181,1,55.0000016784668,2|0,1:2|0:0,0:0:0:0:
91,138,57394,1,2,0:2:0:0:
140,134,57510,2,0,P|173:169|189:191,1,55.0000016784668,2|0,3:2|1:2,0:0:0:0:
175,265,57740,5,0,3:0:0:0:
209,300,57856,2,0,P|226:278|246:259,1,55.0000016784668,0|0,3:2|0:0,0:0:0:0:
324,318,58087,1,0,1:2:0:0:
371,303,58202,1,0,3:2:0:0:
390,348,58317,1,2,3:2:0:0:
439,345,58433,1,0,3:2:0:0:
470,382,58548,6,0,P|397:369|232:353,1,220.000006713867,6|2,1:2|1:2,0:0:0:0:
186,309,59125,1,0,3:0:0:0:
256,332,59240,2,0,P|255:287|253:269,1,55.0000016784668,0|0,0:2|0:2,0:0:0:0:
34,300,59471,2,0,P|96:293|174:284,2,110.000003356934,2|2|2,1:2|3:2|1:2,0:0:0:0:
118,215,60048,1,0,3:2:0:0:
162,237,60164,1,2,3:2:0:0:
210,227,60279,1,0,3:2:0:0:
225,244,60394,6,0,P|298:231|463:215,1,220.000006713867,6|2,1:2|1:2,0:0:0:0:
401,155,60971,1,0,3:0:0:0:
443,215,61087,2,0,P|485:218|521:215,1,55.0000016784668,0|0,0:2|0:2,0:0:0:0:
217,163,61317,2,0,P|175:165|139:162,2,55.0000016784668,6|0|0,1:2|0:0|3:2,0:0:0:0:
266,107,61664,1,0,3:0:0:0:
194,85,61779,2,0,P|213:47|233:17,1,55.0000016784668,2|0,1:2|3:2,0:0:0:0:
294,178,62010,2,0,P|316:213|332:246,1,55.0000016784668,2|0,3:2|3:2,0:0:0:0:
46,351,62240,5,6,1:2:0:0:
72,342,62355,1,0,3:0:0:0:
98,335,62470,1,2,0:2:0:0:
125,329,62586,1,0,3:2:0:0:
152,325,62701,1,2,1:2:0:0:
180,323,62816,1,0,3:0:0:0:
207,322,62932,1,2,0:2:0:0:
235,323,63047,1,0,3:2:0:0:
126,303,63164,5,2,1:2:0:0:
153,301,63279,1,2,3:2:0:0:
180,301,63394,1,0,3:2:0:0:
208,303,63510,1,2,3:2:0:0:
235,306,63625,1,0,1:2:0:0:
262,311,63740,1,0,3:2:0:0:
289,317,63856,1,2,3:2:0:0:
315,325,63971,1,0,3:2:0:0:
183,259,64087,5,6,1:2:0:0:
209,264,64202,1,0,3:0:0:0:
236,271,64317,1,0,0:2:0:0:
262,280,64433,1,2,3:2:0:0:
198,173,64548,5,4,1:2:0:0:
218,190,64664,1,0,3:0:0:0:
238,209,64779,1,2,0:2:0:0:
257,230,64894,1,0,3:2:0:0:
247,85,65010,5,6,1:2:0:0:
261,106,65125,1,0,3:0:0:0:
276,130,65241,1,0,3:2:0:0:
289,155,65356,1,0,3:0:0:0:
325,0,65471,5,4,1:2:0:0:
333,23,65586,1,0,3:2:0:0:
341,50,65702,1,0,3:2:0:0:
347,78,65817,1,0,3:2:0:0:
445,30,65933,6,0,B|431:56|431:56|458:72|458:72|442:99|442:99|446:148|425:162|431:245,1,209.999993591309,6|0,1:2|3:2,0:0:0:0:
468,238,66394,1,0,1:2:0:0:
508,174,66510,1,0,3:0:0:0:
321,249,66740,1,0,3:2:0:0:
352,294,66856,2,0,B|386:289|386:289|455:319,1,69.9999978637696,0|0,1:2|0:0,0:0:0:0:
276,360,67087,5,2,3:2:0:0:
242,325,67202,1,0,3:0:0:0:
192,337,67317,2,0,L|270:373,2,69.9999978637696,2|0|0,1:2|3:2|3:2,0:0:0:0:
133,314,67664,1,2,3:2:0:0:
133,314,67779,2,0,B|-9:352|-9:352|50:384,1,209.999993591309,2|0,1:2|3:2,0:0:0:0:
25,292,68240,6,0,P|44:257|12:199,1,69.9999978637696,2|0,1:2|0:0,0:0:0:0:
201,293,68471,1,0,3:2:0:0:
242,325,68587,1,0,3:2:0:0:
291,328,68702,2,0,P|310:293|280:241,1,69.9999978637696,2|0,1:2|0:0,0:0:0:0:
465,275,68933,2,0,P|471:292|469:269,1,69.9999978637696,2|0,3:2|0:0,0:0:0:0:
201,293,69164,2,0,P|196:258|214:229,1,69.9999978637696,2|0,1:2|3:2,0:0:0:0:
377,146,69394,5,2,3:2:0:0:
357,100,69510,1,2,3:2:0:0:
413,112,69625,2,0,B|445:216|350:214|393:337,1,209.999993591309,4|0,1:2|3:2,0:0:0:0:
426,338,70087,2,0,P|433:319|427:268,1,69.9999978637696,0|0,1:2|0:0,0:0:0:0:
171,204,70317,5,2,3:2:0:0:
142,241,70433,1,0,3:2:0:0:
179,286,70548,1,2,1:2:0:0:
344,208,70779,5,2,3:2:0:0:
208,91,71010,6,0,B|172:113|150:81|93:73,1,69.9999978637696,2|0,1:2|3:2,0:0:0:0:
264,194,71240,5,2,3:2:0:0:
264,194,71356,2,2,L|256:243,6,34.9999989318848,2|0|4|0|0|0|0,3:2|0:0|1:2|0:0|0:0|0:0|0:2,0:1:0:0:
320,306,71933,6,0,P|369:292|429:303,1,110.000003356934,2|2,1:2|0:2,0:0:0:0:
415,321,72279,1,0,3:2:0:0:
347,281,72394,2,0,L|349:183,1,69.9999978637696,2|0,1:2|0:0,0:0:0:0:
173,300,72625,2,0,L|171:398,1,69.9999978637696,2|0,1:2|0:0,0:0:0:0:
278,167,72856,2,0,L|280:69,1,69.9999978637696,2|0,1:2|3:2,0:0:0:0:
254,256,73087,5,2,3:2:0:0:
254,256,73202,1,2,3:2:0:0:
184,221,73317,2,0,P|126:298|6:282,1,209.999993591309,4|0,1:2|3:2,0:0:0:0:
40,217,73779,1,0,1:2:0:0:
208,357,74010,2,0,B|282:341|283:376|353:378,1,139.999995727539,2|0,3:2|1:2,0:0:0:0:
455,201,74471,5,2,3:2:0:0:
438,251,74587,1,0,3:0:0:0:
367,232,74702,1,2,1:2:0:0:
123,123,74933,5,2,3:2:0:0:
195,141,75048,1,0,3:2:0:0:
251,161,75164,2,0,P|140:156|18:207,1,209.999993591309,4|0,1:2|3:2,0:0:0:0:
52,192,75625,6,0,B|37:229|37:229|64:278,1,69.9999978637696,0|0,1:2|3:0,0:0:0:0:
125,244,75856,1,0,3:2:0:0:
179,246,75972,1,0,3:2:0:0:
152,291,76087,1,0,1:2:0:0:
455,343,76317,6,0,P|379:354|318:305,1,139.999995727539,2|0,3:2|1:0,0:0:0:0:
270,104,76779,1,2,3:2:0:0:
270,104,76894,1,0,3:2:0:0:
249,50,77010,6,0,L|145:83,1,69.9999978637696,4|0,1:2|0:0,0:0:0:0:
396,144,77240,1,0,0:2:0:0:
439,180,77356,1,0,3:2:0:0:
481,166,77471,6,0,L|454:265,1,69.9999978637696,0|0,1:2|0:0,0:0:0:0:
202,159,77702,1,0,3:2:0:0:
156,185,77817,1,0,3:2:0:0:
88,163,77933,6,0,B|100:211|198:236,1,80,2|0,1:2|0:0,0:0:0:0:
362,373,78164,6,0,B|376:355|376:355|368:306|312:284,1,80,2|0,3:2|0:0,0:0:0:0:
271,211,78394,5,2,1:2:0:0:
342,45,78625,6,0,B|323:81|379:82,6,40,6|0|0|0|0|0|0,1:2|0:0|0:0|0:0|0:0|0:0|3:0,0:0:0:0:
237,91,79087,6,0,B|211:77|227:91|180:22,1,80,4|0,1:2|0:0,0:0:0:0:
426,161,79317,6,0,B|452:181|434:156|471:278,1,100,4|0,1:2|0:0,0:0:0:0:
14,202,79548,5,2,0:0:0:0:
175,258,79779,5,2,0:0:0:0:
74,264,80010,6,0,P|75:296|97:331,1,50,2|0,1:2|0:0,0:0:0:0:
343,94,80240,5,2,0:0:0:0:
206,146,80471,6,0,P|226:166|263:169,1,62.5,2|0,1:2|0:0,0:0:0:0:
481,139,80702,6,0,L|492:222,1,75.0000028610231,6|0,1:2|0:0,0:0:0:0:
436,282,80933,1,2,3:2:0:0:
436,282,81048,2,0,P|347:272|327:212,1,150.000005722046,2|0,3:2|0:0,0:0:0:0:
474,80,81394,6,0,L|448:181,1,75.0000028610231,2|0,3:2|0:0,0:0:0:0:
353,186,81625,2,0,B|249:173|309:215|197:200,1,150.000005722046,2|2,1:2|3:2,0:0:0:0:
171,363,81971,6,0,B|43:302|160:189|160:189,1,150.000005722046,2|0,0:0|3:0,0:0:0:0:
216,307,82317,6,0,P|210:330|177:337,1,37.5000014305115,2|0,3:2|0:0,0:0:0:0:
273,296,82433,2,0,P|275:319|249:347,1,37.5000014305115,2|0,3:2|0:0,0:0:0:0:
274,358,82548,2,0,P|442:289|422:205,1,300,4|0,1:2|3:2,0:0:0:0:
341,200,83010,6,0,P|306:209|270:173,1,75.0000028610231,2|0,1:2|0:0,0:0:0:0:
168,216,83240,1,2,3:2:0:0:
81,147,83356,2,0,B|46:165|46:165|36:227|89:259,1,150.000005722046,2|0,0:0|0:0,0:0:0:0:
86,332,83702,6,0,P|50:322|23:298,1,75.0000028610231,2|0,3:2|0:0,0:0:0:0:
175,253,83933,6,0,P|155:221|144:186,1,75.0000028610231,2|0,1:2|3:0,0:0:0:0:
301,250,84164,6,0,P|281:178|271:104,2,150.000005722046,2|6|0,3:2|1:2|3:0,0:0:0:0:
384,382,84856,6,0,P|414:350|398:306,1,75.0000028610231,2|0,1:2|0:0,0:0:0:0:
283,281,85087,1,2,3:2:0:0:
332,333,85202,2,0,P|440:339|542:341,1,150.000005722046,2|0,3:2|0:0,0:0:0:0:
435,263,85548,2,0,B|473:270|473:270|522:242,1,75.0000028610231,2|0,3:2|0:0,0:0:0:0:
284,242,85779,6,0,L|251:349,1,75.0000028610231,2|0,1:2|3:2,0:0:0:0:
173,317,86010,1,2,3:2:0:0:
200,371,86125,1,0,3:2:0:0:
200,371,86240,2,0,B|148:363|148:363|57:409,1,100,6|0,1:2|0:0,0:0:0:0:
24,242,86471,5,2,3:2:0:0:
24,242,86587,2,0,P|92:260|153:234,1,100,2|0,3:2|0:0,0:0:0:0:
150,188,86933,2,0,L|142:148,2,25,2|0|0,3:1|0:0|0:2,0:0:0:0:
467,208,87163,6,0,L|418:200,1,50,0|0,1:2|0:0,0:0:0:0:
212,233,87394,2,0,L|261:225,1,50,2|0,3:2|0:0,0:0:0:0:
381,120,87625,1,2,1:2:0:0:
308,99,87740,1,2,3:2:0:0:
384,88,87856,1,2,3:2:0:0:
362,57,87971,1,2,3:2:0:0:
433,34,88087,6,0,P|376:103|198:80,1,225.000008583069,6|0,1:2|3:2,0:0:0:0:
192,66,88548,2,0,B|143:57|143:57|108:88,1,75.0000028610231,2|0,1:2|0:0,0:0:0:0:
11,196,88779,1,2,3:2:0:0:
83,214,88894,2,0,B|147:194|189:253|189:253|247:278|312:221,1,225.000008583069,2|0,3:2|3:2,0:0:0:0:
366,245,89356,1,0,3:0:0:0:
428,199,89471,2,0,B|496:167|546:261|482:293,1,150.000005722046,0|2,1:2|3:2,0:0:0:0:
277,30,89933,6,0,B|393:143|37:-66|237:77,1,225.000008583069,6|0,1:2|3:2,0:0:0:0:
231,145,90394,6,0,B|208:180|225:183|174:247,1,75.0000028610231,2|0,1:2|0:0,0:0:0:0:
279,136,90625,2,0,B|301:170|318:153|343:204,1,75.0000028610231,2|0,3:2|0:2,0:0:0:0:
290,247,90856,2,0,B|337:266|213:247|268:270,1,75.0000028610231,2|0,1:2|0:0,0:0:0:0:
132,327,91087,5,2,3:2:0:0:
132,327,91202,1,2,3:2:0:0:
71,304,91317,1,4,1:2:0:0:
251,355,91548,5,2,3:2:0:0:
317,331,91664,1,0,3:2:0:0:
357,364,91779,2,0,L|471:390,1,75.0000028610231,6|0,1:2|0:0,0:0:0:0:
266,210,92010,1,0,3:2:0:0:
223,272,92125,5,0,3:2:0:0:
223,272,92240,2,0,L|161:192,1,75.0000028610231,4|0,1:2|0:0,0:0:0:0:
53,20,92471,1,2,3:2:0:0:
27,93,92587,5,2,3:2:0:0:
27,93,92702,2,0,L|115:110,1,75.0000028610231,4|0,1:2|0:0,0:0:0:0:
321,33,92933,6,0,L|237:56,1,75.0000028610231,0|0,3:2|0:0,0:0:0:0:
398,170,93164,6,0,B|396:208|396:208|433:267,1,75.0000028610231,4|0,1:2|3:2,0:0:0:0:
156,314,93394,2,0,B|152:357|152:357|191:411,1,75.0000028610231,0|0,1:2|3:2,0:0:0:0:
457,271,93625,6,0,P|379:257|317:281,1,134.999995880127,4|0,1:2|0:0,0:0:0:0:
306,283,93856,6,0,L|302:336,1,44.999998626709,8|0,3:2|0:0,0:0:0:0:
261,262,93971,2,0,L|258:318,1,50,8|0,3:2|0:0,0:0:0:0:
183,301,94087,5,0,1:2:0:0:
345,49,94317,5,2,3:2:0:0:
337,207,94548,6,0,L|441:154,1,100,6|0,1:2|0:0,0:0:0:0:
229,25,94779,6,0,L|139:70,2,100,6|0|6,1:2|0:0|1:2,0:0:0:0:
274,117,95125,5,0,3:2:0:0:
202,148,95240,2,0,L|247:237,1,100,6|0,1:2|3:2,0:0:0:0:
364,113,95471,6,0,L|321:36,1,75.0000028610231,6|0,1:2|0:0,0:0:0:0:
418,59,95702,1,2,3:2:0:0:
491,88,95817,2,0,P|514:105|473:203,1,150.000005722046,2|0,3:2|0:0,0:0:0:0:
356,209,96164,5,2,3:2:0:0:
460,288,96279,1,0,3:2:0:0:
402,332,96394,2,0,P|418:247|420:234,1,75.0000028610231,2|0,1:2|0:0,0:0:0:0:
321,298,96625,1,2,3:2:0:0:
281,364,96740,2,0,P|265:279|263:266,1,75.0000028610231,2|0,3:2|1:2,0:0:0:0:
194,268,96971,1,0,3:2:0:0:
208,241,97087,1,2,3:2:0:0:
146,196,97202,1,2,3:2:0:0:
198,103,97317,5,4,1:2:0:0:
137,67,97433,1,0,3:0:0:0:
162,40,97548,1,0,3:2:0:0:
151,10,97664,1,0,3:2:0:0:
171,10,97779,2,0,P|143:75|137:97,1,75.0000028610231,2|0,1:2|0:0,0:0:0:0:
321,139,98010,2,0,P|278:82|262:66,1,75.0000028610231,2|2,3:2|0:2,0:0:0:0:
111,204,98240,2,0,P|181:195|203:189,1,75.0000028610231,0|0,1:2|0:0,0:0:0:0:
18,140,98471,5,2,3:2:0:0:
92,130,98587,1,0,3:0:0:0:
111,204,98702,2,0,P|74:210|36:213,1,75.0000028610231,2|0,1:2|3:2,0:0:0:0:
259,237,98933,2,0,P|271:201|288:168,1,75.0000028610231,2|0,1:2|3:2,0:0:0:0:
172,319,99164,2,0,P|196:347|217:378,1,75.0000028610231,6|0,1:2|0:0,0:0:0:0:
111,377,99394,5,0,3:2:0:0:
83,308,99510,1,0,3:2:0:0:
160,303,99625,1,2,1:2:0:0:
379,232,99856,1,2,3:2:0:0:
407,163,99971,1,2,3:2:0:0:
330,158,100087,1,2,1:0:0:0:
74,132,100317,1,2,3:2:0:0:
46,63,100433,1,0,3:0:0:0:
123,58,100548,1,2,1:2:0:0:
151,128,100664,1,0,3:2:0:0:
152,143,100779,2,0,L|213:99,1,75.0000028610231,2|0,3:2|3:2,0:0:0:0:
360,241,101010,6,0,L|299:285,1,75.0000028610231,6|0,1:2|0:0,0:0:0:0:
299,284,101356,1,2,1:2:0:0:
299,285,101471,2,0,L|360:241,1,75.0000028610231,0|0,1:2|0:0,0:0:0:0:
69,221,101702,6,0,L|-2:123,1,100,6|0,1:2|0:2,0:0:0:0:
54,84,101933,1,0,3:2:0:0:
54,84,102048,1,0,3:0:0:0:
54,84,102164,1,0,1:2:0:0:
365,153,102394,1,2,1:2:0:0:
384,153,102510,1,0,3:2:0:0:
341,87,102625,1,2,1:2:0:0:
358,84,102740,1,0,3:2:0:0:
270,145,102856,6,0,L|257:242,1,75.0000028610231,6|0,1:2|0:0,0:0:0:0:
200,93,103087,1,2,3:2:0:0:
200,93,103202,2,0,L|137:34,1,75.0000028610231,2|0,3:2|1:2,0:0:0:0:
266,63,103433,1,0,3:0:0:0:
266,63,103548,2,0,L|343:21,1,75.0000028610231,0|0,3:2|0:2,0:0:0:0:
234,169,103779,1,0,1:2:0:0:
234,169,103894,2,0,L|231:256,1,75.0000028610231,0|2,3:0|3:2,0:0:0:0:
189,310,104125,1,0,3:0:0:0:
258,335,104240,1,2,1:2:0:0:
217,359,104356,1,0,3:2:0:0:
222,342,104471,2,0,L|209:252,1,75.0000028610231,2|0,3:2|3:2,0:0:0:0:
389,169,104702,6,0,L|352:340,1,150.000005722046,4|0,1:2|3:2,0:0:0:0:
101,339,105164,2,0,L|69:192,1,150.000005722046,2|0,1:2|3:2,0:0:0:0:
53,122,105510,1,0,3:2:0:0:
21,12,105625,1,6,1:2:0:0:
145,142,105856,1,0,3:2:0:0:
399,34,106087,1,0,1:2:0:0:
433,21,106202,1,0,3:2:0:0:
493,68,106317,1,2,3:2:0:0:
464,138,106433,1,0,3:2:0:0:
400,124,106548,5,6,1:2:0:0:
299,97,106664,5,0,3:0:0:0:
178,60,106779,5,0,3:2:0:0:
85,26,106894,5,0,3:2:0:0:
72,69,107010,2,0,B|39:69|39:33|81:19,1,75.0000028610231,2|0,1:2|3:2,0:0:0:0:
81,19,107240,2,0,B|122:33|122:69|63:75,1,75.0000028610231,2|0,3:2|3:2,0:0:0:0:
143,128,107471,5,2,1:2:0:0:
185,210,107587,5,0,3:0:0:0:
222,307,107702,5,0,3:2:0:0:
251,380,107817,5,0,3:0:0:0:
280,358,107933,2,0,B|247:358|247:322|288:307,1,75.0000028610231,2|0,1:2|3:2,0:0:0:0:
313,334,108163,2,0,B|354:348|354:384|295:390,1,75.0000028610231,2|0,1:2|3:2,0:0:0:0:
372,264,108394,5,6,1:2:0:0:
417,191,108510,5,0,3:0:0:0:
462,97,108625,5,0,3:2:0:0:
481,2,108740,5,0,3:2:0:0:
404,46,108856,5,6,1:2:0:0:
433,117,108971,5,0,3:0:0:0:
506,88,109087,1,0,3:2:0:0:
471,76,109202,1,0,3:2:0:0:
494,162,109317,5,6,1:2:0:0:
509,170,109433,1,0,3:0:0:0:
512,160,109548,1,6,1:2:0:0:
498,157,109664,1,0,3:0:0:0:
429,203,109779,5,6,1:2:0:0:
358,233,109894,1,0,3:2:0:0:
386,314,110010,5,6,1:2:0:0:
441,305,110125,1,0,3:2:0:0:
453,279,110240,6,0,L|474:382,1,100,6|2,1:2|0:0,0:0:0:0:
336,322,110933,1,2,1:2:0:0:
265,301,111164,1,2,3:2:0:0:
265,301,111279,1,2,3:2:0:0:
192,279,111510,1,2,3:2:0:0:
192,279,111625,6,0,P|174:256|167:226,1,37.5000014305115,0|0,1:0|0:0,0:0:0:0:
216,109,111856,6,0,P|252:147|261:167,1,75.0000028610231,2|0,1:2|0:0,0:0:0:0:
86,154,112087,6,0,P|112:65|211:79,1,200,2|0,1:2|0:0,0:0:0:0:
273,33,112433,1,2,3:2:0:0:
292,57,112548,2,0,P|334:78|352:106,1,75.0000028610231,4|0,1:2|0:0,0:0:0:0:
417,142,112779,2,0,P|429:202|419:233,1,75.0000028610231,2|0,0:2|0:0,0:0:0:0:
340,352,113010,2,0,P|421:305|448:253,1,150.000005722046,2|2,1:2|3:2,0:0:0:0:
430,217,113356,1,0,3:0:0:0:
506,199,113471,1,0,1:2:0:0:
495,174,113587,1,0,3:2:0:0:
512,178,113702,2,0,P|484:215|477:253,1,75.0000028610231,2|0,3:2|3:2,0:0:0:0:
278,285,113933,6,0,P|261:194|205:167,1,150.000005722046,6|2,1:2|0:0,0:0:0:0:
204,296,114279,1,0,3:2:0:0:
256,356,114394,2,0,P|299:365|331:356,1,75.0000028610231,2|0,1:2|0:0,0:0:0:0:
169,363,114625,2,0,P|128:322|116:280,1,75.0000028610231,2|2,0:0|0:0,0:0:0:0:
277,280,114856,2,0,P|284:190|296:99,1,150.000005722046,0|0,1:2|3:0,0:0:0:0:
262,72,115202,1,0,3:0:0:0:
329,69,115317,1,0,1:0:0:0:
326,31,115433,1,0,3:0:0:0:
334,19,115548,2,0,P|345:63|363:113,1,75.0000028610231,2|0,3:2|3:0,0:0:0:0:
163,17,115779,6,0,P|136:103|105:177,1,150.000005722046,6|2,1:2|0:0,0:0:0:0:
44,188,116125,1,0,3:2:0:0:
104,145,116240,1,2,1:2:0:0:
145,246,116356,1,0,3:0:0:0:
106,310,116471,2,0,P|102:262|95:221,1,75.0000028610231,2|2,0:0|0:0,0:0:0:0:
266,66,116702,6,0,L|254:157,3,75.0000028610231,0|0|0|0,1:2|0:0|3:0|0:0,0:0:0:0:
257,221,117164,2,0,L|269:312,3,75.0000028610231,0|0|2|0,1:0|3:0|3:2|3:0,0:0:0:0:
376,356,117625,5,6,1:2:0:0:
480,314,118087,1,2,1:2:0:0:
454,291,118317,1,0,0:0:0:0:
493,243,118548,1,2,1:2:0:0:
487,231,118664,1,0,3:0:0:0:
502,177,118779,1,2,3:2:0:0:
468,105,118894,1,0,3:0:0:0:
498,29,119010,1,2,1:2:0:0:
504,103,119125,1,0,3:0:0:0:
460,175,119240,1,2,3:2:0:0:
511,255,119356,1,0,3:0:0:0:
491,333,119471,1,6,1:2:0:0:
259,191,119933,1,2,1:2:0:0:
11,371,120394,1,6,1:2:0:0:
30,366,120510,1,0,3:0:0:0:
17,343,120625,1,0,3:0:0:0:
52,309,120740,1,0,3:0:0:0:
18,251,120856,1,0,1:0:0:0:
104,215,120971,1,0,3:0:0:0:
60,142,121087,1,0,3:2:0:0:
146,92,121202,1,0,3:0:0:0:
98,13,121317,6,0,P|67:37|20:73,1,75.0000028610231,6|0,1:2|0:0,0:0:0:0:
215,146,121548,6,0,P|184:218|176:245,1,75.0000028610231,2|0,0:0|3:2,0:0:0:0:
344,225,121779,6,0,P|362:292|366:319,1,75.0000028610231,2|0,1:2|0:0,0:0:0:0:
422,94,122010,6,0,P|461:130|494:157,1,75.0000028610231,2|0,0:0|0:0,0:0:0:0:
263,43,122240,5,2,1:2:0:0:
304,106,122356,2,0,P|289:169|278:195,1,75.0000028610231,2|0,3:2|3:0,0:0:0:0:
451,268,122587,5,2,3:2:0:0:
333,280,122702,2,0,P|340:317|352:353,1,75.0000028610231,0|0,1:0|3:0,0:0:0:0:
146,200,122933,6,0,P|139:236|127:272,1,75.0000028610231,2|0,3:2|3:0,0:0:0:0:
313,64,123164,5,6,1:2:0:0:
381,104,123279,1,0,3:0:0:0:
314,138,123394,2,0,P|307:174|295:210,1,75.0000028610231,0|2,0:0|3:2,0:0:0:0:
77,154,123625,5,12,1:2:0:0:
1,202,123740,1,0,3:0:0:0:
82,241,123855,2,0,P|88:277|100:313,1,75.0000028610231,2|0,1:2|0:0,0:0:0:0:
325,363,124087,5,14,1:2:0:0:
241,313,124202,1,0,3:0:0:0:
302,310,124317,2,0,P|295:346|283:382,1,75.0000028610231,0|0,1:0|0:0,0:0:0:0:
344,270,124548,5,0,1:2:0:0:
345,213,124664,1,0,3:2:0:0:
295,157,124779,1,0,1:2:0:0:
216,180,124894,1,0,3:0:0:0:
248,75,125010,6,0,P|357:38|422:384,1,600.000022888185,6|0,1:2|1:2,0:0:0:0:
93,355,126164,6,0,B|38:341|38:341|35:312,1,75.0000028610231,2|0,3:2|0:0,0:0:0:0:
5,215,126394,2,0,B|86:205|68:266|210:241,1,150.000005722046,2|0,1:2|3:2,0:0:0:0:
167,273,126740,1,2,3:2:0:0:
233,239,126856,1,4,1:2:0:0:
274,301,126971,1,0,3:0:0:0:
233,239,127087,1,0,3:2:0:0:
465,351,127317,6,0,P|409:272|276:336,1,225.000008583069,2|0,1:2|0:2,0:0:0:0:
286,323,127779,2,0,P|356:345|384:321,1,75.0000028610231,2|0,1:2|0:0,0:0:0:0:
485,221,128010,2,0,P|455:196|399:210,1,75.0000028610231,2|0,3:2|0:0,0:0:0:0:
446,362,128240,2,0,L|530:380,1,75.0000028610231,2|0,1:2|3:2,0:0:0:0:
390,325,128471,2,0,L|440:338,1,37.5000014305115,2|0,1:2|0:0,0:0:0:0:
364,336,128587,2,0,L|412:348,1,37.5000014305115,2|0,3:2|0:0,0:0:0:0:
340,299,128702,6,0,B|395:310|395:310|310:319|224:373,1,225.000008583069,4|0,1:2|3:2,0:0:0:0:
174,319,129164,1,0,1:2:0:0:
119,309,129279,1,0,3:0:0:0:
65,324,129394,2,0,P|38:356|-2:380,1,75.0000028610231,2|0,0:2|0:2,0:0:0:0:
0,383,129625,2,0,P|20:309|11:189,1,150.000005722046,2|2,1:2|3:2,0:0:0:0:
2,161,129971,1,0,3:0:0:0:
2,161,130087,2,0,L|11:70,1,75.0000028610231,2|0,1:2|3:2,0:0:0:0:
121,21,130317,1,2,3:2:0:0:
190,63,130433,2,0,L|180:126,6,37.5000014305115,2|0|4|0|0|0|0,3:2|0:0|1:2|0:0|0:0|0:0|3:2,0:0:0:0:
407,271,131010,5,2,1:2:0:0:
426,269,131125,1,0,3:0:0:0:
462,203,131240,1,2,0:2:0:0:
477,207,131356,1,0,3:2:0:0:
511,284,131471,2,0,P|509:316|496:368,1,75.0000028610231,2|0,1:2|0:0,0:0:0:0:
336,337,131702,2,0,P|343:281|357:237,1,89.9999972534181,2|0,1:2|0:0,0:0:0:0:
205,215,131933,2,0,P|198:260|179:338,1,104.999996795654,2|0,1:2|3:2,0:0:0:0:
39,229,132164,2,0,P|30:251|27:287,1,52.4999983978272,2|0,1:2|0:0,0:0:0:0:
46,296,132279,2,0,P|56:268|61:227,1,52.4999983978272,2|0,3:2|0:0,0:0:0:0:
105,178,132394,6,0,P|203:189|220:60,1,225.000008583069,4|0,1:2|3:2,0:0:0:0:
182,29,132856,1,0,1:2:0:0:
403,59,133087,2,0,P|382:141|377:177,1,75.0000028610231,0|0,0:2|0:2,0:0:0:0:
397,176,133317,1,0,1:2:0:0:
137,341,133548,5,2,3:2:0:0:
123,358,133664,1,0,3:0:0:0:
127,321,133779,1,2,1:2:0:0:
192,286,133894,1,0,3:2:0:0:
254,327,134010,2,0,P|276:347|331:352,1,75.0000028610231,2|0,3:2|3:2,0:0:0:0:
508,229,134240,2,0,P|390:207|370:336,1,225.000008583069,4|0,1:2|3:2,0:0:0:0:
401,342,134702,2,0,P|496:326|507:302,1,75.0000028610231,2|0,1:2|0:0,0:0:0:0:
387,177,134933,2,0,L|343:194,1,37.5000014305115,0|0,0:2|0:0,0:0:0:0:
2,249,135164,5,2,1:2:0:0:
123,270,135394,1,2,3:2:0:0:
247,293,135625,2,0,L|238:358,1,37.5000014305115,2|0,1:2|0:0,0:0:0:0:
465,96,135856,5,2,3:2:0:0:
475,106,135971,1,0,3:2:0:0:
488,106,136087,1,4,1:2:0:0:
462,52,136202,1,0,3:0:0:0:
403,38,136317,1,0,0:2:0:0:
344,53,136433,1,0,3:2:0:0:
350,89,136548,1,2,1:2:0:0:
354,126,136664,1,0,3:0:0:0:
303,157,136779,1,0,0:2:0:0:
245,141,136894,1,0,3:2:0:0:
204,78,137010,5,2,1:2:0:0:
271,56,137125,1,0,3:0:0:0:
175,169,137240,5,2,3:2:0:0:
108,146,137356,1,0,3:0:0:0:
225,228,137471,6,0,P|249:254|291:233,1,75.0000028610231,2|0,1:2|3:2,0:0:0:0:
491,348,137702,6,0,P|466:260|455:366,1,300,6|0,1:2|3:0,0:0:0:0:
385,366,138164,6,0,L|269:380,1,100,4|0,1:2|0:0,0:0:0:0:
286,155,138394,6,0,L|428:179,1,100,4|0,1:2|0:0,0:0:0:0:
285,377,138625,5,2,0:0:0:0:
384,171,138856,5,2,0:0:0:0:
410,298,139087,6,0,L|401:243,1,50,2|0,1:2|0:0,0:0:0:0:
234,22,139317,5,2,0:0:0:0:
182,251,139548,5,2,0:2:0:0:
355,77,139779,6,0,P|396:84|414:37,1,89.9999972534181,6|0,1:2|0:0,0:0:0:0:
182,251,140010,1,2,3:2:0:0:
182,251,140125,2,0,P|118:308|134:353,2,89.9999972534181,2|0|0,3:2|1:2|3:0,0:0:0:0:
106,47,140471,6,0,L|124:173,1,89.9999972534181,2|0,3:2|0:0,0:0:0:0:
373,311,140702,2,0,L|355:185,1,89.9999972534181,2|0,1:2|0:0,0:0:0:0:
210,359,140933,1,2,3:2:0:0:
210,359,141048,2,0,B|164:345|166:378|118:375,2,89.9999972534181,2|0|0,3:2|1:2|3:0,0:0:0:0:
439,191,141394,6,0,B|460:182|460:182|465:150,1,44.999998626709,2|0,3:2|0:0,0:0:0:0:
384,147,141510,2,0,B|391:135|391:135|391:92,1,44.999998626709,2|0,3:2|0:0,0:0:0:0:
316,127,141625,2,0,B|291:145|211:154|292:264|201:79|346:-5,1,269.999991760254,4|0,1:2|3:2,0:0:0:0:
404,29,142087,6,0,P|434:42|475:5,1,89.9999972534181,2|0,1:2|0:0,0:0:0:0:
316,127,142317,1,2,3:2:0:0:
316,127,142433,2,0,B|381:189|416:131|498:203,1,179.999994506836,2|0,0:0|0:0,0:0:0:0:
480,189,142779,6,0,P|499:149|490:105,1,89.9999972534181,2|0,3:2|0:0,0:0:0:0:
386,272,143010,6,0,P|400:229|406:184,1,89.9999972534181,2|0,1:2|3:0,0:0:0:0:
297,363,143240,6,0,P|279:273|242:172,2,179.999994506836,2|6|0,3:2|1:2|3:0,0:0:0:0:
487,25,143933,5,2,1:2:0:0:
304,41,144164,1,2,3:2:0:0:
239,78,144279,2,0,P|245:127|300:123,2,89.9999972534181,2|0|0,3:2|1:2|3:0,0:0:0:0:
203,160,144625,6,0,P|158:155|119:131,1,89.9999972534181,2|0,3:2|0:0,0:0:0:0:
335,207,144856,2,0,P|331:248|365:316,1,89.9999972534181,2|0,1:2|3:2,0:0:0:0:
248,272,145087,2,0,P|230:322|225:393,1,89.9999972534181,2|0,3:2|3:2,0:0:0:0:
45,376,145317,5,6,1:2:0:0:
19,362,145433,1,0,3:0:0:0:
82,300,145548,1,2,3:2:0:0:
129,378,145664,2,0,L|330:339,1,179.999994506836,2|0,3:2|0:0,0:0:0:0:
375,329,146010,6,0,B|393:316|393:316|421:327,2,44.999998626709,2|0|0,3:1|0:0|0:0,0:0:0:0:
283,384,146240,2,0,P|365:350|464:363,1,179.999994506836,0|2,1:2|3:2,0:0:0:0:
473,235,146587,1,0,3:0:0:0:
453,210,146702,5,2,1:2:0:0:
396,197,146817,1,2,3:2:0:0:
326,181,146933,1,2,1:2:0:0:
257,164,147048,1,2,3:2:0:0:
179,144,147164,2,0,P|44:178|69:301,1,269.999991760254,6|0,1:2|3:2,0:0:0:0:
112,336,147625,6,0,B|156:341|156:341|212:322,1,89.9999972534181,2|0,1:2|0:0,0:0:0:0:
394,371,147856,2,0,L|448:358,1,44.999998626709,2|0,3:2|0:0,0:0:0:0:
483,384,147971,2,0,B|506:335|506:335|491:303,2,89.9999972534181,2|0|0,0:2|1:2|0:0,0:0:0:0:
383,293,148317,2,0,B|340:244|340:244|409:137,1,179.999994506836,0|0,3:0|1:2,0:0:0:0:
468,79,148664,1,0,3:0:0:0:
445,89,148779,5,2,3:2:0:0:
492,113,148894,1,0,3:0:0:0:
430,53,149010,1,6,1:2:0:0:
302,170,149240,5,0,3:2:0:0:
258,193,149356,1,0,3:2:0:0:
215,136,149471,2,0,B|112:102|149:150|38:112,1,179.999994506836,2|2,1:2|3:2,0:0:0:0:
8,91,149817,1,0,3:2:0:0:
38,149,149933,2,0,B|14:166|12:199|12:199|54:238,1,75.0000028610231,2|0,1:2|0:0,0:0:0:0:
212,310,150164,5,2,3:2:0:0:
247,275,150279,2,0,P|192:300|144:255,2,75.0000028610231,2|4|0,3:2|1:2|3:2,0:0:0:0:
300,330,150625,1,2,3:2:0:0:
232,167,150856,5,6,1:2:0:0:
161,142,150971,1,0,3:0:0:0:
139,144,151087,1,0,3:2:0:0:
122,160,151202,1,0,3:2:0:0:
176,214,151317,5,4,1:2:0:0:
232,167,151433,1,0,3:0:0:0:
245,122,151548,1,2,3:2:0:0:
230,83,151664,1,2,3:2:0:0:
161,142,151779,5,4,1:2:0:0:
232,167,151894,1,0,3:0:0:0:
291,167,152010,1,0,3:2:0:0:
325,120,152125,1,0,3:0:0:0:
231,15,152240,6,0,B|211:47|211:47|229:68|229:68|223:148,1,75.0000028610231,4|0,1:2|3:2,0:0:0:0:
272,284,152471,6,0,B|292:252|292:252|274:231|274:231|280:151,1,75.0000028610231,0|0,1:2|3:2,0:0:0:0:
32,156,152702,6,0,P|81:163|158:166,1,112.500004291535,4|0,1:2|0:0,0:0:0:0:
181,148,152933,2,0,L|183:199,1,37.5000014305115,8|0,3:2|0:0,0:0:0:0:
215,183,153048,2,0,L|229:217,1,37.5000014305115,8|0,3:2|0:0,0:0:0:0:
288,172,153164,5,0,1:2:0:0:
495,252,153394,6,0,P|413:234|324:220,1,150.000005722046,2|6,3:2|1:2,0:0:0:0:
414,187,153740,1,0,3:0:0:0:
353,134,153856,1,6,1:2:0:0:
382,98,153971,1,0,3:0:0:0:
342,74,154087,2,0,P|353:35|357:-7,1,75.0000028610231,6|0,1:2|3:2,0:0:0:0:
225,67,154317,2,0,P|174:77|133:88,1,75.0000028610231,6|0,1:2|3:2,0:0:0:0:
267,166,154548,6,0,P|283:283|293:368,1,179.999994506836,6|2,1:2|3:2,0:0:0:0:
363,319,154894,1,2,3:2:0:0:
239,288,155010,2,0,P|201:309|197:357,1,89.9999972534181,0|0,1:2|0:0,0:0:0:0:
355,226,155240,2,0,P|367:169|360:132,1,89.9999972534181,2|0,3:2|0:2,0:0:0:0:
212,108,155471,1,2,1:2:0:0:
174,151,155587,1,0,3:0:0:0:
96,145,155702,1,2,3:2:0:0:
36,189,155817,1,2,3:2:0:0:
21,170,155933,6,0,P|74:207|62:238,1,89.9999972534181,0|0,1:2|3:2,0:0:0:0:
163,265,156164,2,2,P|149:263|147:233,2,44.999998626709,2|0|2,3:2|0:0|3:2,0:1:0:0:
249,205,156394,6,0,L|518:248,1,269.999991760254,4|0,1:2|3:2,0:0:0:0:
480,180,156856,1,2,1:2:0:0:
411,190,156971,1,0,3:0:0:0:
398,258,157087,1,2,3:2:0:0:
465,303,157202,1,2,3:2:0:0:
507,234,157317,6,0,P|494:164|493:122,1,89.9999972534181,0|0,1:2|0:0,0:0:0:0:
329,160,157548,2,0,P|341:86|353:51,1,89.9999972534181,2|0,3:2|0:0,0:0:0:0:
185,105,157779,1,2,1:2:0:0:
140,95,157894,1,0,3:2:0:0:
167,20,158010,1,2,1:2:0:0:
141,52,158125,1,0,3:2:0:0:
87,0,158240,6,0,P|62:37|35:185,1,179.999994506836,6|0,1:2|3:2,0:0:0:0:
23,153,158587,1,0,3:2:0:0:
111,201,158702,2,0,P|164:239|189:271,1,89.9999972534181,2|0,1:2|0:0,0:0:0:0:
55,369,158933,2,0,P|124:363|252:325,1,179.999994506836,2|2,3:2|1:0,0:0:0:0:
295,296,159279,1,0,3:0:0:0:
390,284,159394,1,2,3:2:0:0:
468,313,159510,1,0,3:0:0:0:
492,358,159625,2,0,P|486:305|500:261,1,89.9999972534181,2|0,1:2|3:2,0:0:0:0:
358,186,159856,2,0,P|375:150|428:144,1,89.9999972534181,2|0,3:2|3:2,0:0:0:0:
419,12,160087,6,0,P|469:54|357:72,1,200,6|0,1:2|3:2,0:0:0:0:
282,63,160433,1,0,1:2:0:0:
168,111,160548,2,0,P|120:148|192:175,1,100
246,368,160779,2,0,P|326:306|205:202,1,300,6|0,1:2|3:0,0:0:0:0:
153,249,161240,6,0,P|164:283|200:285,3,50,0|0|0|0,1:2|0:0|0:0|0:0,0:0:0:0:
260,114,161471,2,2,P|225:106|205:136,3,50,2|0|0|0,1:2|0:0|0:0|0:0,0:1:0:0:
332,247,161702,2,2,P|355:220|339:188,3,50,2|0|0|0,1:2|0:0|3:2|0:0,0:1:0:0:
248,289,161933,6,0,L|262:190,1,89.9999972534181,6|0,1:2|0:0,0:0:0:0:
186,182,162164,1,2,3:2:0:0:
131,131,162279,1,2,3:2:0:0:
87,158,162394,2,0,L|74:247,1,89.9999972534181,0|0,1:2|0:0,0:0:0:0:
206,100,162625,2,0,L|295:112,1,89.9999972534181,0|0,3:2|0:2,0:0:0:0:
26,98,162856,2,0,L|38:8,1,89.9999972534181,0|0,1:2|0:0,0:0:0:0:
261,185,163087,2,0,L|350:197,1,89.9999972534181,2|0,3:2|0:0,0:0:0:0:
425,170,163317,5,2,1:2:0:0:
461,137,163433,1,0,3:2:0:0:
435,53,163548,1,2,3:2:0:0:
361,69,163664,1,0,3:2:0:0:
353,188,163779,6,0,L|263:175,1,89.9999972534181,4|0,1:2|0:0,0:0:0:0:
200,149,164010,1,0,3:2:0:0:
151,129,164125,1,0,3:2:0:0:
68,197,164240,2,0,L|157:184,1,89.9999972534181,2|0,1:2|0:0,0:0:0:0:
206,237,164471,1,0,3:2:0:0:
263,231,164587,1,0,3:2:0:0:
311,325,164702,2,0,L|221:312,1,89.9999972534181,2|0,1:2|0:0,0:0:0:0:
146,290,164933,1,0,3:2:0:0:
105,305,165048,1,2,3:0:0:0:
41,253,165164,1,0,1:2:0:0:
57,176,165279,1,0,3:2:0:0:
139,145,165394,1,2,1:2:0:0:
169,70,165510,1,0,3:2:0:0:
96,18,165625,6,0,B|111:118|148:407,1,359.999989013672,6|2,1:2|1:2,0:0:0:0:
151,340,166202,1,0,3:0:0:0:
86,266,166317,1,0,3:2:0:0:
170,150,166433,1,0,3:2:0:0:
96,18,166548,6,0,B|111:118|148:407,1,359.999989013672,2|2,1:2|1:2,0:0:0:0:
166,330,167125,1,0,3:2:0:0:
67,246,167240,1,0,1:2:0:0:
190,123,167356,1,0,3:2:0:0:
96,18,167471,6,0,B|111:118|148:407,1,359.999989013672,6|0,1:2|3:2,0:0:0:0:
182,322,167933,1,6,1:2:0:0:
42,226,168048,1,0,3:0:0:0:
211,141,168164,1,2,3:2:0:0:
42,75,168279,1,0,3:2:0:0:
96,18,168394,6,0,B|111:118|111:145,1,100,6|0,1:2|0:0,0:0:0:0:
466,138,168625,6,0,B|366:153|339:153,1,100,6|0,1:2|0:0,0:0:0:0:
275,384,168856,6,0,B|260:284|260:257,1,100,6|0,1:2|3:2,0:0:0:0:
104,221,169087,6,0,B|204:206|231:206,1,100,6|0,1:2|3:2,0:0:0:0:
259,81,169317,6,0,B|274:181|274:208,1,100,6|0,1:2|0:0,0:0:0:0:
322,240,169548,1,2,3:2:0:0:
365,220,169664,1,2,3:2:0:0:
492,218,169779,2,0,P|399:215|374:305,1,200,0|2,1:2|3:2,0:0:0:0:
428,369,170125,1,0,3:0:0:0:
474,322,170240,1,2,1:2:0:0:
372,303,170356,2,0,P|289:299|244:290,1,100,0|2,0:0|3:2,0:0:0:0:
211,324,170587,1,2,3:2:0:0:
118,264,170702,2,0,P|85:238|133:87,1,200,0|2,1:2|3:2,0:0:0:0:
121,29,171048,1,2,3:2:0:0:
44,185,171164,6,0,P|43:313|30:426,1,200,4|0,1:2|3:2,0:0:0:0:
24,311,171510,1,0,3:2:0:0:
14,287,171625,2,0,P|9:218|0:156,1,100,2|0,1:2|0:0,0:0:0:0:
207,279,171856,1,2,3:2:0:0:
197,255,171971,2,0,P|192:186|183:124,2,100,2|0|0,3:2|1:2|3:0,0:0:0:0:
498,97,172317,2,0,P|503:166|512:228,1,100,2|0,3:2|0:0,0:0:0:0:
315,129,172548,2,0,P|320:198|329:260,1,100,2|0,1:2|3:0,0:0:0:0:
98,169,172779,2,0,P|103:238|112:300,1,100,2|0,3:2|3:0,0:0:0:0:
414,215,173010,2,0,P|409:146|400:84,1,100,6|0,1:2|0:0,0:0:0:0:
414,41,173240,5,0,3:2:0:0:
390,15,173356,1,0,3:2:0:0:
280,90,173471,2,0,P|236:143|317:251,1,200,2|2,1:2|3:2,0:0:0:0:
321,323,173817,1,2,3:2:0:0:
343,147,173933,2,0,P|389:86|317:-7,1,200,0|2,1:2|3:2,0:0:0:0:
197,62,174279,1,0,3:0:0:0:
46,22,174394,2,0,P|-8:75|77:173,1,200,2|2,1:2|3:2,0:0:0:0:
101,220,174740,1,0,3:2:0:0:
70,334,174856,5,6,1:2:0:0:
133,352,174971,1,0,3:0:0:0:
184,296,175087,1,2,3:2:0:0:
146,222,175202,1,2,3:2:0:0:
66,287,175317,2,0,P|101:350|154:363,1,100,0|0,1:2|0:0,0:0:0:0:
290,314,175548,2,0,P|337:259|331:205,1,100,2|0,3:1|0:2,0:0:0:0:
366,162,175779,1,0,1:2:0:0:
345,100,175894,1,0,3:0:0:0:
260,79,176010,1,2,3:2:0:0:
195,140,176125,1,0,3:0:0:0:
238,233,176240,2,0,P|280:195|286:149,1,100,2|2,1:2|3:2,0:0:0:0:
74,43,176471,2,0,P|32:81|26:127,1,100,2|2,3:2|3:2,0:0:0:0:
133,292,176702,6,0,P|146:223|34:150,1,200,6|0,1:2|3:2,0:0:0:0:
126,122,177048,1,0,3:2:0:0:
28,237,177164,2,0,P|30:171|27:82,1,100,2|0,1:2|0:0,0:0:0:0:
108,220,177394,1,2,3:2:0:0:
286,323,177510,2,0,P|153:300|58:286,1,200,2|0,3:2|0:0,0:0:0:0:
49,355,177856,1,0,3:2:0:0:
80,372,177971,1,0,3:0:0:0:
154,355,178087,1,0,1:2:0:0:
189,287,178202,1,0,3:2:0:0:
207,208,178317,1,2,3:2:0:0:
279,157,178433,1,0,3:2:0:0:
398,160,178548,6,0,P|466:200|505:229,1,100,6|0,1:2|0:0,0:0:0:0:
391,241,178779,1,0,3:2:0:0:
340,221,178894,1,0,3:2:0:0:
324,151,179010,2,0,P|256:191|217:220,1,100,2|0,1:2|0:0,0:0:0:0:
381,98,179240,2,0,P|449:138|488:167,1,100,2|0,3:2|0:2,0:0:0:0:
305,71,179471,2,0,P|237:111|198:140,1,100,2|0,1:2|0:0,0:0:0:0:
389,12,179702,2,0,P|457:52|496:81,1,100,2|2,3:2|0:0,0:0:0:0:
344,71,179933,1,0,1:2:0:0:
301,10,180048,1,0,3:2:0:0:
221,33,180164,6,0,P|112:91|32:126,1,200,2|6,3:2|1:2,0:0:0:0:
53,44,180510,1,0,3:0:0:0:
111,90,180625,1,0,3:2:0:0:
102,170,180740,1,0,3:2:0:0:
35,238,180856,1,4,1:2:0:0:
1,131,180971,1,0,3:0:0:0:
65,133,181087,2,0,B|114:120|138:166|64:210,1,100,2|2,3:2|0:2,0:0:0:0:
20,221,181317,2,0,B|-69:218|-31:57|64:101,1,200,4|0,1:2|3:2,0:0:0:0:
54,288,181664,5,0,3:0:0:0:
134,304,181779,1,4,1:2:0:0:
209,239,181894,1,0,3:2:0:0:
268,162,182010,1,0,1:2:0:0:
351,154,182125,1,0,3:2:0:0:
444,256,182240,5,4,1:2:0:0:
435,293,182356,1,0,3:0:0:0:
407,296,182471,1,2,3:2:0:0:
387,282,182587,1,0,3:2:0:0:
399,209,182702,1,0,1:2:0:0:
343,142,182817,1,0,0:0:0:0:
257,174,182933,2,0,B|251:201|227:213|227:213|247:239|226:268,1,100,2|0,3:2|0:0,0:0:0:0:
361,42,183164,5,6,1:2:0:0:
353,32,183279,1,0,3:0:0:0:
262,49,183394,1,6,1:2:0:0:
246,36,183510,1,0,3:0:0:0:
343,142,183625,1,6,1:2:0:0:
313,128,183740,1,0,3:2:0:0:
192,141,183856,1,6,1:2:0:0:
151,133,183971,1,0,3:2:0:0:
101,53,184087,2,0,P|60:43|-2:44,2,75.0000028610231,6|0|0,1:2|0:0|0:0,0:0:0:0:
328,234,184317,5,2,3:2:0:0:
273,191,184433,2,0,B|310:225|365:218,1,100,2|0,3:2|1:0,0:0:0:0:
210,293,184664,1,0,3:0:0:0:
252,352,184779,2,0,P|142:328|109:327,1,100,2|0,3:2|0:2,0:0:0:0:
87,201,185010,2,0,P|197:225|230:226,1,100,2|0,1:2|0:0,0:0:0:0:
389,80,185240,5,2,3:2:0:0:
315,70,185356,1,2,3:0:0:0:
256,120,185471,1,0,1:2:0:0:
333,93,185587,1,0,3:2:0:0:
424,135,185702,5,2,3:2:0:0:
372,45,185817,2,2,B|366:8|359:43|346:-2,1,50,2|0,3:2|0:0,0:1:0:0:
279,83,185933,2,0,B|105:39|153:183|29:204,1,300,4|0,1:2|3:2,0:1:0:0:
88,347,186394,6,2,B|-64:443|91:280,1,125,2|0,1:1|0:0,0:1:0:0:
206,247,186625,1,2,3:1:0:0:
165,279,186740,2,0,B|144:275|125:307|142:350,1,62.5,2|0,3:1|0:0,0:0:0:0:
211,335,186856,6,2,B|187:448|235:192|414:407|285:418|287:257|360:287|389:283|411:302,1,250,0|2,1:0|3:2,0:1:0:0:
376,341,187202,1,0,3:0:0:0:
441,365,187317,1,2,1:0:0:0:
505,328,187432,1,0,3:2:0:0:
511,248,187548,1,2,1:0:0:0:
431,195,187663,1,0,3:2:0:0:
333,245,187779,2,2,P|331:267|327:248,6,62.5,6|0|0|0|0|0|0,1:1|0:0|0:0|0:0|3:2|0:0|3:2,0:1:0:0:
267,209,188240,6,0,P|296:132|151:46,1,250,2|2,1:0|3:1,0:0:0:0:
153,5,188587,1,2,3:1:0:0:
155,96,188702,1,2,1:2:0:0:
99,53,188817,1,0,3:0:0:0:
31,82,188933,2,0,B|30:149|30:149|0:230,1,125,2|0,3:1|0:0,0:0:0:0:
158,139,189164,2,0,B|151:178|151:178|176:293,1,125,2|0,1:0|3:2,0:0:0:0:
273,303,189395,5,2,1:1:0:0:
360,242,189510,1,0,3:2:0:0:
466,262,189625,1,6,1:0:0:0:
479,256,189740,1,0,3:0:0:0:
460,239,189856,1,0,0:0:0:0:
436,274,189971,1,2,1:0:0:0:
495,235,190087,1,0,3:2:0:0:
423,194,190202,1,0,3:0:0:0:
512,324,190317,2,2,B|503:353|503:353|526:385,2,62.5,6|0|0,1:0|0:0|0:2,0:1:0:0:
342,344,190664,5,0,3:0:0:0:
415,372,190779,2,0,B|384:380|384:380|293:354,1,100,0|0,1:2|0:0,0:0:0:0:
182,379,191010,1,2,1:2:0:0:
232,354,191125,1,0,3:2:0:0:
271,222,191240,1,2,1:2:0:0:
279,270,191355,1,0,3:2:0:0:
140,292,191471,6,0,B|50:332|-72:245|2:168|35:256,1,250,6|2,1:2|3:2,0:0:0:0:
113,340,191817,1,2,3:2:0:0:
167,318,191933,2,0,B|225:331|225:331|336:309,3,125,0|0|0|0,1:2|0:0|3:2|0:2,0:0:0:0:
331,169,192394,2,0,B|393:159|393:159|500:178,3,125,2|0|0|0,1:2|0:0|3:2|0:0,0:0:0:0:
284,222,192856,5,0,1:2:0:0:
216,205,192971,1,0,3:2:0:0:
200,136,193087,1,0,3:2:0:0:
279,94,193202,1,0,3:2:0:0:
318,6,193317,6,2,B|282:41|265:120|416:122|372:224,2,250,6|0|0,1:2|3:2|1:2,0:1:0:0:
392,15,193894,5,0,3:0:0:0:
460,47,194010,6,2,P|469:80|462:107,2,50,2|0|0,3:2|0:0|0:2,0:1:0:0:
187,142,194240,6,2,P|203:178|235:175,2,62.5,6|0|0,1:2|0:0|0:0,0:1:0:0:
414,302,194471,6,2,P|444:298|436:257,2,75.0000028610231,6|0|0,3:2|0:0|0:0,0:1:0:0:
256,369,194702,6,2,P|169:328|-8:331,2,250,6|6|6,1:2|1:2|1:2,0:1:0:0:
414,302,195394,5,2,3:2:0:0:
414,302,195510,1,2,3:2:0:0:
222,180,195856,1,2,3:2:0:0:
59,284,196087,1,2,3:2:0:0:
0,237,196317,1,2,3:2:0:0:
0,237,196433,2,0,P|-11:186|29:107,1,125,2|0,3:2|0:0,0:0:0:0:
86,102,196779,2,0,L|89:172,1,50,2|2,1:2|0:0,0:0:0:0:
332,139,197010,2,0,L|334:176,1,25,6|0,1:2|0:0,0:0:0:0:
394,208,197356,5,0,3:2:0:0:
425,193,197471,2,0,P|483:188|543:179,1,100,2|2,0:0|3:2,0:0:0:0:
425,193,197817,2,0,P|396:273|374:322,1,100,2|0,3:2|0:0,0:0:0:0:
425,193,198164,2,0,P|391:155|362:117,1,75,2|0,3:2|0:0,0:0:0:0:
331,138,198394,2,0,P|334:113|339:89,1,50,2|0,1:2|0:0,0:0:0:0:
209,163,198625,2,0,P|214:190|221:221,1,50,2|0,1:2|0:0,0:0:0:0:
248,339,198856,1,6,1:2:0:0:
248,339,199317,5,2,0:0:0:0:
299,353,199433,1,2,3:2:0:0:
343,340,199548,1,2,3:2:0:0:
386,351,199664,2,0,L|408:203,1,150,2|2,3:2|3:2,0:0:0:0:
420,128,200240,1,2,1:2:0:0:
420,128,200471,1,2,1:2:0:0:
60,100,200702,5,6,1:2:0:0:
325,27,201049,1,2,1:2:0:0:
29,81,201394,2,2,L|19:126,4,25,6|0|0|0|0,1:2|0:0|0:0|0:0|0:0,0:1:0:0:
76,54,201740,1,0,3:0:0:0:
141,97,201856,1,0,1:2:0:0:
205,296,202087,6,0,P|180:265|142:230,1,75.0000028610231,2|0,1:2|0:0,0:0:0:0:
8,225,202317,1,2,1:2:0:0:
76,244,202433,2,0,P|51:213|45:209,1,37.5000014305115,0|0,3:0|0:0,0:0:0:0:
18,179,202548,6,0,P|133:202|233:102,1,250,6|2,1:2|3:2,0:0:0:0:
309,211,202894,2,0,P|389:228|443:265,2,100,2|0|0,3:2|1:2|0:0,0:0:0:0:
387,304,203240,1,0,3:2:0:0:
299,200,203356,2,0,P|303:168|338:97,2,100,0|0|0,3:2|1:2|0:0,0:0:0:0:
223,324,203702,6,0,P|190:298|207:223,1,100,2|0,3:2|0:0,0:0:0:0:
429,224,203933,2,0,P|424:272|385:304,1,100,2|0,1:2|3:2,0:0:0:0:
257,96,204164,2,0,P|263:130|305:212,1,100,2|0,3:2|3:2,0:0:0:0:
426,364,204394,6,0,B|460:370|587:367|538:249|432:226|423:414|366:392|294:373,1,350,4|0,1:2|0:0,0:0:0:0:
235,340,204856,2,0,B|192:349|192:349|149:328,1,87.5,2|0,1:2|0:0,0:0:0:0:
84,365,205317,6,0,P|116:362|135:342,1,50,2|0,1:2|0:0,0:0:0:0:
153,330,205433,2,0,P|168:255|113:208,1,150
93,233,205664,2,0,P|78:261|110:291,1,50,2|0,3:2|0:0,0:0:0:0:
39,270,205779,2,0,P|72:306|119:323,1,100,0|0,1:2|3:2,0:0:0:0:
391,114,206010,5,2,1:2:0:0:
412,212,206125,1,0,3:2:0:0:
489,190,206240,1,6,1:2:0:0:
456,166,206356,2,0,L|464:238,2,50,0|0|0,0:0|3:2|3:2,0:0:0:0:
231,186,206702,1,0,1:2:0:0:
251,224,206817,2,0,L|268:95,2,75.0000028610231,0|0|0,3:0|3:2|3:2,0:0:0:0:
17,193,207164,1,0,1:2:0:0:
72,145,207279,2,0,L|55:292,2,100,0|0|0,3:0|3:2|3:0,0:0:0:0:
155,120,207625,6,0,B|145:104|145:104|152:93|152:93|149:61,1,50,2|0,1:1|0:0,0:0:0:0:
192,87,207740,2,0,B|196:68|196:68|185:56|185:56|186:28,1,50,0|0,3:2|0:0,0:0:0:0:
249,134,207856,2,0,B|243:123|243:123|251:99|251:99|243:75,1,50,2|0,1:1|0:0,0:0:0:0:
308,80,207971,2,0,B|304:66|304:66|311:41|311:41|302:21,1,50,0|0,3:2|0:0,0:0:0:0:
367,29,208087,2,0,B|353:47|353:47|368:60|368:60|410:350|410:350|390:385,2,350.00000333786,4|0|4,1:2|1:2|1:2,0:0:0:0:
415,10,209125,5,0,3:0:0:0:
464,73,209240,5,4,1:2:0:0:
434,164,209356,5,0,3:0:0:0:
331,203,209471,5,4,1:2:0:0:
231,181,209587,5,0,3:2:0:0:
179,112,209702,5,4,1:2:0:0:
204,38,209817,5,0,3:2:0:0:
328,67,209933,6,0,B|295:88|295:88|299:97|299:97|283:142,3,87.500000834465,6|0|0|0,1:1|0:0|3:2|3:2,0:0:0:0:
297,278,210394,2,0,B|295:238|295:238|285:237|285:237|254:201,3,87.500000834465,0|0|0|0,1:2|0:0|3:2|0:0,0:0:0:0:
129,148,210856,2,0,B|163:166|163:166|169:158|169:158|216:149,1,87.500000834465,0|0,1:2|0:0,0:0:0:0:
67,104,211087,5,2,3:1:0:0:
146,66,211202,1,0,0:0:0:0:
210,133,211317,2,0,B|222:96|222:96|218:87|218:87|251:66,1,87.500000834465,0|0,1:2|3:0,0:0:0:0:
254,231,211548,2,0,B|252:191|252:191|242:190|242:190|217:161,1,87.500000834465,2|0,3:1|3:2,0:0:0:0:
0,278,211779,6,0,B|26:234|26:234|100:223|100:223|146:175,1,175.00000166893,6|0,1:1|3:2,0:0:0:0:
180,267,212125,1,0,3:2:0:0:
254,231,212240,2,0,B|287:266|287:266|361:277|361:277|387:321,1,175.00000166893,0|0,1:2|3:2,0:0:0:0:
394,332,212587,1,0,0:0:0:0:
388,341,212702,1,0,1:2:0:0:
491,163,212933,1,2,3:1:0:0:
248,26,213164,5,0,1:2:0:0:
224,96,213279,1,0,3:0:0:0:
257,120,213394,1,2,3:1:0:0:
234,161,213510,1,2,3:1:0:0:
259,232,213625,2,0,P|267:176|271:134,1,87.500000834465,6|0,1:1|0:0,0:0:0:0:
192,291,213856,2,0,P|200:235|204:193,1,87.500000834465,0|0,3:2|3:2,0:0:0:0:
347,303,214087,2,0,P|355:247|359:205,1,87.500000834465,0|0,1:2|0:0,0:0:0:0:
63,108,214317,5,2,3:1:0:0:
98,41,214433,2,0,B|112:27|112:27|153:26,1,43.7500004172325,2|2,0:1|0:1,0:0:0:0:
86,8,214548,2,2,P|90:103|93:300,1,262.500002503395,2|2,1:1|0:1,0:1:0:0:
144,333,215010,1,0,1:2:0:0:
255,312,215125,1,0,3:0:0:0:
368,333,215240,1,2,3:1:0:0:
312,383,215356,1,2,3:1:0:0:
418,270,215471,6,2,P|420:139|426:8,1,262.500002503395,6|2,1:1|0:2,0:1:0:0:
409,29,215933,1,0,1:2:0:0:
401,53,216048,1,0,0:0:0:0:
393,78,216164,1,2,3:1:0:0:
386,103,216279,1,0,0:0:0:0:
380,128,216394,1,2,1:2:0:0:
375,153,216510,1,0,0:0:0:0:
370,178,216625,1,0,3:2:0:0:
366,203,216740,1,0,0:0:0:0:
363,229,216856,5,6,1:1:0:0:
283,202,216971,1,2,3:1:0:0:
196,187,217087,1,2,3:1:0:0:
105,185,217202,1,2,3:1:0:0:
195,319,217317,6,2,B|210:312|210:312|215:300|215:300|230:300|230:300|231:287|231:287|244:291|244:291|242:280|242:280|253:284|253:284|297:257|300:142|185:144|162:215,1,262.500002503395,6|0,1:1|3:2,0:1:0:0:
162,241,217779,1,2,1:1:0:0:
235,259,217894,1,2,0:1:0:0:
309,209,218010,1,2,3:1:0:0:
284,113,218125,1,2,0:1:0:0:
181,92,218240,1,0,1:2:0:0:
145,17,218356,1,2,0:1:0:0:
176,1,218471,1,2,3:1:0:0:
177,19,218587,1,0,0:0:0:0:
108,48,218702,5,2,1:1:0:0:
34,3,218817,1,0,3:0:0:0:
39,81,218933,2,0,B|58:117|58:117|18:155,1,87.500000834465,6|2,3:1|3:1,0:0:0:0:
94,355,219164,6,0,B|61:274|61:274|141:182,1,175.00000166893,6|0,1:1|3:2,0:0:0:0:
174,128,219510,1,2,3:1:0:0:
251,45,219625,2,2,B|284:126|284:126|204:218,1,175.00000166893,0|2,1:2|3:1,0:1:0:0:
327,261,219971,1,0,0:0:0:0:
440,328,220087,2,0,B|407:247|407:247|487:155,1,175.00000166893,2|0,1:1|3:2,0:0:0:0:
404,63,220433,1,0,0:0:0:0:
352,161,220548,2,0,L|306:239,1,87.500000834465,0|0,1:2|3:0,0:0:0:0:
160,223,220779,2,0,L|206:145,1,87.500000834465,2|2,3:1|3:1,0:0:0:0:
264,35,221010,5,6,1:1:0:0:
243,34,221125,1,0,0:0:0:0:
266,24,221240,1,0,3:2:0:0:
242,21,221356,1,0,3:2:0:0:
312,117,221471,5,2,1:2:0:0:
291,116,221586,1,0,0:0:0:0:
314,106,221701,1,0,3:2:0:0:
290,103,221817,1,0,0:0:0:0:
227,182,221933,5,2,1:1:0:0:
206,181,222048,1,0,0:0:0:0:
236,262,222163,1,2,3:1:0:0:
212,259,222279,1,0,0:0:0:0:
322,295,222394,5,2,1:1:0:0:
301,294,222509,1,0,3:0:0:0:
257,354,222624,1,2,1:1:0:0:
233,351,222740,1,0,3:2:0:0:
172,301,222856,6,0,L|466:356,1,262.500002503395,6|0,1:1|3:2,0:0:0:0:
462,332,223317,1,2,1:2:0:0:
463,259,223433,1,0,0:0:0:0:
461,154,223548,1,2,3:1:0:0:
452,36,223664,1,2,0:1:0:0:
342,120,223779,6,0,L|256:101,1,87.500000834465,6|0,1:1|0:0,0:0:0:0:
104,25,224010,2,0,L|190:44,1,87.500000834465,6|0,1:2|0:0,0:0:0:0:
282,17,224240,5,6,1:2:0:0:
247,88,224356,1,0,3:0:0:0:
208,156,224471,1,6,1:2:0:0:
276,188,224587,1,0,3:2:0:0:
347,218,224702,2,0,B|418:201|351:52|209:234|341:231|282:333,1,262.500002503395,6|0,1:1|3:2,0:0:0:0:
220,336,225164,1,0,1:2:0:0:
292,341,225279,1,0,0:0:0:0:
254,302,225394,2,0,P|260:251|255:214,1,87.500000834465,2|2,3:1|0:1,0:0:0:0:
221,144,225625,2,0,P|219:78|228:38,2,87.500000834465,2|0|0,1:2|0:0|3:2,0:0:0:0:
161,182,225971,1,0,0:0:0:0:
68,188,226087,2,0,P|24:207|-13:235,2,87.500000834465,2|0|2,1:2|3:0|3:1,0:0:0:0:
105,89,226433,1,2,3:1:0:0:
139,284,226548,6,0,P|148:325|157:378,1,87.500000834465,6|0,1:1|0:0,0:0:0:0:
268,212,226779,2,0,P|255:254|245:298,1,87.500000834465,0|0,3:2|3:2,0:0:0:0:
358,128,227010,2,0,P|361:162|378:234,1,87.500000834465,0|0,1:2|0:0,0:0:0:0:
487,81,227240,5,2,3:1:0:0:
426,24,227356,1,2,0:1:0:0:
459,97,227471,2,0,P|495:151|481:291,1,175.00000166893,2|0,1:1|3:2,0:0:0:0:
359,304,227817,1,0,0:0:0:0:
464,377,227933,2,0,P|463:307|455:256,1,87.500000834465,2|0,1:1|3:2,0:0:0:0:
345,189,228164,5,2,1:1:0:0:
256,243,228279,1,0,3:2:0:0:
334,322,228394,1,4,1:1:0:0:
386,255,228510,6,0,L|451:242,3,58.3333338896433,2|2|2|2,0:1|0:1|0:1|3:1,0:0:0:0:
150,256,228856,2,0,L|75:252,3,58.3333338896433,2|2|2|2,1:1|0:1|0:1|0:1,0:0:0:0:
292,100,229202,2,0,L|367:90,3,58.3333338896433,2|2|2|2,0:1|0:1|0:1|0:1,0:0:0:0:
167,24,229548,2,2,B|153:19|153:19|149:29|149:29|129:30|129:30|136:47|136:47|120:51|120:51|128:69|128:69|79:85|66:152,1,200,2|2,3:1|1:1,0:1:0:0:
31,206,229894,1,0,3:0:0:0:
92,253,230010,1,2,1:1:0:0:
83,326,230125,1,0,3:2:0:0:
100,359,230240,6,2,P|236:350|423:343,1,262.500002503395,6|6,1:1|1:2,0:1:0:0:
160,317,230702,2,2,P|291:322|312:324,1,87.500000834465,0|0,3:2|0:0,0:1:0:0:
412,25,230933,2,2,P|276:34|89:41,1,262.500002503395,6|0,1:2|3:2,0:1:0:0:
257,177,231394,1,2,1:2:0:0:
323,207,231625,5,4,1:1:0:0:
245,132,231740,1,0,3:0:0:0:
233,235,231856,1,2,1:1:0:0:
261,184,231971,1,2,3:1:0:0:
366,145,232087,6,0,P|456:197|431:282,1,175.00000166893,6|0,1:1|3:2,0:0:0:0:
332,211,232433,1,2,3:1:0:0:
261,184,232548,2,0,P|235:143|255:92,1,87.500000834465,0|0,1:2|0:0,0:0:0:0:
331,281,232779,2,0,P|296:319|242:312,1,87.500000834465,2|0,3:1|0:0,0:0:0:0:
30,206,233010,6,0,P|88:125|158:127,1,175.00000166893,2|0,1:1|3:2,0:0:0:0:
102,237,233356,1,2,0:1:0:0:
90,314,233471,2,0,P|51:348|12:346,1,87.500000834465,0|0,1:2|3:0,0:0:0:0:
179,237,233702,2,0,P|231:275|223:315,1,87.500000834465,2|0,3:1|3:2,0:0:0:0:
454,108,233933,6,0,P|369:48|281:97,1,175.00000166893,6|0,1:1|3:2,0:0:0:0:
239,42,234279,1,0,3:2:0:0:
296,188,234394,2,0,P|250:143|255:96,1,87.500000834465,0|0,1:2|0:0,0:0:0:0:
98,77,234625,2,0,P|151:74|187:111,1,87.500000834465,2|2,3:1|0:1,0:0:0:0:
216,351,234856,6,0,P|127:293|152:202,1,175.00000166893,4|2,1:1|3:1,0:0:0:0:
197,199,235202,1,0,0:0:0:0:
255,251,235317,1,2,1:1:0:0:
333,247,235433,1,0,3:0:0:0:
413,243,235548,1,2,3:1:0:0:
464,188,235664,1,0,3:2:0:0:
326,135,235779,6,0,L|311:33,3,87.500000834465,6|0|0|0,1:1|0:0|3:2|3:2,0:0:0:0:
259,184,236240,2,0,L|244:82,1,87.500000834465,0|0,1:2|0:0,0:0:0:0:
148,115,236471,2,0,L|133:13,1,87.500000834465,2|0,3:1|0:0,0:0:0:0:
404,102,236702,6,0,L|416:188,2,87.500000834465,2|0|0,1:1|0:0|3:0,0:0:0:0:
313,250,237048,1,2,0:1:0:0:
218,302,237164,2,0,L|205:215,1,87.500000834465,0|0,1:2|3:0,0:0:0:0:
144,152,237394,1,2,3:1:0:0:
178,46,237510,1,2,3:1:0:0:
87,14,237625,6,0,L|151:344,1,262.500002503395,6|0,1:1|3:2,0:0:0:0:
187,132,238087,1,6,1:1:0:0:
19,90,238202,1,0,0:0:0:0:
76,0,238317,6,0,L|110:184,1,175.00000166893,2|6,3:1|1:2,0:0:0:0:
59,231,238664,1,0,3:0:0:0:
199,301,238779,1,6,1:2:0:0:
143,375,238894,1,0,3:0:0:0:
84,313,239010,5,6,1:2:0:0:
186,210,239125,1,0,3:0:0:0:
46,127,239240,1,6,1:2:0:0:
108,40,239356,1,0,3:2:0:0:
76,0,239471,6,0,L|140:330,1,300.000011444092,6|2,1:2|0:0,0:0:0:0:
255,342,240625,5,2,0:0:0:0:
301,332,240740,1,0,0:0:0:0:
344,321,240856,1,2,3:2:0:0:
502,382,241087,2,0,L|475:292,1,75.0000028610231,2|0,0:0|1:0,0:0:0:0:
512,152,241548,5,2,3:2:0:0:
489,195,241664,1,0,3:0:0:0:
340,149,241895,1,2,3:2:0:0:
326,173,242010,2,0,L|299:103,1,50,2|2,1:2|0:0,0:0:0:0:
151,45,242240,6,0,P|127:103|142:164,1,100,2|2,0:0|0:0,0:0:0:0:
197,172,242587,1,0,0:0:0:0:
172,211,242702,2,0,B|206:205|190:217|224:213,2,50,2|0|6,3:2|3:0|0:0,0:0:0:0:
154,352,243164,6,0,P|58:322|-8:343,1,150,6|0,1:2|3:0,0:0:0:0:
36,357,243625,1,2,0:0:0:0:
121,314,243856,2,0,L|113:233,1,50,0|0,1:0|0:0,0:0:0:0:
3,186,244087,5,2,3:2:0:0:
25,151,244202,1,0,3:0:0:0:
68,143,244317,1,2,3:2:0:0:
102,173,244433,2,0,P|119:183|166:162,1,50,0|0,3:0|3:0,0:0:0:0:
226,148,244664,1,0,3:2:0:0:
255,184,244779,1,2,3:2:0:0:
443,243,245010,6,0,L|430:298,2,50,0|0|2,1:0|0:0|3:2,0:0:0:0:
443,243,245472,1,0,3:0:0:0:
417,210,245587,2,0,P|397:227|362:221,1,50,0|2,3:0|0:0,0:0:0:0:
501,70,245933,5,0,3:0:0:0:
501,70,246048,1,0,3:2:0:0:
460,58,246164,1,2,3:2:0:0:
460,58,246279,1,0,3:2:0:0:
396,37,246394,2,0,L|410:109,2,50,0|0|6,3:0|3:0|0:0,0:0:0:0:
181,83,246856,6,0,L|157:273,1,150,6|0,1:2|3:0,0:0:0:0:
219,285,247318,1,2,0:0:0:0:
132,165,247548,1,0,1:0:0:0:
63,355,247779,2,0,P|95:349|123:338,1,50,2|0,0:0|0:0,0:0:0:0:
142,367,248010,2,0,P|165:374|190:378,1,50,2|0,0:0|0:0,0:0:0:0:
276,345,248240,5,2,3:2:0:0:
338,302,248393,5,2,3:2:0:0:
407,364,248547,5,2,3:2:0:0:
477,289,248702,6,0,L|504:102,1,150,0|0,1:0|3:0,0:0:0:0:
466,100,249164,1,0,3:0:0:0:
447,120,249279,1,0,3:0:0:0:
401,80,249394,2,0,L|381:163,1,50,2|0,1:2|0:0,0:0:0:0:
246,21,249625,6,0,P|248:46|268:71,2,50,0|0|2,3:0|0:0|0:0,0:0:0:0:
134,99,250087,1,0,3:0:0:0:
89,93,250202,1,0,3:0:0:0:
48,85,250317,1,6,0:0:0:0:
152,205,250548,6,0,B|246:201|235:273|326:262,1,150,6|0,1:2|3:0,0:0:0:0:
349,224,251010,1,2,0:0:0:0:
433,317,251240,2,0,L|502:332,1,50,0|0,1:0|0:0,0:0:0:0:
510,241,251471,6,0,L|461:248,1,50,2|0,0:0|0:0,0:0:0:0:
406,334,251702,2,0,P|335:336|298:375,1,100,2|2,0:0|3:2,0:0:0:0:
345,377,252048,1,0,3:2:0:0:
345,377,252164,1,2,3:2:0:0:
195,277,252394,6,0,L|-32:228,1,200,0|0,1:0|0:0,0:0:0:0:
49,214,252971,1,0,3:0:0:0:
75,222,253087,2,0,L|99:299,1,50,2|0,1:2|0:0,0:0:0:0:
167,291,253317,1,4,3:2:0:0:
256,192,253375,12,6,254240,1:2:0:0:
198,174,260702,6,0,L|185:241,2,50.0000019073487,2|2|2,0:0|0:0|0:0,0:0:0:0:
264,130,261164,2,0,P|319:139|373:96,1,125.000004768372,2|0,0:0|0:0,0:0:0:0:
346,59,261625,6,0,L|352:262,1,200,2|0,0:1|0:0,0:0:0:0:
351,258,263010,6,0,L|346:59,1,200,2|0,0:1|0:0,0:0:0:0:
