osu file format v14

[General]
AudioFilename: audio.mp3
AudioLeadIn: 0
PreviewTime: 46616
Countdown: 1
SampleSet: Normal
StackLeniency: 0.7
Mode: 0
LetterboxInBreaks: 0
WidescreenStoryboard: 1

[Editor]
DistanceSpacing: 2
BeatDivisor: 4
GridSize: 4
TimelineZoom: 1.2

[Metadata]
Title:GIRLS
TitleUnicode:GIRLS
Artist:ave;new feat. Sakura Saori
ArtistUnicode:ave;new feat. 佐倉紗織
Creator:Renka
Version:Love
Source:
Tags:Orb a.k.a.dRESS
BeatmapID:2150865
BeatmapSetID:1028666

[Difficulty]
HPDrainRate:7
CircleSize:7
OverallDifficulty:8
ApproachRate:9.5
SliderMultiplier:1.9
SliderTickRate:1

[Events]
//Background and Video events
0,0,"Konachan.com - 273955 2girls bikini breasts brown_hair cleavage close clouds long_hair original pink_hair ponytail signed sky swimsuit underboob water wink wristwear.jpg",0,0
//Break Periods
//Storyboard Layer 0 (Background)
//Storyboard Layer 1 (Fail)
//Storyboard Layer 2 (Pass)
//Storyboard Layer 3 (Foreground)
//Storyboard Layer 4 (Overlay)
//Storyboard Sound Samples

[TimingPoints]
13318,461.538461538462,4,1,0,70,1,0
31775,-100,4,1,0,80,0,1
45625,-100,4,1,0,70,0,0
46548,-100,4,1,0,90,0,1
76087,-100,4,1,0,90,0,0
79779,-100,4,1,0,60,0,0

[Colours]
Combo1 : 128,255,0
Combo2 : 255,128,255
Combo3 : 128,255,255
Combo4 : 255,255,128

[HitObjects]
128,268,11471,5,4,0:0:0:0:
256,192,11702,12,0,13087,0:0:0:0:
382,204,13313,6,0,P|350:249|345:311,1,95,8|0,0:0|0:0,0:0:0:0:
209,240,13779,5,8,0:0:0:0:
237,202,13894,1,8,0:0:0:0:
250,155,14010,1,8,0:0:0:0:
238,110,14125,1,0,0:0:0:0:
285,99,14241,2,0,L|355:82,3,47.5,8|0|8|0,0:0|0:0|0:0|0:0,0:0:0:0:
377,76,14702,5,8,0:0:0:0:
424,68,14817,1,8,0:0:0:0:
470,84,14933,1,8,0:0:0:0:
484,132,15048,1,0,0:0:0:0:
474,181,15164,2,0,L|459:227,2,47.5,8|8|0,0:0|0:0|0:0,0:0:0:0:
436,148,15510,1,0,0:0:0:0:
397,181,15625,2,0,L|353:141,2,47.5,8|8|0,0:0|0:0|0:0,0:0:0:0:
412,226,15971,1,0,0:0:0:0:
256,192,16087,12,0,16779,0:0:0:0:
80,224,17010,5,4,0:0:0:0:
189,311,17241,1,0,0:0:0:0:
299,196,17471,2,0,P|274:169|200:166,1,95,8|0,0:0|0:0,0:0:0:0:
80,224,17933,1,8,0:0:0:0:
90,48,18164,1,0,0:0:0:0:
90,48,18279,1,0,0:0:0:0:
90,48,18394,2,8,P|140:68|204:52,1,95,0|8,0:0|0:0,0:0:0:0:
326,15,18856,5,0,0:0:0:0:
379,117,19087,1,0,0:0:0:0:
276,62,19318,1,8,0:0:0:0:
390,49,19548,1,0,0:0:0:0:
297,130,19779,1,8,0:0:0:0:
297,130,19894,2,0,P|303:173|276:234,1,95
278,239,20241,2,0,P|276:288|316:326,1,95,8|0,0:0|0:0,0:0:0:0:
337,333,20587,1,8,0:0:0:0:
370,325,20702,1,4,0:0:0:0:
178,87,21164,5,8,0:0:0:0:
109,161,21394,1,0,0:0:0:0:
14,147,21625,2,0,L|29:241,1,95,8|0,0:0|0:0,0:0:0:0:
108,339,22087,1,8,0:0:0:0:
151,222,22318,2,0,P|197:210|242:222,1,95,0|8,0:0|0:0,0:0:0:0:
375,314,22779,2,0,P|330:326|285:314,1,95,0|8,0:0|0:0,0:0:0:0:
336,214,23241,1,0,0:0:0:0:
442,235,23471,5,8,0:0:0:0:
440,216,23587,2,0,P|409:136|379:116,1,95
387,122,23933,1,8,0:0:0:0:
337,215,24164,1,0,0:0:0:0:
323,66,24394,6,0,P|273:58|214:41,1,95,12|0,0:0|0:0,0:0:0:0:
211,41,24741,1,0,0:0:0:0:
194,30,24856,1,8,0:0:0:0:
59,61,25087,1,0,0:0:0:0:
59,215,25318,2,0,P|124:217|178:234,1,95,8|0,0:0|0:0,0:0:0:0:
175,233,25664,2,0,P|222:243|269:243,1,95,8|8,0:0|0:0,0:0:0:0:
292,235,26010,1,0,0:0:0:0:
239,140,26241,5,8,0:0:0:0:
346,185,26471,1,0,0:0:0:0:
364,222,26587,1,0,0:0:0:0:
358,263,26702,1,8,0:0:0:0:
255,345,26933,1,0,0:0:0:0:
430,340,27164,1,8,0:0:0:0:
440,315,27279,2,0,L|452:218,1,95
461,195,27625,1,8,0:0:0:0:
433,56,27856,1,0,0:0:0:0:
314,155,28087,6,0,P|230:193|148:153,1,190,12|8,0:0|0:0,0:0:0:0:
231,83,28779,1,0,0:0:0:0:
128,41,29010,2,0,B|74:19|74:19|22:19,2,95,8|0|8,0:0|0:0|0:0,0:0:0:0:
148,153,29702,2,0,B|160:202|160:202|148:245,1,95,0|8,0:0|0:0,0:0:0:0:
31,245,30164,2,0,B|19:203|19:203|31:154,1,95,0|8,0:0|0:0,0:0:0:0:
135,43,30625,1,0,0:0:0:0:
300,39,30856,2,0,L|287:163,1,95,8|0,0:0|0:0,0:0:0:0:
213,39,31318,1,8,0:0:0:0:
213,39,31433,1,0,0:0:0:0:
213,39,31548,1,8,0:0:0:0:
213,39,31664,1,8,0:0:0:0:
213,39,31779,6,0,L|226:163,1,95,4|0,0:0|0:0,0:0:0:0:
226,164,32125,1,0,0:0:0:0:
228,193,32241,1,8,0:0:0:0:
247,351,32471,1,8,0:0:0:0:
90,296,32702,1,8,0:0:0:0:
119,298,32818,2,0,P|197:284|249:253,1,95
235,262,33164,1,8,0:0:0:0:
141,144,33394,1,8,0:0:0:0:
278,45,33625,6,0,P|353:63|389:54,1,95
397,52,33971,1,0,0:0:0:0:
419,33,34087,1,8,0:0:0:0:
319,157,34318,1,0,0:0:0:0:
430,272,34548,1,8,0:0:0:0:
401,273,34664,2,0,P|324:301|297:330,1,95
297,332,35010,1,8,0:0:0:0:
166,354,35241,1,0,0:0:0:0:
30,286,35471,6,0,B|66:268|66:268|94:182,1,95,4|0,0:0|0:0,0:0:0:0:
94,187,35818,1,0,0:0:0:0:
101,159,35933,1,8,0:0:0:0:
181,32,36164,1,0,0:0:0:0:
243,173,36394,1,8,0:0:0:0:
255,201,36510,2,0,P|275:259|264:309,1,95
262,319,36856,1,8,0:0:0:0:
372,352,37087,2,0,L|479:332,1,95,0|8,0:0|0:0,0:0:0:0:
497,328,37433,5,0,0:0:0:0:
356,235,37664,1,0,0:0:0:0:
361,208,37779,2,0,L|381:101,1,95,8|8,0:0|0:0,0:0:0:0:
383,84,38125,1,0,0:0:0:0:
389,53,38241,2,0,P|347:35|303:52,1,95,8|0,0:0|0:0,0:0:0:0:
94,53,38702,2,0,P|137:37|180:55,1,95,8|0,0:0|0:0,0:0:0:0:
186,85,39048,1,0,0:0:0:0:
191,114,39164,6,0,L|207:208,1,95,4|0,0:0|0:0,0:0:0:0:
199,237,39510,1,0,0:0:0:0:
191,265,39625,1,8,0:0:0:0:
192,371,39856,1,0,0:0:0:0:
305,307,40087,1,8,0:0:0:0:
329,286,40202,2,0,B|367:251|367:251|397:180,1,95
391,181,40548,1,8,0:0:0:0:
225,173,40779,1,0,0:0:0:0:
111,198,41010,6,0,P|109:149|148:89,1,95,8|8,0:0|0:0,0:0:0:0:
149,84,41356,1,0,0:0:0:0:
179,74,41471,1,8,0:0:0:0:
294,23,41702,1,0,0:0:0:0:
323,28,41818,1,0,0:0:0:0:
352,33,41933,1,0,0:0:0:0:
382,33,42048,2,0,L|518:21,1,95
507,20,42394,1,8,0:0:0:0:
444,160,42625,1,0,0:0:0:0:
484,308,42856,6,0,L|382:338,1,95,12|0,0:0|0:0,0:0:0:0:
364,344,43202,1,0,0:0:0:0:
336,353,43318,1,8,0:0:0:0:
365,203,43548,1,0,0:0:0:0:
219,245,43779,1,8,0:0:0:0:
193,231,43894,2,0,B|152:209|152:209|104:209,1,95,8|0,0:0|0:0,0:0:0:0:
73,212,44241,1,8,0:0:0:0:
244,362,44471,1,0,0:0:0:0:
276,349,44587,1,0,0:0:0:0:
308,337,44702,5,8,0:0:0:0:
336,353,44818,2,0,B|378:376|378:376|426:376,1,95,0|8,0:0|0:0,0:0:0:0:
456,372,45164,1,8,0:0:0:0:
434,226,45394,1,0,0:0:0:0:
377,118,45625,2,0,L|408:13,1,95,8|0,0:0|0:0,0:0:0:0:
135,118,46087,2,0,L|104:13,1,95,8|0,0:0|0:0,0:0:0:0:
256,218,46548,6,0,L|256:324,1,95,12|0,0:0|0:0,0:0:0:0:
257,348,46894,1,0,0:0:0:0:
256,384,47010,1,8,0:0:0:0:
154,237,47241,1,0,0:0:0:0:
29,265,47471,1,8,0:0:0:0:
26,231,47587,1,8,0:0:0:0:
36,198,47702,2,0,P|59:157|97:130,1,95,0|8,0:0|0:0,0:0:0:0:
87,28,48164,6,0,B|125:51|125:51|212:47,1,95,0|8,0:0|0:0,0:0:0:0:
207,46,48510,1,0,0:0:0:0:
236,43,48625,2,0,B|287:41|287:41|325:64,1,95,0|8,0:0|0:0,0:0:0:0:
156,232,49087,2,0,B|154:182|154:182|177:144,1,95,0|8,0:0|0:0,0:0:0:0:
196,118,49433,1,0,0:0:0:0:
311,201,49664,1,0,0:0:0:0:
338,181,49779,2,0,P|399:168|434:175,1,95,8|8,0:0|0:0,0:0:0:0:
455,180,50125,1,8,0:0:0:0:
478,193,50241,5,4,0:0:0:0:
384,301,50471,1,0,0:0:0:0:
351,315,50587,1,0,0:0:0:0:
317,309,50702,1,8,0:0:0:0:
164,321,50933,1,0,0:0:0:0:
38,206,51164,2,0,B|82:201|82:201|132:211,1,95,8|0,0:0|0:0,0:0:0:0:
164,218,51510,1,8,0:0:0:0:
196,227,51625,5,8,0:0:0:0:
318,59,51856,1,0,0:0:0:0:
121,123,52087,1,8,0:0:0:0:
318,187,52318,1,0,0:0:0:0:
196,19,52548,1,8,0:0:0:0:
196,227,52779,1,8,0:0:0:0:
318,59,53010,2,0,B|369:65|369:65|425:52,1,95,8|0,0:0|0:0,0:0:0:0:
445,43,53356,1,0,0:0:0:0:
478,32,53471,1,8,0:0:0:0:
436,173,53702,1,0,0:0:0:0:
472,305,53933,5,12,0:0:0:0:
440,311,54048,1,0,0:0:0:0:
408,319,54164,2,0,L|315:338,1,95,0|8,0:0|0:0,0:0:0:0:
203,319,54625,1,0,0:0:0:0:
219,166,54856,2,0,P|191:204|147:222,1,95,8|0,0:0|0:0,0:0:0:0:
112,226,55202,1,0,0:0:0:0:
79,216,55318,1,8,0:0:0:0:
122,102,55548,5,8,0:0:0:0:
122,102,55664,1,0,0:0:0:0:
122,102,55779,2,0,B|152:61|152:61|157:13,1,95,8|0,0:0|0:0,0:0:0:0:
253,82,56241,2,0,B|223:123|223:123|218:171,1,95,8|0,0:0|0:0,0:0:0:0:
333,185,56702,1,8,0:0:0:0:
350,157,56818,1,0,0:0:0:0:
438,16,57048,1,0,0:0:0:0:
423,45,57164,2,0,L|460:179,1,95,8|8,0:0|0:0,0:0:0:0:
459,169,57510,1,0,0:0:0:0:
469,204,57625,5,4,0:0:0:0:
511,344,57856,1,0,0:0:0:0:
358,308,58087,1,8,0:0:0:0:
469,204,58318,1,0,0:0:0:0:
358,308,58548,2,0,L|240:305,1,95,8|0,0:0|0:0,0:0:0:0:
121,243,59010,2,0,L|215:245,1,95,8|0,0:0|0:0,0:0:0:0:
352,170,59471,2,0,B|307:195|307:195|282:256,1,95,8|8,0:0|0:0,0:0:0:0:
133,379,59933,2,0,B|178:354|178:354|203:293,1,95,8|0,0:0|0:0,0:0:0:0:
291,61,60394,2,0,B|266:128|266:128|215:128|215:128|180:208,1,190,8|8,0:0|0:0,0:0:0:0:
133,317,61087,1,0,0:0:0:0:
415,165,61318,6,0,L|314:193,1,95,12|0,0:0|0:0,0:0:0:0:
291,202,61664,1,0,0:0:0:0:
259,211,61779,1,8,0:0:0:0:
116,164,62010,1,0,0:0:0:0:
74,29,62241,1,8,0:0:0:0:
101,41,62356,2,0,P|166:61|226:48,1,95
222,54,62702,1,8,0:0:0:0:
379,9,62933,5,8,0:0:0:0:
379,9,63048,1,8,0:0:0:0:
379,9,63164,2,0,B|356:62|363:129,1,95
478,67,63625,1,8,0:0:0:0:
478,67,63741,1,0,0:0:0:0:
478,67,63856,1,0,0:0:0:0:
512,227,64087,1,8,0:0:0:0:
485,215,64202,2,0,P|420:195|360:208,1,95
364,202,64548,1,8,0:0:0:0:
484,330,64779,1,8,0:0:0:0:
449,334,64894,1,0,0:0:0:0:
416,340,65010,6,0,B|371:346|371:346|300:323,1,95,4|0,0:0|0:0,0:0:0:0:
161,295,65471,2,0,B|206:289|206:289|277:312,1,95,8|0,0:0|0:0,0:0:0:0:
88,313,65933,1,8,0:0:0:0:
71,284,66048,2,0,L|91:186,1,95,0|8,0:0|0:0,0:0:0:0:
76,160,66394,1,8,0:0:0:0:
124,41,66625,1,0,0:0:0:0:
260,71,66856,6,0,P|218:105|201:157,1,95,8|0,0:0|0:0,0:0:0:0:
200,176,67202,1,0,0:0:0:0:
210,210,67318,1,8,0:0:0:0:
336,176,67548,1,0,0:0:0:0:
417,46,67779,2,0,B|469:75|441:133|441:133|493:166|441:240,1,190,8|8,0:0|0:0,0:0:0:0:
302,247,68471,1,0,0:0:0:0:
128,378,68702,6,0,L|259:346,1,95,12|0,0:0|0:0,0:0:0:0:
253,345,69048,1,0,0:0:0:0:
285,336,69164,1,8,0:0:0:0:
397,275,69394,1,0,0:0:0:0:
334,161,69625,1,8,0:0:0:0:
306,171,69741,2,0,P|265:191|220:251,1,95
221,256,70087,1,8,0:0:0:0:
387,345,70318,5,8,0:0:0:0:
387,345,70433,1,8,0:0:0:0:
387,345,70548,2,0,B|436:333|436:333|478:349,1,95
319,345,71010,2,0,B|270:333|270:333|229:349,1,95,8|0,0:0|0:0,0:0:0:0:
306,171,71471,1,8,0:0:0:0:
334,161,71587,2,0,P|375:141|420:81,1,95
419,76,71933,1,8,0:0:0:0:
299,35,72164,1,8,0:0:0:0:
299,35,72279,1,0,0:0:0:0:
299,35,72394,6,0,B|256:44|256:44|184:81,1,95,8|0,0:0|0:0,0:0:0:0:
55,151,72856,1,8,0:0:0:0:
65,322,73087,1,0,0:0:0:0:
232,372,73318,2,0,L|296:265,1,95,8|0,0:0|0:0,0:0:0:0:
500,330,73779,2,0,L|362:346,1,95,8|0,0:0|0:0,0:0:0:0:
222,153,74241,1,12,0:0:0:0:
7,202,74471,1,0,0:0:0:0:
162,358,74702,1,8,0:0:0:0:
222,153,74933,1,0,0:0:0:0:
16,32,75164,2,0,B|194:79|383:9|383:9|315:141|399:145|304:101|332:300|500:332|500:332|607:53|267:25|204:184,1,1282.5,12|0,0:0|0:0,0:0:0:0:
48,112,79318,5,0,0:0:0:0:
48,112,79779,2,0,B|112:176|252:116|272:24|272:24|312:148|436:16|540:72|620:204|472:572|-116:364|160:176|208:100,1,1140
194,120,83010,5,8,0:0:0:0:
194,120,83471,2,0,B|138:210|14:162|10:78|10:78|-2:286|78:366|246:370|302:244|302:244|242:77|415:0|523:118,1,1140
508,33,86702,5,0,0:0:0:0:
508,33,87164,2,0,B|474:163|258:187|210:67|210:67|10:23|-22:167|10:287|10:287|102:175|314:251|278:395,1,1140,4|0,0:0|0:0,0:0:0:0:
192,354,90394,5,8,0:0:0:0:
192,354,90856,2,0,B|141:221|365:81|433:297|433:297|231:311|233:5|433:13|433:13|433:173|205:149|65:21|65:21|129:101|51:194,1,1520,0|4,0:0|0:0,0:0:0:0:
