osu file format v14

[General]
AudioFilename: audio.mp3
AudioLeadIn: 0
PreviewTime: 31779
Countdown: 1
SampleSet: Normal
StackLeniency: 0.7
Mode: 0
LetterboxInBreaks: 0
WidescreenStoryboard: 0

[Editor]
DistanceSpacing: 2
BeatDivisor: 4
GridSize: 4
TimelineZoom: 1.2

[Metadata]
Title:GIRLS
TitleUnicode:GIRLS
Artist:ave;new feat. Sakura Saori
ArtistUnicode:ave;new feat. 佐倉紗織
Creator:Renka
Version:Insane
Source:
Tags:Orb a.k.a.dRESS
BeatmapID:2150864
BeatmapSetID:1028666

[Difficulty]
HPDrainRate:6
CircleSize:5
OverallDifficulty:7
ApproachRate:9
SliderMultiplier:1.9
SliderTickRate:1

[Events]
//Background and Video events
0,0,"Konachan.com - 287782 sample.jpg",0,0
//Break Periods
//Storyboard Layer 0 (Background)
//Storyboard Layer 1 (Fail)
//Storyboard Layer 2 (Pass)
//Storyboard Layer 3 (Foreground)
//Storyboard Layer 4 (Overlay)
//Storyboard Sound Samples

[TimingPoints]
13318,461.538461538462,4,1,0,70,1,0
31775,-100,4,1,0,80,0,1
45625,-100,4,1,0,70,0,0
46548,-100,4,1,0,80,0,1
76087,-100,4,1,0,70,0,0

[Colours]
Combo1 : 128,255,0
Combo2 : 255,128,255
Combo3 : 128,255,255
Combo4 : 255,255,128

[HitObjects]
384,116,11471,5,4,0:0:0:0:
256,192,11702,12,0,13087,0:0:0:0:
130,180,13317,6,0,P|162:135|175:67,1,95,8|0,0:0|0:0,0:0:0:0:
303,144,13779,5,8,0:0:0:0:
275,182,13894,1,8,0:0:0:0:
262,229,14010,1,8,0:0:0:0:
274,274,14125,1,0,0:0:0:0:
227,285,14241,2,0,L|157:302,3,47.5,8|0|8|0,0:0|0:0|0:0|0:0,0:0:0:0:
135,308,14702,5,8,0:0:0:0:
88,316,14817,1,8,0:0:0:0:
42,300,14933,1,8,0:0:0:0:
130,180,15164,2,0,L|155:140,2,47.5,8|8|0,0:0|0:0|0:0,0:0:0:0:
155,9,15625,2,0,L|123:45,2,47.5,8|8|0,0:0|0:0|0:0,0:0:0:0:
256,192,16087,12,0,16779,0:0:0:0:
432,160,17010,5,4,0:0:0:0:
316,96,17241,1,0,0:0:0:0:
213,188,17471,2,0,P|238:215|312:218,1,95,8|0,0:0|0:0,0:0:0:0:
432,160,17933,1,8,0:0:0:0:
435,307,18164,1,0,0:0:0:0:
435,307,18279,2,8,P|376:291|286:303,1,142.5,0|8,0:0|0:0,0:0:0:0:
186,369,18856,5,0,0:0:0:0:
133,267,19087,1,0,0:0:0:0:
236,322,19318,1,8,0:0:0:0:
122,335,19548,1,0,0:0:0:0:
215,254,19779,1,8,0:0:0:0:
215,254,19894,2,0,P|209:211|236:150,1,95
234,145,20241,2,0,P|236:96|196:58,1,95,8|0,0:0|0:0,0:0:0:0:
175,51,20587,1,8,0:0:0:0:
142,59,20702,1,4,0:0:0:0:
334,297,21164,5,8,0:0:0:0:
430,321,21394,1,0,0:0:0:0:
472,238,21625,2,0,L|457:144,1,95,8|0,0:0|0:0,0:0:0:0:
464,36,22087,1,8,0:0:0:0:
375,98,22318,2,0,P|329:110|284:98,1,95,0|8,0:0|0:0,0:0:0:0:
133,74,22779,2,0,P|178:62|223:74,1,95,0|8,0:0|0:0,0:0:0:0:
175,169,23241,1,0,0:0:0:0:
70,149,23471,5,8,0:0:0:0:
72,168,23587,2,0,P|103:248|133:268,1,95
125,262,23933,1,8,0:0:0:0:
175,169,24164,1,0,0:0:0:0:
189,318,24394,6,0,P|239:326|298:343,1,95,12|0,0:0|0:0,0:0:0:0:
301,343,24741,1,0,0:0:0:0:
318,354,24856,1,8,0:0:0:0:
453,323,25087,1,0,0:0:0:0:
453,169,25318,2,0,P|388:167|334:150,1,95,8|0,0:0|0:0,0:0:0:0:
337,151,25664,2,0,P|290:141|243:141,1,95,8|8,0:0|0:0,0:0:0:0:
222,149,26010,1,0,0:0:0:0:
273,244,26241,5,8,0:0:0:0:
166,199,26471,1,0,0:0:0:0:
148,162,26587,1,0,0:0:0:0:
154,121,26702,1,8,0:0:0:0:
257,39,26933,1,0,0:0:0:0:
82,44,27164,1,8,0:0:0:0:
72,69,27279,2,0,L|60:166,1,95
51,189,27625,1,8,0:0:0:0:
79,328,27856,1,0,0:0:0:0:
198,229,28087,6,0,P|282:191|364:231,1,190,12|8,0:0|0:0,0:0:0:0:
281,301,28779,1,0,0:0:0:0:
377,341,29010,2,0,B|431:363|431:363|483:363,2,95,8|0|8,0:0|0:0|0:0,0:0:0:0:
364,231,29702,2,0,B|352:182|352:182|364:139,1,95,0|8,0:0|0:0,0:0:0:0:
481,139,30164,2,0,B|493:181|493:181|481:230,1,95,0|8,0:0|0:0,0:0:0:0:
377,341,30625,1,0,0:0:0:0:
212,345,30856,2,0,L|225:221,1,95,8|0,0:0|0:0,0:0:0:0:
83,124,31318,2,0,L|207:138,1,95,8|0,0:0|0:0,0:0:0:0:
299,345,31779,6,0,L|286:221,1,95,4|0,0:0|0:0,0:0:0:0:
286,220,32125,1,0,0:0:0:0:
284,191,32241,1,8,0:0:0:0:
265,33,32471,1,8,0:0:0:0:
422,88,32702,1,8,0:0:0:0:
393,86,32818,2,0,P|315:100|263:131,1,95
277,122,33164,1,8,0:0:0:0:
358,241,33394,1,8,0:0:0:0:
234,339,33625,6,0,P|159:321|123:330,1,95
115,332,33971,1,0,0:0:0:0:
93,351,34087,1,8,0:0:0:0:
147,213,34318,1,0,0:0:0:0:
82,112,34548,1,8,0:0:0:0:
111,111,34664,2,0,P|188:83|215:54,1,95
215,52,35010,1,8,0:0:0:0:
345,62,35241,1,0,0:0:0:0:
482,98,35471,6,0,B|446:116|446:116|418:202,1,95,4|0,0:0|0:0,0:0:0:0:
418,197,35818,1,0,0:0:0:0:
411,225,35933,1,8,0:0:0:0:
372,348,36164,1,0,0:0:0:0:
269,211,36394,1,8,0:0:0:0:
257,183,36510,2,0,P|237:125|248:75,1,95
250,65,36856,1,8,0:0:0:0:
140,32,37087,2,0,L|33:52,1,95,0|8,0:0|0:0,0:0:0:0:
15,56,37433,5,0,0:0:0:0:
156,149,37664,1,0,0:0:0:0:
151,176,37779,2,0,L|131:283,1,95,8|8,0:0|0:0,0:0:0:0:
129,300,38125,1,0,0:0:0:0:
123,331,38241,2,0,P|165:349|209:332,1,95,8|0,0:0|0:0,0:0:0:0:
365,331,38702,2,0,P|321:347|278:329,1,95,8|0,0:0|0:0,0:0:0:0:
462,296,39164,6,0,L|478:202,1,95,4|0,0:0|0:0,0:0:0:0:
470,173,39510,1,0,0:0:0:0:
464,143,39625,1,8,0:0:0:0:
362,21,39856,1,0,0:0:0:0:
239,96,40087,1,8,0:0:0:0:
220,115,40202,2,0,B|182:150|182:150|152:221,1,95
154,215,40548,1,8,0:0:0:0:
290,209,40779,1,0,0:0:0:0:
401,186,41010,6,0,P|403:235|364:295,1,95,8|8,0:0|0:0,0:0:0:0:
363,300,41356,1,0,0:0:0:0:
333,310,41471,1,8,0:0:0:0:
193,347,41702,2,0,L|239:356,2,47.5,0|8|8,0:0|0:0|0:0,0:0:0:0:
162,349,42048,2,0,L|26:361,1,95
37,362,42394,1,8,0:0:0:0:
115,221,42625,1,0,0:0:0:0:
39,108,42856,6,0,L|141:78,1,95,12|0,0:0|0:0,0:0:0:0:
159,72,43202,1,0,0:0:0:0:
187,63,43318,1,8,0:0:0:0:
171,186,43548,1,0,0:0:0:0:
293,139,43779,1,8,0:0:0:0:
319,153,43894,2,0,B|360:175|360:175|408:175,1,95,8|0,0:0|0:0,0:0:0:0:
439,172,44241,1,8,0:0:0:0:
398,32,44471,1,0,0:0:0:0:
213,77,44702,5,8,0:0:0:0:
187,63,44818,2,0,B|145:40|145:40|97:40,1,95,0|8,0:0|0:0,0:0:0:0:
67,44,45164,1,8,0:0:0:0:
107,163,45394,1,0,0:0:0:0:
177,264,45625,2,0,L|146:369,1,95,8|0,0:0|0:0,0:0:0:0:
347,264,46087,2,0,L|378:369,1,95,8|0,0:0|0:0,0:0:0:0:
256,191,46548,6,0,L|256:85,1,95,12|0,0:0|0:0,0:0:0:0:
255,61,46894,1,0,0:0:0:0:
256,25,47010,1,8,0:0:0:0:
358,147,47241,1,0,0:0:0:0:
483,119,47471,1,8,0:0:0:0:
486,153,47587,1,8,0:0:0:0:
476,186,47702,2,0,P|453:227|415:254,1,95,0|8,0:0|0:0,0:0:0:0:
476,353,48164,6,0,B|438:330|438:330|351:334,1,95,0|8,0:0|0:0,0:0:0:0:
187,320,48625,2,0,B|225:343|225:343|276:341,1,95,0|8,0:0|0:0,0:0:0:0:
344,168,49087,2,0,B|346:218|346:218|323:256,1,95,0|8,0:0|0:0,0:0:0:0:
304,284,49433,1,0,0:0:0:0:
201,183,49664,1,0,0:0:0:0:
174,203,49779,2,0,P|113:216|78:209,1,95,8|8,0:0|0:0,0:0:0:0:
57,204,50125,1,8,0:0:0:0:
34,191,50241,5,4,0:0:0:0:
124,110,50471,1,0,0:0:0:0:
247,132,50702,1,8,0:0:0:0:
348,58,50933,1,0,0:0:0:0:
474,178,51164,2,0,B|430:183|430:183|380:173,1,95,8|0,0:0|0:0,0:0:0:0:
348,166,51510,1,8,0:0:0:0:
316,157,51625,5,8,0:0:0:0:
194,325,51856,1,0,0:0:0:0:
391,261,52087,1,8,0:0:0:0:
194,197,52318,1,0,0:0:0:0:
316,365,52548,1,8,0:0:0:0:
316,157,52779,1,8,0:0:0:0:
194,325,53010,2,0,B|143:319|143:319|87:332,1,95,8|0,0:0|0:0,0:0:0:0:
67,341,53356,1,0,0:0:0:0:
34,352,53471,1,8,0:0:0:0:
76,211,53702,1,0,0:0:0:0:
40,79,53933,5,12,0:0:0:0:
72,73,54048,1,0,0:0:0:0:
104,65,54164,2,0,L|197:46,1,95,0|8,0:0|0:0,0:0:0:0:
309,65,54625,1,0,0:0:0:0:
293,218,54856,2,0,P|321:180|365:162,1,95,8|0,0:0|0:0,0:0:0:0:
400,158,55202,1,0,0:0:0:0:
433,168,55318,1,8,0:0:0:0:
390,282,55548,5,8,0:0:0:0:
390,282,55664,1,0,0:0:0:0:
390,282,55779,2,0,B|360:323|360:323|355:371,1,95,8|0,0:0|0:0,0:0:0:0:
259,302,56241,2,0,B|289:261|289:261|294:213,1,95,8|0,0:0|0:0,0:0:0:0:
162,227,56702,1,8,0:0:0:0:
162,227,56818,1,0,0:0:0:0:
89,339,57048,1,0,0:0:0:0:
89,339,57164,2,0,L|52:205,1,95,8|8,0:0|0:0,0:0:0:0:
53,215,57510,1,0,0:0:0:0:
43,180,57625,5,4,0:0:0:0:
1,40,57856,1,0,0:0:0:0:
154,76,58087,1,8,0:0:0:0:
43,180,58318,1,0,0:0:0:0:
154,76,58548,2,0,L|272:79,1,95,8|0,0:0|0:0,0:0:0:0:
391,141,59010,2,0,L|273:138,1,95,8|0,0:0|0:0,0:0:0:0:
160,214,59471,2,0,B|205:189|205:189|230:128,1,95,8|8,0:0|0:0,0:0:0:0:
379,5,59933,2,0,B|334:30|334:30|309:91,1,95,8|0,0:0|0:0,0:0:0:0:
221,323,60394,2,0,B|246:256|246:256|297:256|297:256|332:176,1,190,8|8,0:0|0:0,0:0:0:0:
209,43,61087,1,0,0:0:0:0:
97,219,61318,6,0,L|198:191,1,95,12|0,0:0|0:0,0:0:0:0:
221,182,61664,1,0,0:0:0:0:
253,173,61779,1,8,0:0:0:0:
396,220,62010,1,0,0:0:0:0:
438,355,62241,1,8,0:0:0:0:
411,343,62356,2,0,P|346:323|286:336,1,95
290,330,62702,1,8,0:0:0:0:
133,375,62933,5,8,0:0:0:0:
133,375,63048,1,8,0:0:0:0:
133,375,63164,2,0,B|156:322|149:255,1,95
34,317,63625,1,8,0:0:0:0:
34,317,63741,1,0,0:0:0:0:
34,317,63856,1,0,0:0:0:0:
0,157,64087,1,8,0:0:0:0:
27,169,64202,2,0,P|92:189|152:176,1,95
148,182,64548,1,8,0:0:0:0:
28,54,64779,1,8,0:0:0:0:
63,50,64894,1,0,0:0:0:0:
96,44,65010,6,0,B|141:38|141:38|212:61,1,95,4|0,0:0|0:0,0:0:0:0:
351,89,65471,2,0,B|306:95|306:95|235:72,1,95,8|0,0:0|0:0,0:0:0:0:
424,71,65933,1,8,0:0:0:0:
441,100,66048,2,0,L|421:198,1,95,0|8,0:0|0:0,0:0:0:0:
436,224,66394,1,8,0:0:0:0:
388,343,66625,1,0,0:0:0:0:
252,313,66856,6,0,P|294:279|311:227,1,95,8|0,0:0|0:0,0:0:0:0:
312,208,67202,1,0,0:0:0:0:
302,174,67318,1,8,0:0:0:0:
176,208,67548,1,0,0:0:0:0:
95,337,67779,2,0,B|56:303|74:257|74:257|40:248|14:207|31:159,1,190,8|8,0:0|0:0,0:0:0:0:
210,137,68471,1,0,0:0:0:0:
384,6,68702,6,0,L|253:38,1,95,12|0,0:0|0:0,0:0:0:0:
257,37,69048,1,0,0:0:0:0:
224,43,69164,1,8,0:0:0:0:
115,109,69394,1,0,0:0:0:0:
178,223,69625,1,8,0:0:0:0:
206,213,69741,2,0,P|247:193|292:133,1,95
291,128,70087,1,8,0:0:0:0:
125,39,70318,5,8,0:0:0:0:
125,39,70433,1,8,0:0:0:0:
125,39,70548,2,0,B|76:51|76:51|34:35,1,95
193,39,71010,2,0,B|242:51|242:51|283:35,1,95,8|0,0:0|0:0,0:0:0:0:
206,213,71471,1,8,0:0:0:0:
178,223,71587,2,0,P|137:243|92:303,1,95
93,308,71933,1,8,0:0:0:0:
213,349,72164,1,8,0:0:0:0:
213,349,72279,1,0,0:0:0:0:
213,349,72394,6,0,B|256:340|256:340|328:303,1,95,8|0,0:0|0:0,0:0:0:0:
421,257,72856,1,8,0:0:0:0:
405,113,73087,1,0,0:0:0:0:
280,12,73318,2,0,L|216:119,1,95,8|0,0:0|0:0,0:0:0:0:
36,222,73779,2,0,L|174:206,1,95,8|0,0:0|0:0,0:0:0:0:
290,231,74241,1,12,0:0:0:0:
480,100,74471,1,0,0:0:0:0:
280,12,74702,1,8,0:0:0:0:
290,231,74933,1,0,0:0:0:0:
496,352,75164,2,0,B|318:305|129:375|129:375|197:243|113:239|208:283|180:84|12:52|12:52|-95:331|245:359|308:200,1,1282.5,12|0,0:0|0:0,0:0:0:0:
464,272,79318,5,0,0:0:0:0:
464,272,79779,2,0,B|409:225|263:287|240:360|240:360|176:284|76:368|-28:312|-134:191|40:-188|628:20|373:221|325:287,1,1140
340,268,83010,5,8,0:0:0:0:
340,268,83471,2,0,B|396:178|520:226|524:310|524:310|536:102|456:22|288:18|232:144|232:144|292:311|119:388|11:270,1,1140
0,352,86702,5,0,0:0:0:0:
0,352,87164,2,0,B|34:222|250:198|298:318|298:318|498:362|530:218|498:98|498:98|406:210|194:134|230:-10,1,1140,4|0,0:0|0:0,0:0:0:0:
227,1,90394,5,8,0:0:0:0:
227,1,90856,2,0,B|278:134|54:274|-14:58|-14:58|188:44|186:350|-14:342|-14:342|-14:182|214:206|354:334|354:334|290:254|368:159,1,1520
