osu file format v14

[General]
AudioFilename: audio.mp3
AudioLeadIn: 0
PreviewTime: 39564
Countdown: 0
SampleSet: Soft
StackLeniency: 0.7
Mode: 3
LetterboxInBreaks: 0
SpecialStyle: 0
WidescreenStoryboard: 1

[Editor]
Bookmarks: 3699,10918,18136,25354,32572,39790,61444,68662,75880,83098,90090
DistanceSpacing: 0.3
BeatDivisor: 4
GridSize: 8
TimelineZoom: 1.7

[Metadata]
Title:Cold Voice
TitleUnicode:コールドボイス
Artist:ave;new feat. Sakura Saori
ArtistUnicode:ave;new feat. 佐倉紗織
Creator:Muse Dash
Version:Sya vs. MD's Hard
Source:アメイジング・グレイス -What color is your attribute?-
Tags:Madoka2574 Syadow- Amazing Grace Christmas きゃべつそふと Cabbage Soft 梱枝りこ Korie Riko a.k.a.dress eroge galgame visual novel opening op short version video game japanese
BeatmapID:2399028
BeatmapSetID:1081840

[Difficulty]
HPDrainRate:7.6
CircleSize:4
OverallDifficulty:7.6
ApproachRate:5
SliderMultiplier:1.4
SliderTickRate:1

[Events]
//Background and Video events
0,0,"ev102a.jpg",0,0
Video,-85,"amegure_op.flv"
//Break Periods
//Storyboard Layer 0 (Background)
//Storyboard Layer 1 (Fail)
//Storyboard Layer 2 (Pass)
//Storyboard Layer 3 (Foreground)
//Storyboard Layer 4 (Overlay)
//Storyboard Sound Samples
Sample,24903,0,"LR_Drum Hit Clap Sn.wav",45

[TimingPoints]
3700,451.127819548872,4,2,1,100,1,0
39790,-100,4,2,1,100,0,1
54000,-100,4,2,1,100,0,0
54226,-100,4,2,1,100,0,1
61444,-100,4,2,1,100,0,0
75880,-100,4,2,1,100,0,1
90090,-100,4,2,1,100,0,0

[HitObjects]
448,192,542,128,0,1444:0:0:0:0:
64,192,1444,128,0,1669:0:0:0:0:
192,192,1669,128,0,1895:0:0:0:0:
320,192,1895,128,0,2121:0:0:0:0:
448,192,2121,1,0,0:0:0:0:
64,192,2346,1,0,0:0:0:0:
192,192,2459,1,0,0:0:0:0:
320,192,2572,1,0,0:0:0:0:
448,192,2797,1,0,0:0:0:45:LR_Drum Hit Clap Sn.wav
320,192,2910,1,0,0:0:0:0:
192,192,3023,1,0,0:0:0:45:LR_Drum Hit Clap Sn.wav
64,192,3248,1,0,0:0:0:45:LR_Drum Hit Clap Sn.wav
192,192,3361,1,0,0:0:0:45:LR_Drum Hit Clap Sn.wav
320,192,3474,1,0,0:0:0:45:LR_Drum Hit Clap Sn.wav
64,192,3699,128,2,4376:0:0:0:0:
192,192,3699,1,0,0:0:0:0:
320,192,4151,1,8,0:0:0:0:
448,192,4376,128,0,5504:0:0:0:0:
64,192,5053,1,8,0:0:0:0:
192,192,5504,128,0,6181:0:0:0:0:
448,192,5955,1,8,0:0:0:0:
320,192,6181,128,0,7309:0:0:0:0:
192,192,6857,1,8,0:0:0:0:
448,192,7083,1,2,0:0:0:0:
64,192,7309,1,2,0:0:0:0:
448,192,7309,128,0,7985:0:0:0:0:
320,192,7760,1,8,0:0:0:0:
64,192,7985,128,0,8662:0:0:0:0:
448,192,8662,1,8,0:0:0:0:
320,192,8887,1,0,0:0:0:0:
64,192,9113,1,2,0:0:0:0:
192,192,9113,1,0,0:0:0:0:
320,192,9339,1,0,0:0:0:0:
64,192,9564,1,8,0:0:0:0:
448,192,9564,1,2,0:0:0:0:
192,192,9790,1,0,0:0:0:0:
320,192,10015,1,2,0:0:0:0:
448,192,10015,1,0,0:0:0:0:
320,192,10241,1,2,0:0:0:0:
448,192,10241,1,0,0:0:0:0:
64,192,10466,1,8,0:0:0:0:
192,192,10466,1,2,0:0:0:0:
320,192,10692,1,2,0:0:0:0:
448,192,10692,1,0,0:0:0:0:
64,192,10918,1,0,0:0:0:0:
448,192,10918,1,0,0:0:0:0:
192,192,11143,1,0,0:0:0:0:
320,192,11369,1,0,0:0:0:50:soft-hitclap.wav
64,192,11594,1,0,0:0:0:0:
448,192,11594,1,0,0:0:0:0:
192,192,12045,1,0,0:0:0:0:
320,192,12271,1,0,0:0:0:50:soft-hitclap.wav
64,192,12722,128,0,14527:0:0:0:0:
192,192,14527,1,0,0:0:0:0:
448,192,14527,1,0,0:0:0:0:
320,192,14752,1,0,0:0:0:0:
192,192,14978,1,0,0:0:0:50:soft-hitclap.wav
64,192,15203,1,0,0:0:0:0:
448,192,15203,1,0,0:0:0:0:
320,192,15429,1,0,0:0:0:0:
192,192,15654,1,0,0:0:0:0:
64,192,15880,1,0,0:0:0:50:soft-hitclap.wav
448,192,16331,1,0,0:0:0:0:
192,192,16782,1,0,0:0:0:50:soft-hitclap.wav
192,192,17684,1,0,0:0:0:50:soft-hitclap.wav
320,192,17910,1,2,0:0:0:0:
448,192,17910,1,0,0:0:0:0:
64,192,18136,1,2,0:0:0:0:
192,192,18136,1,4,0:0:0:0:
448,192,18136,1,0,0:0:0:0:
320,192,18361,1,0,0:0:0:0:
192,192,18587,1,8,0:0:0:0:
448,192,18587,1,0,0:0:0:0:
64,192,18812,1,0,0:0:0:0:
320,192,18812,1,0,0:0:0:0:
64,192,19263,1,0,0:0:0:0:
320,192,19489,1,8,0:0:0:0:
448,192,19489,1,0,0:0:0:0:
320,192,19940,128,0,21745:0:0:0:0:
64,192,20391,1,8,0:0:0:0:
192,192,20391,1,0,0:0:0:0:
64,192,21293,1,8,0:0:0:0:
192,192,21293,1,0,0:0:0:0:
64,192,21745,1,2,0:0:0:0:
448,192,21745,1,0,0:0:0:0:
320,192,21970,1,0,0:0:0:0:
64,192,22196,1,8,0:0:0:0:
192,192,22196,1,0,0:0:0:0:
320,192,22421,1,2,0:0:0:0:
448,192,22421,1,0,0:0:0:0:
192,192,22647,1,0,0:0:0:0:
64,192,22872,1,0,0:0:0:0:
320,192,23098,1,8,0:0:0:0:
448,192,23098,1,0,0:0:0:0:
192,192,23549,128,0,24000:0:0:0:0:
320,192,24000,1,8,0:0:0:0:
448,192,24000,1,0,0:0:0:0:
320,192,24226,128,0,24677:0:0:0:0:
192,192,24677,1,0,0:0:0:45:LR_Drum Hit Clap Sn.wav
448,192,24903,1,8,0:0:0:0:
320,192,25015,1,0,0:0:0:45:LR_Drum Hit Clap Sn.wav
64,192,25128,1,2,0:0:0:0:
192,192,25128,1,0,0:0:0:0:
64,192,25805,128,4,26256:0:0:0:0:
192,192,25805,1,8,0:0:0:0:
448,192,25805,1,0,0:0:0:0:
320,192,26256,1,2,0:0:0:0:
448,192,26256,1,0,0:0:0:0:
192,192,26481,1,0,0:0:0:0:
64,192,26707,1,8,0:0:0:0:
320,192,26707,1,2,0:0:0:0:
448,192,26933,1,0,0:0:0:0:
64,192,27158,1,2,0:0:0:0:
192,192,27158,1,0,0:0:0:0:
320,192,27384,1,0,0:0:0:0:
64,192,27609,1,8,0:0:0:0:
448,192,27609,1,2,0:0:0:0:
192,192,27835,1,0,0:0:0:0:
320,192,28060,1,2,0:0:0:0:
448,192,28060,1,0,0:0:0:0:
192,192,28286,1,0,0:0:0:0:
64,192,28512,1,8,0:0:0:0:
448,192,28512,128,2,28963:0:0:0:0:
320,192,28737,128,0,28963:0:0:0:0:
192,192,28963,1,0,0:0:0:0:
64,192,29414,1,8,0:0:0:0:
320,192,29414,1,2,0:0:0:0:
448,192,29414,128,0,29865:0:0:0:0:
64,192,29865,1,0,0:0:0:0:
320,192,30090,1,0,0:0:0:0:
192,192,30316,1,8,0:0:0:0:
448,192,30316,1,2,0:0:0:0:
64,192,30542,1,0,0:0:0:0:
320,192,30767,1,2,0:0:0:0:
448,192,30767,1,0,0:0:0:0:
192,192,30993,1,0,0:0:0:0:
64,192,31218,1,8,0:0:0:0:
448,192,31218,1,2,0:0:0:0:
320,192,31444,1,0,0:0:0:0:
64,192,31669,1,2,0:0:0:0:
192,192,31669,1,0,0:0:0:0:
320,192,31895,1,0,0:0:0:0:
192,192,32121,1,8,0:0:0:0:
448,192,32121,1,2,0:0:0:0:
64,192,32346,1,2,0:0:0:0:
320,192,32346,1,0,0:0:0:0:
64,192,32572,128,2,33023:0:0:0:0:
192,192,32572,1,4,0:0:0:0:
448,192,32572,1,0,0:0:0:0:
320,192,33023,1,8,0:0:0:0:
448,192,33023,1,0,0:0:0:0:
64,192,33248,1,2,0:0:0:0:
192,192,33248,1,0,0:0:0:0:
64,192,33474,1,2,0:0:0:0:
192,192,33474,1,0,0:0:0:0:
320,192,33699,1,0,0:0:0:0:
64,192,33925,1,8,0:0:0:0:
448,192,33925,1,0,0:0:0:0:
192,192,34151,1,0,0:0:0:0:
320,192,34376,1,2,0:0:0:0:
448,192,34376,1,0,0:0:0:0:
192,192,34602,1,0,0:0:0:0:
64,192,34827,1,8,0:0:0:0:
320,192,34827,1,0,0:0:0:0:
192,192,35053,1,2,0:0:0:0:
448,192,35053,1,0,0:0:0:0:
192,192,35278,1,2,0:0:0:0:
448,192,35278,1,0,0:0:0:0:
64,192,35504,1,0,0:0:0:0:
320,192,35730,1,8,0:0:0:0:
448,192,35730,1,0,0:0:0:0:
192,192,35955,1,0,0:0:0:0:
64,192,36181,1,2,0:0:0:0:
320,192,36181,1,4,0:0:0:0:
448,192,36181,1,0,0:0:0:0:
64,192,36632,1,8,0:0:0:0:
192,192,36632,1,2,0:0:0:0:
448,192,36857,1,0,0:0:0:0:
192,192,37083,1,2,0:0:0:0:
320,192,37083,1,0,0:0:0:0:
64,192,37309,1,2,0:0:0:0:
192,192,37421,1,2,0:0:0:0:
320,192,37534,1,8,0:0:0:0:
448,192,37534,1,2,0:0:0:0:
320,192,37760,1,0,0:0:0:45:LR_Drum Hit Clap Sn.wav
64,192,37985,128,2,38211:0:0:0:0:
192,192,37985,1,0,0:0:0:0:
448,192,38211,128,0,38436:0:0:0:45:LR_Drum Hit Clap Sn.wav
64,192,38436,1,8,0:0:0:0:
320,192,38436,128,0,38662:0:0:0:0:
192,192,38662,128,0,38887:0:0:0:45:LR_Drum Hit Clap Sn.wav
448,192,38887,1,2,0:0:0:0:
320,192,39000,1,0,0:0:0:0:
64,192,39113,1,0,0:0:0:0:
192,192,39226,1,2,0:0:0:0:
320,192,39339,1,8,0:0:0:0:
448,192,39339,1,0,0:0:0:0:
64,192,39564,1,2,0:0:0:0:
320,192,39564,1,0,0:0:0:0:
64,192,39790,1,2,0:0:0:0:
192,192,39790,1,4,0:0:0:0:
448,192,39790,1,0,0:0:0:0:
320,192,40015,1,0,0:0:0:0:
64,192,40128,1,0,0:0:0:0:
320,192,40241,1,2,0:0:0:0:
448,192,40241,1,8,0:0:0:0:
192,192,40466,1,0,0:0:0:0:
64,192,40692,1,2,0:0:0:0:
448,192,40692,1,0,0:0:0:0:
192,192,40805,1,0,0:0:0:0:
320,192,40918,1,0,0:0:0:0:
64,192,41143,1,8,0:0:0:0:
192,192,41143,128,2,41594:0:0:0:0:
64,192,41594,1,2,0:0:0:0:
448,192,41594,1,0,0:0:0:0:
320,192,41820,1,0,0:0:0:0:
192,192,41933,1,0,0:0:0:0:
320,192,42045,1,8,0:0:0:0:
448,192,42045,1,2,0:0:0:0:
64,192,42271,1,0,0:0:0:0:
192,192,42271,128,0,42496:0:0:0:0:
320,192,42496,1,2,0:0:0:0:
448,192,42496,128,0,42948:0:0:0:0:
192,192,42722,1,0,0:0:0:0:
64,192,42948,128,8,43399:0:0:0:0:
320,192,42948,1,2,0:0:0:0:
192,192,43173,1,0,0:0:0:0:
320,192,43399,1,2,0:0:0:0:
448,192,43399,1,0,0:0:0:0:
192,192,43624,1,0,0:0:0:0:
448,192,43737,1,0,0:0:0:0:
64,192,43850,1,8,0:0:0:0:
192,192,43850,1,2,0:0:0:0:
320,192,44075,1,0,0:0:0:0:
192,192,44301,1,2,0:0:0:0:
448,192,44301,1,0,0:0:0:0:
320,192,44414,1,0,0:0:0:0:
64,192,44527,1,0,0:0:0:0:
320,192,44752,1,8,0:0:0:0:
448,192,44752,1,2,0:0:0:0:
192,192,44978,1,0,0:0:0:0:
64,192,45203,128,2,46106:0:0:0:0:
320,192,45203,1,0,0:0:0:0:
448,192,45429,1,0,0:0:0:0:
320,192,45542,1,0,0:0:0:0:
192,192,45654,128,8,46106:0:0:0:0:
448,192,45654,1,2,0:0:0:0:
320,192,45880,1,0,0:0:0:0:
320,192,46106,1,2,0:0:0:0:
448,192,46106,128,0,47008:0:0:0:0:
64,192,46331,1,0,0:0:0:0:
192,192,46444,1,0,0:0:0:0:
64,192,46557,1,8,0:0:0:0:
320,192,46557,128,2,47008:0:0:0:0:
192,192,46782,1,0,0:0:0:0:
64,192,47008,1,2,0:0:0:0:
192,192,47008,1,4,0:0:0:0:
64,192,47459,1,8,0:0:0:0:
448,192,47459,1,2,0:0:0:0:
192,192,47684,1,0,0:0:0:0:
320,192,47910,1,2,0:0:0:0:
448,192,47910,1,0,0:0:0:0:
192,192,48136,1,0,0:0:0:0:
64,192,48361,1,8,0:0:0:0:
320,192,48361,1,2,0:0:0:0:
64,192,48587,1,0,0:0:0:0:
448,192,48587,128,0,49038:0:0:0:0:
320,192,48812,1,2,0:0:0:0:
192,192,49038,1,0,0:0:0:0:
64,192,49263,128,8,49489:0:0:0:0:
448,192,49263,1,2,0:0:0:0:
192,192,49489,1,0,0:0:0:0:
320,192,49715,128,2,50166:0:0:0:0:
448,192,49715,1,0,0:0:0:0:
192,192,49940,1,0,0:0:0:0:
64,192,50166,1,8,0:0:0:0:
192,192,50166,128,2,50617:0:0:0:0:
320,192,50391,1,0,0:0:0:0:
64,192,50617,1,2,0:0:0:0:
448,192,50617,1,0,0:0:0:0:
320,192,50842,1,0,0:0:0:45:LR_Drum Hit Clap Sn.wav
64,192,51068,1,8,0:0:0:0:
192,192,51068,1,2,0:0:0:0:
320,192,51293,1,0,0:0:0:45:LR_Drum Hit Clap Sn.wav
448,192,51293,128,0,51745:0:0:0:0:
64,192,51519,1,2,0:0:0:0:
192,192,51745,1,0,0:0:0:45:LR_Drum Hit Clap Sn.wav
320,192,51970,1,8,0:0:0:0:
448,192,51970,1,2,0:0:0:0:
64,192,52083,1,0,0:0:0:45:LR_Drum Hit Clap Sn.wav
192,192,52196,1,0,0:0:0:45:LR_Drum Hit Clap Sn.wav
320,192,52309,1,0,0:0:0:45:LR_Drum Hit Clap Sn.wav
64,192,52421,128,2,53098:0:0:0:0:
448,192,52421,1,0,0:0:0:0:
448,192,52647,1,0,0:0:0:45:LR_Drum Hit Clap Sn.wav
192,192,52872,1,8,0:0:0:0:
320,192,52872,1,2,0:0:0:0:
320,192,53098,1,0,0:0:0:45:LR_Drum Hit Clap Sn.wav
192,192,53324,1,2,0:0:0:0:
448,192,53324,128,0,53775:0:0:0:0:
64,192,53549,1,8,0:0:0:0:
320,192,53662,1,2,0:0:0:0:
64,192,53775,1,8,0:0:0:0:
192,192,53775,1,0,0:0:0:0:
320,192,54000,1,2,0:0:0:0:
192,192,54113,1,0,0:0:0:0:
64,192,54226,1,2,0:0:0:0:
320,192,54226,1,4,0:0:0:0:
448,192,54226,1,0,0:0:0:0:
192,192,54451,1,0,0:0:0:0:
448,192,54564,1,0,0:0:0:0:
64,192,54677,1,8,0:0:0:0:
192,192,54677,1,2,0:0:0:0:
320,192,54903,1,0,0:0:0:0:
64,192,55128,1,2,0:0:0:0:
448,192,55128,1,0,0:0:0:0:
320,192,55241,1,0,0:0:0:0:
192,192,55354,1,0,0:0:0:0:
320,192,55579,128,8,56030:0:0:0:0:
448,192,55579,1,2,0:0:0:0:
64,192,56030,1,2,0:0:0:0:
448,192,56030,1,0,0:0:0:0:
192,192,56256,1,0,0:0:0:0:
320,192,56369,1,0,0:0:0:0:
64,192,56481,1,8,0:0:0:0:
192,192,56481,1,2,0:0:0:0:
320,192,56707,128,0,56933:0:0:0:0:
448,192,56707,1,0,0:0:0:0:
64,192,56933,128,2,57384:0:0:0:0:
192,192,56933,1,0,0:0:0:0:
320,192,57158,1,0,0:0:0:0:
192,192,57384,1,8,0:0:0:0:
448,192,57384,128,2,57835:0:0:0:0:
64,192,57609,1,0,0:0:0:0:
192,192,57835,1,2,0:0:0:0:
320,192,57835,1,0,0:0:0:0:
64,192,58060,1,0,0:0:0:0:
192,192,58173,1,0,0:0:0:0:
320,192,58286,1,8,0:0:0:0:
448,192,58286,1,2,0:0:0:0:
192,192,58512,1,0,0:0:0:0:
64,192,58737,1,2,0:0:0:0:
320,192,58737,1,0,0:0:0:0:
448,192,58850,1,0,0:0:0:0:
192,192,58963,1,0,0:0:0:0:
64,192,59188,1,8,0:0:0:0:
448,192,59188,1,2,0:0:0:0:
320,192,59414,1,0,0:0:0:0:
192,192,59639,1,2,0:0:0:0:
448,192,59639,128,0,60542:0:0:0:0:
64,192,59865,1,0,0:0:0:0:
192,192,59978,1,0,0:0:0:0:
64,192,60090,1,8,0:0:0:0:
320,192,60090,128,2,60542:0:0:0:0:
192,192,60316,1,0,0:0:0:0:
64,192,60542,128,2,60993:0:0:0:0:
192,192,60542,1,0,0:0:0:0:
448,192,60767,1,0,0:0:0:0:
320,192,60993,1,8,0:0:0:0:
448,192,60993,1,2,0:0:0:0:
192,192,61106,1,0,0:0:0:0:
64,192,61218,1,0,0:0:0:0:
320,192,61331,1,0,0:0:0:0:
64,192,61444,1,2,0:0:0:0:
192,192,61444,1,4,0:0:0:0:
448,192,61444,1,0,0:0:0:0:
192,192,61895,1,8,0:0:0:0:
320,192,61895,1,0,0:0:0:0:
64,192,62121,1,2,0:0:0:0:
448,192,62121,1,0,0:0:0:0:
64,192,62346,1,2,0:0:0:0:
448,192,62346,1,0,0:0:0:0:
192,192,62572,1,0,0:0:0:0:
320,192,62797,1,8,0:0:0:0:
448,192,62797,1,0,0:0:0:0:
192,192,63023,1,0,0:0:0:0:
64,192,63248,128,2,63699:0:0:0:0:
448,192,63248,1,0,0:0:0:0:
192,192,63699,1,8,0:0:0:0:
448,192,63699,1,0,0:0:0:0:
64,192,63925,1,2,0:0:0:0:
320,192,63925,1,0,0:0:0:0:
64,192,64151,1,2,0:0:0:0:
320,192,64151,1,0,0:0:0:0:
448,192,64376,1,0,0:0:0:0:
64,192,64602,1,8,0:0:0:0:
192,192,64602,1,0,0:0:0:0:
320,192,64827,1,0,0:0:0:0:
64,192,65053,1,2,0:0:0:0:
448,192,65053,128,0,65504:0:0:0:0:
64,192,65504,1,8,0:0:0:0:
192,192,65504,1,0,0:0:0:0:
320,192,65730,1,2,0:0:0:0:
448,192,65730,1,0,0:0:0:0:
320,192,65955,1,2,0:0:0:0:
448,192,65955,1,0,0:0:0:0:
192,192,66181,1,0,0:0:0:0:
64,192,66406,1,8,0:0:0:0:
448,192,66406,1,0,0:0:0:0:
320,192,66632,1,0,0:0:0:0:
64,192,66857,1,2,0:0:0:0:
192,192,66857,1,4,0:0:0:0:
448,192,66857,128,0,67309:0:0:0:0:
64,192,67309,1,8,0:0:0:0:
192,192,67309,1,0,0:0:0:0:
64,192,67534,128,2,67985:0:0:0:0:
320,192,67534,1,4,0:0:0:0:
448,192,67534,1,0,0:0:0:0:
448,192,67985,1,2,0:0:0:0:
320,192,68098,1,2,0:0:0:0:
64,192,68211,1,8,0:0:0:0:
192,192,68211,1,2,0:0:0:0:
192,192,68436,1,0,0:0:0:0:
64,192,68662,1,2,0:0:0:0:
320,192,68662,1,4,0:0:0:0:
448,192,68662,1,0,0:0:0:0:
192,192,68887,1,0,0:0:0:0:
64,192,69113,1,8,0:0:0:0:
320,192,69113,1,2,0:0:0:0:
448,192,69339,1,0,0:0:0:0:
64,192,69564,1,2,0:0:0:0:
192,192,69564,1,0,0:0:0:0:
320,192,69790,1,0,0:0:0:0:
64,192,70015,1,8,0:0:0:0:
448,192,70015,1,2,0:0:0:0:
192,192,70241,1,2,0:0:0:0:
320,192,70241,1,0,0:0:0:0:
64,192,70466,1,2,0:0:0:0:
320,192,70466,1,4,0:0:0:0:
448,192,70466,128,0,70918:0:0:0:0:
192,192,70692,1,0,0:0:0:45:LR_Drum Hit Clap Sn.wav
64,192,70918,128,8,71369:0:0:0:0:
320,192,70918,1,2,0:0:0:0:
448,192,71143,1,0,0:0:0:45:LR_Drum Hit Clap Sn.wav
192,192,71369,1,2,0:0:0:0:
320,192,71369,128,0,71820:0:0:0:0:
64,192,71594,1,0,0:0:0:45:LR_Drum Hit Clap Sn.wav
192,192,71820,1,8,0:0:0:0:
448,192,71820,128,2,72271:0:0:0:0:
320,192,72045,1,0,0:0:0:45:LR_Drum Hit Clap Sn.wav
64,192,72271,1,2,0:0:0:0:
192,192,72271,1,0,0:0:0:0:
192,192,72496,1,0,0:0:0:0:
320,192,72722,1,0,0:0:0:0:
448,192,72722,1,0,0:0:0:0:
64,192,72948,1,0,0:0:0:0:
192,192,73173,1,0,0:0:0:0:
320,192,73399,1,0,0:0:0:0:
448,192,73624,128,0,73850:0:0:0:0:
64,192,73850,1,0,0:0:0:0:
192,192,74075,128,0,74301:0:0:0:0:
320,192,74301,1,2,0:0:0:0:
448,192,74527,1,0,0:0:0:45:LR_Drum Hit Clap Sn.wav
320,192,74639,1,0,0:0:0:45:LR_Drum Hit Clap Sn.wav
192,192,74752,1,0,0:0:0:45:LR_Drum Hit Clap Sn.wav
64,192,74865,1,0,0:0:0:45:LR_Drum Hit Clap Sn.wav
320,192,74978,1,2,0:0:0:0:
448,192,74978,1,0,0:0:0:0:
192,192,75090,1,2,0:0:0:0:
320,192,75203,1,2,0:0:0:0:
192,192,75316,1,2,0:0:0:0:
64,192,75429,1,2,0:0:0:0:
448,192,75429,1,4,0:0:0:0:
320,192,75654,1,0,0:0:0:0:
64,192,75880,1,2,0:0:0:0:
320,192,75880,1,4,0:0:0:0:
448,192,75880,1,0,0:0:0:0:
192,192,76106,1,0,0:0:0:0:
320,192,76218,1,0,0:0:0:0:
64,192,76331,1,8,0:0:0:0:
192,192,76331,1,2,0:0:0:0:
320,192,76557,1,0,0:0:0:0:
64,192,76782,1,2,0:0:0:0:
448,192,76782,128,0,77233:0:0:0:0:
192,192,77008,1,0,0:0:0:0:
64,192,77233,1,8,0:0:0:0:
320,192,77233,1,2,0:0:0:0:
192,192,77459,1,0,0:0:0:0:
64,192,77684,128,2,78136:0:0:0:0:
448,192,77684,1,0,0:0:0:0:
320,192,77910,1,0,0:0:0:0:
192,192,78136,1,8,0:0:0:0:
448,192,78136,128,2,78587:0:0:0:0:
320,192,78361,1,0,0:0:0:0:
64,192,78587,1,2,0:0:0:0:
192,192,78587,1,0,0:0:0:0:
320,192,78812,1,0,0:0:0:0:
64,192,79038,1,8,0:0:0:0:
448,192,79038,1,2,0:0:0:0:
192,192,79263,1,0,0:0:0:0:
64,192,79489,1,2,0:0:0:0:
448,192,79489,1,0,0:0:0:0:
320,192,79715,1,0,0:0:0:0:
192,192,79827,1,0,0:0:0:0:
320,192,79940,1,8,0:0:0:0:
448,192,79940,1,2,0:0:0:0:
192,192,80166,1,0,0:0:0:0:
64,192,80391,128,2,80842:0:0:0:0:
448,192,80391,1,0,0:0:0:0:
320,192,80617,1,0,0:0:0:0:
192,192,80842,1,8,0:0:0:0:
448,192,80842,1,2,0:0:0:0:
320,192,81068,1,0,0:0:0:0:
64,192,81293,128,2,81519:0:0:0:0:
192,192,81293,1,0,0:0:0:0:
320,192,81519,128,0,81745:0:0:0:0:
192,192,81745,1,8,0:0:0:0:
448,192,81745,128,2,81970:0:0:0:0:
64,192,81970,128,0,82196:0:0:0:0:
192,192,82196,128,2,82421:0:0:0:0:
320,192,82196,1,0,0:0:0:0:
448,192,82421,128,0,82647:0:0:0:0:
64,192,82647,128,8,83098:0:0:0:0:
320,192,82647,1,2,0:0:0:0:
192,192,82872,1,0,0:0:0:0:
192,192,83098,1,2,0:0:0:0:
320,192,83098,1,4,0:0:0:0:
448,192,83098,1,0,0:0:0:0:
448,192,83324,1,0,0:0:0:0:
192,192,83436,1,0,0:0:0:0:
64,192,83549,1,8,0:0:0:0:
320,192,83549,1,2,0:0:0:0:
192,192,83775,128,0,84000:0:0:0:0:
320,192,84000,1,2,0:0:0:0:
448,192,84000,128,0,84226:0:0:0:0:
192,192,84226,128,0,84451:0:0:0:0:
64,192,84451,1,8,0:0:0:0:
448,192,84451,128,2,84903:0:0:0:0:
320,192,84677,1,0,0:0:0:0:
64,192,84903,1,2,0:0:0:0:
192,192,84903,1,0,0:0:0:0:
320,192,85128,1,0,0:0:0:0:
192,192,85241,1,0,0:0:0:0:
64,192,85354,1,8,0:0:0:0:
448,192,85354,1,2,0:0:0:0:
320,192,85579,128,0,85805:0:0:0:0:
64,192,85805,128,2,86030:0:0:0:0:
192,192,85805,1,0,0:0:0:0:
320,192,86030,128,0,86256:0:0:0:0:
64,192,86256,128,8,86707:0:0:0:0:
448,192,86256,1,2,0:0:0:0:
192,192,86481,1,0,0:0:0:0:
320,192,86707,1,2,0:0:0:0:
448,192,86707,1,0,0:0:0:0:
192,192,86933,1,0,0:0:0:45:LR_Drum Hit Clap Sn.wav
448,192,87045,1,0,0:0:0:0:
64,192,87158,1,8,0:0:0:0:
320,192,87158,1,2,0:0:0:0:
192,192,87384,128,0,87609:0:0:0:45:LR_Drum Hit Clap Sn.wav
448,192,87384,1,0,0:0:0:0:
64,192,87609,1,2,0:0:0:0:
320,192,87609,128,0,87835:0:0:0:0:
192,192,87835,1,0,0:0:0:45:LR_Drum Hit Clap Sn.wav
448,192,87835,128,0,88060:0:0:0:0:
64,192,88060,128,8,88512:0:0:0:0:
320,192,88060,1,2,0:0:0:0:
192,192,88286,1,0,0:0:0:45:LR_Drum Hit Clap Sn.wav
320,192,88512,1,2,0:0:0:0:
448,192,88512,1,0,0:0:0:0:
192,192,88624,1,0,0:0:0:45:LR_Drum Hit Clap Sn.wav
448,192,88737,1,0,0:0:0:45:LR_Drum Hit Clap Sn.wav
192,192,88850,1,0,0:0:0:45:LR_Drum Hit Clap Sn.wav
64,192,88963,1,8,0:0:0:0:
448,192,88963,1,2,0:0:0:0:
320,192,89075,1,0,0:0:0:45:LR_Drum Hit Clap Sn.wav
64,192,89188,1,0,0:0:0:45:LR_Drum Hit Clap Sn.wav
320,192,89301,1,0,0:0:0:45:LR_Drum Hit Clap Sn.wav
64,192,89414,1,2,0:0:0:0:
192,192,89414,1,0,0:0:0:0:
320,192,89639,1,2,0:0:0:0:
448,192,89639,1,0,0:0:0:0:
64,192,89865,1,2,0:0:0:0:
192,192,89865,1,0,0:0:0:0:
320,192,90090,1,2,0:0:0:0:
448,192,90090,1,0,0:0:0:0:
64,192,90203,1,0,0:0:0:0:
192,192,90316,1,0,0:0:0:0:
320,192,90429,1,0,0:0:0:0:
448,192,90542,1,0,0:0:0:0:
192,192,90654,1,0,0:0:0:0:
320,192,90767,1,0,0:0:0:0:
64,192,90880,1,0,0:0:0:0:
192,192,90993,1,0,0:0:0:0:
448,192,91106,1,0,0:0:0:0:
320,192,91218,1,0,0:0:0:0:
192,192,91331,1,0,0:0:0:0:
64,192,91444,1,0,0:0:0:0:
320,192,91557,1,0,0:0:0:0:
192,192,91669,1,0,0:0:0:0:
448,192,91782,1,0,0:0:0:0:
320,192,91895,1,0,0:0:0:0:
64,192,92008,1,0,0:0:0:0:
192,192,92121,1,0,0:0:0:0:
320,192,92233,1,0,0:0:0:0:
448,192,92346,1,0,0:0:0:0:
192,192,92459,1,0,0:0:0:0:
320,192,92572,1,0,0:0:0:0:
64,192,92684,1,0,0:0:0:0:
192,192,92797,1,0,0:0:0:0:
448,192,92910,1,0,0:0:0:0:
320,192,93023,1,0,0:0:0:0:
192,192,93136,1,0,0:0:0:0:
64,192,93248,1,0,0:0:0:0:
320,192,93361,1,0,0:0:0:0:
192,192,93474,1,0,0:0:0:0:
448,192,93587,1,0,0:0:0:0:
320,192,93699,1,0,0:0:0:0:
64,192,93812,1,0,0:0:0:0:
448,192,93925,1,0,0:0:0:0:
320,192,94151,1,0,0:0:0:0:
192,192,94376,1,0,0:0:0:0:
64,192,94602,1,0,0:0:0:0:
320,192,94827,1,0,0:0:0:0:
192,192,95053,1,0,0:0:0:0:
448,192,95278,1,0,0:0:0:0:
320,192,95504,1,0,0:0:0:0:
64,192,95730,1,0,0:0:0:0:
192,192,95955,1,0,0:0:0:0:
320,192,96181,1,0,0:0:0:0:
448,192,96406,1,0,0:0:0:0:
192,192,96632,1,0,0:0:0:0:
320,192,96857,1,0,0:0:0:0:
64,192,97083,1,0,0:0:0:0:
192,192,97309,1,0,0:0:0:0:
448,192,97534,1,0,0:0:0:0:
