osu file format v14

[General]
AudioFilename: audio.mp3
AudioLeadIn: 0
PreviewTime: 39564
Countdown: 0
SampleSet: Soft
StackLeniency: 0.7
Mode: 3
LetterboxInBreaks: 0
SpecialStyle: 0
WidescreenStoryboard: 1

[Editor]
Bookmarks: 3699,10918,18136,25354,32572,39790,61444,68662,75880,83098,90090
DistanceSpacing: 0.3
BeatDivisor: 4
GridSize: 8
TimelineZoom: 1.7

[Metadata]
Title:Cold Voice
TitleUnicode:コールドボイス
Artist:ave;new feat. Sakura Saori
ArtistUnicode:ave;new feat. 佐倉紗織
Creator:Muse Dash
Version:Madoka's Amazing Grace
Source:アメイジング・グレイス -What color is your attribute?-
Tags:Madoka2574 Syadow- Amazing Grace Christmas きゃべつそふと Cabbage Soft 梱枝りこ Korie Riko a.k.a.dress eroge galgame visual novel opening op short version video game japanese
BeatmapID:2267321
BeatmapSetID:1081840

[Difficulty]
HPDrainRate:8
CircleSize:4
OverallDifficulty:8
ApproachRate:5
SliderMultiplier:1.4
SliderTickRate:1

[Events]
//Background and Video events
0,0,"ev102d.jpg",0,0
Video,-85,"amegure_op.flv"
//Break Periods
//Storyboard Layer 0 (Background)
//Storyboard Layer 1 (Fail)
//Storyboard Layer 2 (Pass)
//Storyboard Layer 3 (Foreground)
//Storyboard Layer 4 (Overlay)
//Storyboard Sound Samples
Sample,24903,0,"LR_Drum Hit Clap Sn.wav",45

[TimingPoints]
3700,451.127819548872,4,2,1,100,1,0
9113,-166.666666666667,4,2,1,100,0,0
9339,-125.0,4,2,1,100,0,0
9395,-100.0,4,2,1,100,0,0
9451,-83.3333333333333,4,2,1,100,0,0
9508,-71.4285714285714,4,2,1,100,0,0
9564,-166.666666666667,4,2,1,100,0,0
9790,-125.0,4,2,1,100,0,0
9846,-100.0,4,2,1,100,0,0
9903,-83.3333333333333,4,2,1,100,0,0
9959,-71.4285714285714,4,2,1,100,0,0
10015,-166.666666666667,4,2,1,100,0,0
10128,-83.3333333333333,4,2,1,100,0,0
10241,-166.666666666667,4,2,1,100,0,0
10354,-83.3333333333333,4,2,1,100,0,0
10466,-166.666666666667,4,2,1,100,0,0
10579,-83.3333333333333,4,2,1,100,0,0
10692,-166.666666666667,4,2,1,100,0,0
10805,-83.3333333333333,4,2,1,100,0,0
10918,-100.0,4,2,1,100,0,0
25128,-66.6666666666667,4,2,1,100,0,0
25241,-200.0,4,2,1,100,0,0
25466,-142.857142857143,4,2,1,100,0,0
25579,-100.0,4,2,1,100,0,0
25692,-62.5,4,2,1,100,0,0
25805,-100.0,4,2,1,100,0,0
28963,-200.0,4,2,1,100,0,0
29075,-142.857142857143,4,2,1,100,0,0
29188,-100.0,4,2,1,100,0,0
29301,-62.5,4,2,1,100,0,0
29414,-100.0,4,2,1,100,0,0
39790,-100.0,4,2,1,100,0,1
54000,-100.0,4,2,1,100,0,0
54226,-100.0,4,2,1,100,0,1
61444,-100.0,4,2,1,100,0,0
75880,-100.0,4,2,1,100,0,1
89414,-166.666666666667,4,2,1,100,0,1
89527,-83.3333333333333,4,2,1,100,0,1
89639,-166.666666666667,4,2,1,100,0,1
89752,-83.3333333333333,4,2,1,100,0,1
89865,-166.666666666667,4,2,1,100,0,1
89978,-62.5,4,2,1,100,0,1
90090,-100.0,4,2,1,100,0,0

[HitObjects]
320,192,542,128,0,1444:0:0:0:0:
64,192,1444,1,0,0:0:0:0:
192,192,1669,1,0,0:0:0:0:
320,192,1895,1,0,0:0:0:0:
192,192,2008,1,0,0:0:0:0:
448,192,2121,1,0,0:0:0:0:
320,192,2233,1,0,0:0:0:0:
64,192,2346,1,0,0:0:0:0:
448,192,2459,1,0,0:0:0:0:
192,192,2572,1,0,0:0:0:0:
320,192,2797,1,0,0:0:0:45:LR_Drum Hit Clap Sn.wav
64,192,2910,1,0,0:0:0:0:
320,192,3023,1,0,0:0:0:45:LR_Drum Hit Clap Sn.wav
192,192,3248,1,0,0:0:0:45:LR_Drum Hit Clap Sn.wav
448,192,3361,1,0,0:0:0:45:LR_Drum Hit Clap Sn.wav
192,192,3474,1,0,0:0:0:45:LR_Drum Hit Clap Sn.wav
64,192,3699,1,2,0:0:0:0:
320,192,3699,1,0,0:0:0:0:
448,192,3699,128,0,4038:0:0:0:0:
320,192,4038,128,0,4376:0:0:0:0:
64,192,4151,1,8,0:0:0:0:
192,192,4151,1,0,0:0:0:0:
192,192,4376,128,0,4715:0:0:0:0:
448,192,4715,128,0,5053:0:0:0:0:
64,192,5053,128,8,5504:0:0:0:0:
320,192,5053,1,0,0:0:0:0:
192,192,5504,1,0,0:0:0:0:
448,192,5504,128,0,5842:0:0:0:0:
64,192,5842,128,0,6181:0:0:0:0:
192,192,5955,1,8,0:0:0:0:
320,192,5955,1,0,0:0:0:0:
448,192,6181,128,0,6519:0:0:0:0:
320,192,6519,128,0,6857:0:0:0:0:
64,192,6857,128,8,7309:0:0:0:0:
192,192,6857,1,0,0:0:0:0:
320,192,7083,1,2,0:0:0:0:
448,192,7083,1,0,0:0:0:0:
320,192,7309,128,2,7647:0:0:0:0:
448,192,7309,1,0,0:0:0:0:
64,192,7647,128,0,7985:0:0:0:0:
192,192,7760,1,8,0:0:0:0:
448,192,7760,1,0,0:0:0:0:
320,192,7985,128,0,8324:0:0:0:0:
448,192,8324,128,0,8662:0:0:0:0:
64,192,8662,1,8,0:0:0:0:
192,192,8662,128,0,9113:0:0:0:0:
320,192,8887,128,0,9113:0:0:0:0:
64,192,9113,1,2,0:0:0:0:
448,192,9113,1,0,0:0:0:0:
192,192,9564,1,8,0:0:0:0:
448,192,9564,1,2,0:0:0:0:
64,192,10015,1,2,0:0:0:0:
320,192,10015,1,0,0:0:0:0:
192,192,10241,1,2,0:0:0:0:
448,192,10241,1,0,0:0:0:0:
64,192,10466,1,8,0:0:0:0:
448,192,10466,1,2,0:0:0:0:
192,192,10692,1,2,0:0:0:0:
320,192,10692,1,0,0:0:0:0:
64,192,10918,1,0,0:0:0:0:
448,192,10918,1,0,0:0:0:0:
192,192,11143,1,0,0:0:0:0:
320,192,11369,1,0,0:0:0:50:soft-hitclap.wav
64,192,11594,1,0,0:0:0:0:
448,192,11594,1,0,0:0:0:0:
192,192,12045,1,0,0:0:0:0:
64,192,12271,1,0,0:0:0:50:soft-hitclap.wav
320,192,12496,1,0,0:0:0:0:
448,192,12722,128,0,13060:0:0:0:0:
320,192,13060,128,0,13399:0:0:0:0:
192,192,13399,128,0,13850:0:0:0:0:
64,192,13850,1,0,0:0:0:0:
192,192,14075,1,0,0:0:0:50:soft-hitclap.wav
320,192,14301,1,0,0:0:0:0:
64,192,14527,1,0,0:0:0:0:
448,192,14527,1,0,0:0:0:0:
192,192,14752,1,0,0:0:0:0:
320,192,14978,1,0,0:0:0:50:soft-hitclap.wav
192,192,15203,1,0,0:0:0:0:
448,192,15203,1,0,0:0:0:0:
64,192,15429,1,0,0:0:0:0:
320,192,15654,1,0,0:0:0:0:
64,192,15880,128,0,16331:0:0:0:50:soft-hitclap.wav
448,192,15880,1,0,0:0:0:0:
448,192,16331,128,0,16557:0:0:0:0:
192,192,16557,128,0,17008:0:0:0:0:
320,192,17008,128,0,17459:0:0:0:0:
448,192,17459,128,0,17684:0:0:0:0:
64,192,17684,128,0,18136:0:0:0:50:soft-hitclap.wav
320,192,17910,1,2,0:0:0:0:
448,192,17910,1,0,0:0:0:0:
192,192,18136,1,2,0:0:0:0:
320,192,18136,1,4,0:0:0:0:
448,192,18136,1,0,0:0:0:0:
64,192,18361,1,0,0:0:0:0:
192,192,18587,1,8,0:0:0:0:
320,192,18587,1,0,0:0:0:0:
64,192,18812,1,0,0:0:0:0:
448,192,18812,1,0,0:0:0:0:
192,192,19038,1,0,0:0:0:0:
320,192,19263,1,0,0:0:0:0:
64,192,19489,1,8,0:0:0:0:
448,192,19489,1,0,0:0:0:0:
192,192,19940,1,0,0:0:0:0:
448,192,20166,128,0,20617:0:0:0:0:
64,192,20391,1,8,0:0:0:0:
320,192,20391,1,0,0:0:0:0:
192,192,20617,128,0,21068:0:0:0:0:
64,192,21293,1,8,0:0:0:0:
448,192,21293,128,0,21745:0:0:0:0:
64,192,21745,128,2,22196:0:0:0:0:
320,192,21745,1,0,0:0:0:0:
192,192,21970,1,0,0:0:0:0:
320,192,22196,1,8,0:0:0:0:
448,192,22196,1,0,0:0:0:0:
64,192,22421,1,2,0:0:0:0:
320,192,22421,128,0,22872:0:0:0:0:
192,192,22647,1,0,0:0:0:0:
448,192,22872,1,0,0:0:0:0:
64,192,23098,1,8,0:0:0:0:
192,192,23098,1,0,0:0:0:0:
320,192,23324,1,0,0:0:0:0:
448,192,23549,128,0,24000:0:0:0:0:
192,192,24000,1,8,0:0:0:0:
320,192,24000,1,0,0:0:0:0:
64,192,24226,128,0,24677:0:0:0:0:
448,192,24677,1,0,0:0:0:45:LR_Drum Hit Clap Sn.wav
64,192,24903,1,8,0:0:0:0:
192,192,25015,1,0,0:0:0:45:LR_Drum Hit Clap Sn.wav
320,192,25128,128,2,25354:0:0:0:0:
448,192,25128,128,0,25354:0:0:0:0:
64,192,25805,1,4,0:0:0:0:
192,192,25805,1,8,0:0:0:0:
320,192,25805,1,0,0:0:0:0:
448,192,25805,1,0,0:0:0:0:
64,192,26256,128,2,26481:0:0:0:0:
320,192,26256,1,0,0:0:0:0:
448,192,26481,128,0,26707:0:0:0:0:
64,192,26707,1,8,0:0:0:0:
192,192,26707,1,2,0:0:0:0:
320,192,26707,1,0,0:0:0:0:
448,192,26933,128,0,27158:0:0:0:0:
64,192,27158,1,2,0:0:0:0:
192,192,27158,128,0,27384:0:0:0:0:
320,192,27384,128,0,27609:0:0:0:0:
64,192,27609,1,8,0:0:0:0:
192,192,27609,1,2,0:0:0:0:
448,192,27609,1,0,0:0:0:0:
64,192,27835,128,0,28060:0:0:0:0:
320,192,28060,1,2,0:0:0:0:
448,192,28060,1,0,0:0:0:0:
192,192,28286,1,0,0:0:0:0:
448,192,28286,128,0,28963:0:0:0:0:
64,192,28512,1,8,0:0:0:0:
192,192,28512,1,2,0:0:0:0:
320,192,28512,1,0,0:0:0:0:
320,192,28737,1,0,0:0:0:0:
64,192,28963,1,0,0:0:0:0:
64,192,29414,1,8,0:0:0:0:
192,192,29414,1,2,0:0:0:0:
320,192,29414,1,0,0:0:0:0:
448,192,29414,1,0,0:0:0:0:
448,192,29865,128,0,30090:0:0:0:0:
64,192,30090,128,0,30316:0:0:0:0:
192,192,30316,1,8,0:0:0:0:
320,192,30316,1,2,0:0:0:0:
448,192,30316,1,0,0:0:0:0:
192,192,30542,128,0,30767:0:0:0:0:
64,192,30767,1,2,0:0:0:0:
448,192,30767,128,0,30993:0:0:0:0:
320,192,30993,128,0,31218:0:0:0:0:
64,192,31218,1,8,0:0:0:0:
192,192,31218,1,2,0:0:0:0:
448,192,31218,1,0,0:0:0:0:
64,192,31444,128,0,31669:0:0:0:0:
192,192,31669,1,2,0:0:0:0:
448,192,31669,1,0,0:0:0:0:
320,192,31895,128,0,32121:0:0:0:0:
64,192,32121,1,8,0:0:0:0:
192,192,32121,1,2,0:0:0:0:
448,192,32121,1,0,0:0:0:0:
64,192,32346,1,2,0:0:0:0:
320,192,32346,1,0,0:0:0:0:
192,192,32572,1,2,0:0:0:0:
320,192,32572,1,4,0:0:0:0:
448,192,32572,128,0,33023:0:0:0:0:
64,192,33023,1,8,0:0:0:0:
192,192,33023,1,0,0:0:0:0:
320,192,33023,1,0,0:0:0:0:
64,192,33248,128,2,33699:0:0:0:0:
448,192,33248,1,0,0:0:0:0:
192,192,33474,1,2,0:0:0:0:
448,192,33474,1,0,0:0:0:0:
320,192,33699,1,0,0:0:0:0:
64,192,33925,1,8,0:0:0:0:
192,192,33925,1,0,0:0:0:0:
448,192,33925,128,0,34151:0:0:0:0:
192,192,34151,128,0,34602:0:0:0:0:
64,192,34376,1,2,0:0:0:0:
448,192,34376,1,0,0:0:0:0:
320,192,34602,1,0,0:0:0:0:
64,192,34827,1,8,0:0:0:0:
320,192,34827,128,0,35053:0:0:0:0:
448,192,34827,1,0,0:0:0:0:
64,192,35053,128,2,35278:0:0:0:0:
192,192,35053,1,0,0:0:0:0:
320,192,35278,1,2,0:0:0:0:
448,192,35278,128,0,35504:0:0:0:0:
192,192,35504,128,0,35730:0:0:0:0:
64,192,35730,1,8,0:0:0:0:
320,192,35730,1,0,0:0:0:0:
448,192,35730,1,0,0:0:0:0:
320,192,35955,1,0,0:0:0:0:
64,192,36181,1,2,0:0:0:0:
192,192,36181,1,4,0:0:0:0:
448,192,36181,1,0,0:0:0:0:
192,192,36406,1,0,0:0:0:0:
320,192,36632,1,8,0:0:0:0:
448,192,36632,1,2,0:0:0:0:
320,192,36857,1,0,0:0:0:0:
64,192,37083,1,2,0:0:0:0:
192,192,37083,1,0,0:0:0:0:
320,192,37309,1,2,0:0:0:0:
448,192,37309,1,0,0:0:0:0:
64,192,37421,1,2,0:0:0:0:
192,192,37421,1,0,0:0:0:0:
320,192,37534,1,8,0:0:0:0:
448,192,37534,1,2,0:0:0:0:
192,192,37760,1,0,0:0:0:45:LR_Drum Hit Clap Sn.wav
320,192,37872,1,0,0:0:0:45:LR_Drum Hit Clap Sn.wav
64,192,37985,1,2,0:0:0:0:
448,192,37985,1,0,0:0:0:0:
192,192,38098,1,0,0:0:0:45:LR_Drum Hit Clap Sn.wav
448,192,38211,1,0,0:0:0:45:LR_Drum Hit Clap Sn.wav
192,192,38324,1,0,0:0:0:45:LR_Drum Hit Clap Sn.wav
64,192,38436,1,8,0:0:0:0:
448,192,38436,1,0,0:0:0:0:
320,192,38512,1,0,0:0:0:45:LR_Drum Hit Clap Sn.wav
192,192,38587,1,0,0:0:0:45:LR_Drum Hit Clap Sn.wav
64,192,38662,1,0,0:0:0:45:LR_Drum Hit Clap Sn.wav
448,192,38737,1,0,0:0:0:45:LR_Drum Hit Clap Sn.wav
320,192,38812,1,0,0:0:0:45:LR_Drum Hit Clap Sn.wav
64,192,38887,1,2,0:0:0:0:
192,192,38887,1,0,0:0:0:0:
320,192,39000,1,0,0:0:0:0:
448,192,39000,1,0,0:0:0:0:
64,192,39113,1,0,0:0:0:0:
192,192,39113,1,0,0:0:0:0:
320,192,39226,1,2,0:0:0:0:
448,192,39226,1,0,0:0:0:0:
64,192,39339,1,8,0:0:0:0:
192,192,39339,1,0,0:0:0:0:
192,192,39564,1,2,0:0:0:0:
320,192,39564,1,0,0:0:0:0:
64,192,39790,128,2,40128:0:0:0:0:
320,192,39790,1,4,0:0:0:0:
448,192,39790,128,0,39903:0:0:0:0:
192,192,40128,128,0,40466:0:0:0:0:
320,192,40128,128,0,40241:0:0:0:0:
64,192,40241,1,2,0:0:0:0:
448,192,40241,1,8,0:0:0:0:
320,192,40466,128,0,40805:0:0:0:0:
448,192,40466,128,0,40579:0:0:0:0:
64,192,40692,1,2,0:0:0:0:
192,192,40805,128,0,40918:0:0:0:0:
448,192,40805,128,0,41143:0:0:0:0:
64,192,41143,1,8,0:0:0:0:
192,192,41143,128,2,41594:0:0:0:0:
320,192,41143,1,0,0:0:0:0:
448,192,41369,1,0,0:0:0:0:
64,192,41594,128,2,41707:0:0:0:0:
448,192,41594,128,0,41933:0:0:0:0:
192,192,41933,128,0,42045:0:0:0:0:
320,192,41933,128,0,42271:0:0:0:0:
64,192,42045,1,8,0:0:0:0:
448,192,42045,1,2,0:0:0:0:
64,192,42271,128,0,42384:0:0:0:0:
192,192,42271,128,0,42496:0:0:0:0:
320,192,42496,128,2,42609:0:0:0:0:
448,192,42496,128,0,42948:0:0:0:0:
64,192,42722,1,0,0:0:0:0:
64,192,42948,128,8,43399:0:0:0:0:
192,192,42948,128,2,43060:0:0:0:0:
320,192,42948,1,0,0:0:0:0:
448,192,43173,1,0,0:0:0:0:
192,192,43399,128,2,43512:0:0:0:0:
320,192,43399,128,0,43737:0:0:0:0:
64,192,43737,128,0,43850:0:0:0:0:
192,192,43737,128,0,44075:0:0:0:0:
320,192,43850,1,8,0:0:0:0:
448,192,43850,1,2,0:0:0:0:
320,192,44075,128,0,44188:0:0:0:0:
448,192,44075,128,0,44414:0:0:0:0:
64,192,44301,1,2,0:0:0:0:
192,192,44414,128,0,44527:0:0:0:0:
320,192,44414,128,0,44752:0:0:0:0:
64,192,44752,128,8,45203:0:0:0:0:
192,192,44752,1,2,0:0:0:0:
448,192,44752,128,0,44865:0:0:0:0:
320,192,44978,1,0,0:0:0:0:
192,192,45203,128,2,45316:0:0:0:0:
448,192,45203,128,0,45654:0:0:0:0:
320,192,45542,128,0,45654:0:0:0:0:
64,192,45654,128,8,46106:0:0:0:0:
192,192,45654,1,2,0:0:0:0:
448,192,45880,128,0,45993:0:0:0:0:
192,192,46106,1,2,0:0:0:0:
320,192,46106,128,0,46557:0:0:0:0:
448,192,46218,128,0,46331:0:0:0:0:
64,192,46557,128,8,46669:0:0:0:0:
192,192,46557,128,2,47008:0:0:0:0:
448,192,46557,1,0,0:0:0:0:
320,192,46782,1,0,0:0:0:0:
64,192,47008,1,2,0:0:0:0:
320,192,47008,1,4,0:0:0:0:
448,192,47008,1,0,0:0:0:0:
192,192,47233,1,0,0:0:0:0:
64,192,47459,128,8,47910:0:0:0:0:
320,192,47459,1,2,0:0:0:0:
448,192,47459,1,0,0:0:0:0:
320,192,47684,128,0,47797:0:0:0:0:
192,192,47910,128,2,48136:0:0:0:0:
448,192,47910,1,0,0:0:0:0:
320,192,48136,128,0,48361:0:0:0:0:
64,192,48361,1,8,0:0:0:0:
192,192,48361,1,2,0:0:0:0:
448,192,48361,1,0,0:0:0:0:
64,192,48587,128,0,48699:0:0:0:0:
448,192,48587,128,0,49263:0:0:0:0:
192,192,48812,1,2,0:0:0:0:
320,192,48812,1,0,0:0:0:0:
64,192,49038,1,0,0:0:0:0:
64,192,49263,128,8,49376:0:0:0:0:
192,192,49263,1,2,0:0:0:0:
320,192,49263,128,0,49489:0:0:0:0:
192,192,49489,1,0,0:0:0:0:
64,192,49715,128,2,50166:0:0:0:0:
320,192,49715,1,0,0:0:0:0:
448,192,49715,128,0,49827:0:0:0:0:
192,192,49940,1,0,0:0:0:0:
192,192,50166,128,8,50617:0:0:0:0:
320,192,50166,128,2,50278:0:0:0:0:
448,192,50166,1,0,0:0:0:0:
448,192,50391,1,0,0:0:0:0:
64,192,50617,128,2,50730:0:0:0:0:
320,192,50617,128,0,51068:0:0:0:0:
448,192,50617,1,0,0:0:0:0:
192,192,50842,1,0,0:0:0:45:LR_Drum Hit Clap Sn.wav
64,192,51068,128,8,51293:0:0:0:0:
192,192,51068,1,2,0:0:0:0:
448,192,51068,1,0,0:0:0:0:
320,192,51293,128,0,51406:0:0:0:45:LR_Drum Hit Clap Sn.wav
448,192,51293,128,0,51745:0:0:0:0:
64,192,51519,1,2,0:0:0:0:
192,192,51519,1,0,0:0:0:0:
320,192,51745,1,0,0:0:0:45:LR_Drum Hit Clap Sn.wav
64,192,51970,1,8,0:0:0:0:
192,192,51970,1,2,0:0:0:0:
448,192,51970,1,0,0:0:0:0:
320,192,52083,1,0,0:0:0:45:LR_Drum Hit Clap Sn.wav
64,192,52196,1,0,0:0:0:45:LR_Drum Hit Clap Sn.wav
448,192,52309,1,0,0:0:0:45:LR_Drum Hit Clap Sn.wav
64,192,52421,1,2,0:0:0:0:
192,192,52421,1,0,0:0:0:0:
320,192,52421,1,0,0:0:0:0:
448,192,52534,1,0,0:0:0:45:LR_Drum Hit Clap Sn.wav
192,192,52647,1,0,0:0:0:45:LR_Drum Hit Clap Sn.wav
320,192,52760,1,0,0:0:0:45:LR_Drum Hit Clap Sn.wav
64,192,52872,1,8,0:0:0:0:
448,192,52872,1,2,0:0:0:0:
192,192,52948,1,0,0:0:0:45:LR_Drum Hit Clap Sn.wav
320,192,53023,1,0,0:0:0:45:LR_Drum Hit Clap Sn.wav
448,192,53098,1,0,0:0:0:45:LR_Drum Hit Clap Sn.wav
64,192,53173,1,0,0:0:0:45:LR_Drum Hit Clap Sn.wav
192,192,53248,1,0,0:0:0:45:LR_Drum Hit Clap Sn.wav
320,192,53324,1,2,0:0:0:0:
448,192,53324,1,0,0:0:0:0:
64,192,53549,1,8,0:0:0:0:
320,192,53549,1,0,0:0:0:0:
448,192,53549,1,0,0:0:0:0:
192,192,53662,1,2,0:0:0:0:
64,192,53775,1,8,0:0:0:0:
320,192,53775,1,0,0:0:0:0:
448,192,53775,1,0,0:0:0:0:
64,192,54000,1,2,0:0:0:0:
192,192,54000,1,0,0:0:0:0:
320,192,54113,1,0,0:0:0:0:
64,192,54226,128,2,54564:0:0:0:0:
192,192,54226,1,4,0:0:0:0:
448,192,54226,128,0,54339:0:0:0:0:
320,192,54564,128,0,54677:0:0:0:0:
448,192,54564,128,0,54903:0:0:0:0:
64,192,54677,1,8,0:0:0:0:
192,192,54677,1,2,0:0:0:0:
192,192,54903,128,0,55241:0:0:0:0:
320,192,54903,128,0,55015:0:0:0:0:
64,192,55128,1,2,0:0:0:0:
448,192,55128,1,0,0:0:0:0:
320,192,55241,128,0,55579:0:0:0:0:
64,192,55579,128,8,56030:0:0:0:0:
192,192,55579,128,2,55692:0:0:0:0:
448,192,55579,1,0,0:0:0:0:
320,192,55805,1,0,0:0:0:0:
192,192,56030,128,2,56369:0:0:0:0:
448,192,56030,128,0,56143:0:0:0:0:
320,192,56369,128,0,56481:0:0:0:0:
448,192,56369,128,0,56707:0:0:0:0:
64,192,56481,1,8,0:0:0:0:
192,192,56481,1,2,0:0:0:0:
192,192,56707,128,0,56820:0:0:0:0:
320,192,56707,128,0,56933:0:0:0:0:
64,192,56933,128,2,57384:0:0:0:0:
448,192,56933,128,0,57045:0:0:0:0:
320,192,57158,1,0,0:0:0:0:
192,192,57384,1,8,0:0:0:0:
320,192,57384,128,2,57496:0:0:0:0:
448,192,57384,128,0,57835:0:0:0:0:
192,192,57609,1,0,0:0:0:0:
64,192,57835,128,2,58173:0:0:0:0:
320,192,57835,128,0,57948:0:0:0:0:
192,192,58173,128,0,58286:0:0:0:0:
320,192,58173,128,0,58512:0:0:0:0:
64,192,58286,1,8,0:0:0:0:
448,192,58286,1,2,0:0:0:0:
192,192,58512,128,0,58737:0:0:0:0:
448,192,58512,128,0,58624:0:0:0:0:
64,192,58737,1,2,0:0:0:0:
320,192,58737,1,0,0:0:0:0:
192,192,58963,128,0,59075:0:0:0:0:
448,192,58963,128,0,59188:0:0:0:0:
64,192,59188,128,8,59639:0:0:0:0:
192,192,59188,1,2,0:0:0:0:
320,192,59188,128,0,59301:0:0:0:0:
448,192,59414,128,0,59527:0:0:0:0:
192,192,59639,128,2,59752:0:0:0:0:
320,192,59639,1,0,0:0:0:0:
448,192,59639,128,0,60090:0:0:0:0:
64,192,59978,128,0,60090:0:0:0:0:
192,192,60090,128,8,60542:0:0:0:0:
320,192,60090,1,2,0:0:0:0:
448,192,60316,128,0,60429:0:0:0:0:
64,192,60542,128,2,60993:0:0:0:0:
320,192,60542,128,0,60654:0:0:0:0:
192,192,60767,1,0,0:0:0:0:
320,192,60993,1,8,0:0:0:0:
448,192,60993,1,2,0:0:0:0:
192,192,61106,1,0,0:0:0:0:
64,192,61218,1,0,0:0:0:0:
448,192,61218,1,0,0:0:0:0:
320,192,61331,1,0,0:0:0:0:
64,192,61444,1,2,0:0:0:0:
192,192,61444,1,4,0:0:0:0:
448,192,61444,1,0,0:0:0:0:
64,192,61895,1,8,0:0:0:0:
320,192,61895,1,0,0:0:0:0:
192,192,62121,1,2,0:0:0:0:
448,192,62121,1,0,0:0:0:0:
192,192,62346,1,2,0:0:0:0:
448,192,62346,128,0,62684:0:0:0:0:
320,192,62684,128,0,63023:0:0:0:0:
64,192,62797,1,8,0:0:0:0:
192,192,62797,1,0,0:0:0:0:
64,192,63023,128,0,63248:0:0:0:0:
192,192,63248,128,2,63699:0:0:0:0:
320,192,63248,1,0,0:0:0:0:
448,192,63248,1,0,0:0:0:0:
320,192,63699,1,8,0:0:0:0:
448,192,63699,1,0,0:0:0:0:
64,192,63925,1,2,0:0:0:0:
192,192,63925,1,0,0:0:0:0:
64,192,64151,1,2,0:0:0:0:
192,192,64151,128,0,64489:0:0:0:0:
320,192,64489,128,0,64827:0:0:0:0:
64,192,64602,1,8,0:0:0:0:
448,192,64602,1,0,0:0:0:0:
192,192,64827,128,0,65053:0:0:0:0:
64,192,65053,1,2,0:0:0:0:
320,192,65053,1,0,0:0:0:0:
448,192,65053,128,0,65504:0:0:0:0:
64,192,65504,1,8,0:0:0:0:
192,192,65504,1,0,0:0:0:0:
320,192,65730,1,2,0:0:0:0:
448,192,65730,1,0,0:0:0:0:
320,192,65955,128,2,66293:0:0:0:0:
448,192,65955,1,0,0:0:0:0:
192,192,66293,128,0,66632:0:0:0:0:
64,192,66406,1,8,0:0:0:0:
448,192,66406,1,0,0:0:0:0:
320,192,66632,128,0,66857:0:0:0:0:
64,192,66857,128,2,67534:0:0:0:0:
192,192,66857,1,4,0:0:0:0:
448,192,66857,1,0,0:0:0:0:
320,192,67309,1,8,0:0:0:0:
448,192,67309,1,0,0:0:0:0:
192,192,67534,1,2,0:0:0:0:
320,192,67534,1,4,0:0:0:0:
448,192,67534,128,0,68098:0:0:0:0:
64,192,67985,1,2,0:0:0:0:
192,192,68098,1,2,0:0:0:0:
320,192,68211,1,8,0:0:0:0:
448,192,68211,1,2,0:0:0:0:
192,192,68436,1,0,0:0:0:0:
64,192,68662,1,2,0:0:0:0:
320,192,68662,1,4,0:0:0:0:
448,192,68662,1,0,0:0:0:0:
64,192,68887,1,0,0:0:0:0:
192,192,69113,1,8,0:0:0:0:
320,192,69113,1,2,0:0:0:0:
448,192,69113,1,0,0:0:0:0:
448,192,69339,1,0,0:0:0:0:
64,192,69564,1,2,0:0:0:0:
192,192,69564,1,0,0:0:0:0:
320,192,69790,1,0,0:0:0:0:
64,192,70015,1,8,0:0:0:0:
192,192,70015,1,2,0:0:0:0:
448,192,70015,1,0,0:0:0:0:
192,192,70241,1,2,0:0:0:0:
320,192,70241,1,0,0:0:0:0:
64,192,70466,1,2,0:0:0:0:
320,192,70466,1,4,0:0:0:0:
448,192,70466,1,0,0:0:0:0:
192,192,70692,1,0,0:0:0:45:LR_Drum Hit Clap Sn.wav
320,192,70918,1,8,0:0:0:0:
448,192,70918,1,2,0:0:0:0:
192,192,71030,1,0,0:0:0:45:LR_Drum Hit Clap Sn.wav
320,192,71143,1,0,0:0:0:45:LR_Drum Hit Clap Sn.wav
192,192,71256,1,0,0:0:0:45:LR_Drum Hit Clap Sn.wav
64,192,71369,1,2,0:0:0:0:
448,192,71369,1,0,0:0:0:0:
320,192,71481,1,0,0:0:0:45:LR_Drum Hit Clap Sn.wav
64,192,71594,1,0,0:0:0:45:LR_Drum Hit Clap Sn.wav
192,192,71707,1,0,0:0:0:45:LR_Drum Hit Clap Sn.wav
320,192,71820,1,8,0:0:0:0:
448,192,71820,1,2,0:0:0:0:
192,192,71895,1,0,0:0:0:45:LR_Drum Hit Clap Sn.wav
64,192,71970,1,0,0:0:0:45:LR_Drum Hit Clap Sn.wav
448,192,72045,1,0,0:0:0:45:LR_Drum Hit Clap Sn.wav
320,192,72121,1,0,0:0:0:45:LR_Drum Hit Clap Sn.wav
192,192,72196,1,0,0:0:0:45:LR_Drum Hit Clap Sn.wav
64,192,72271,1,2,0:0:0:0:
320,192,72271,128,0,73173:0:0:0:0:
448,192,72271,128,0,73173:0:0:0:0:
64,192,72722,1,0,0:0:0:0:
64,192,73173,1,0,0:0:0:0:
192,192,73173,1,0,0:0:0:0:
320,192,73512,1,0,0:0:0:0:
64,192,73624,1,0,0:0:0:0:
448,192,73624,1,0,0:0:0:0:
192,192,73737,1,0,0:0:0:0:
320,192,73850,1,0,0:0:0:0:
64,192,74075,1,0,0:0:0:0:
192,192,74151,1,0,0:0:0:0:
320,192,74226,1,0,0:0:0:0:
64,192,74301,1,2,0:0:0:0:
448,192,74301,1,0,0:0:0:0:
192,192,74527,1,0,0:0:0:45:LR_Drum Hit Clap Sn.wav
448,192,74639,1,0,0:0:0:45:LR_Drum Hit Clap Sn.wav
192,192,74752,1,0,0:0:0:45:LR_Drum Hit Clap Sn.wav
448,192,74865,1,0,0:0:0:45:LR_Drum Hit Clap Sn.wav
64,192,74978,1,2,0:0:0:0:
192,192,74978,1,0,0:0:0:0:
320,192,75090,1,2,0:0:0:0:
448,192,75090,1,0,0:0:0:0:
64,192,75203,1,2,0:0:0:0:
192,192,75203,1,0,0:0:0:0:
320,192,75316,1,2,0:0:0:0:
448,192,75316,1,0,0:0:0:0:
64,192,75429,1,2,0:0:0:0:
192,192,75429,1,4,0:0:0:0:
320,192,75654,128,0,75880:0:0:0:0:
64,192,75880,128,2,76331:0:0:0:0:
192,192,75880,1,4,0:0:0:0:
448,192,75880,1,0,0:0:0:0:
320,192,76106,1,0,0:0:0:0:
448,192,76218,1,0,0:0:0:0:
192,192,76331,1,8,0:0:0:0:
320,192,76331,1,2,0:0:0:0:
64,192,76557,1,0,0:0:0:0:
448,192,76557,1,0,0:0:0:0:
192,192,76782,1,2,0:0:0:0:
448,192,76782,128,0,77233:0:0:0:0:
64,192,76895,1,0,0:0:0:0:
320,192,77008,1,0,0:0:0:0:
64,192,77233,1,8,0:0:0:0:
192,192,77233,1,2,0:0:0:0:
320,192,77233,1,0,0:0:0:0:
192,192,77459,1,0,0:0:0:0:
448,192,77459,1,0,0:0:0:0:
64,192,77684,1,2,0:0:0:0:
320,192,77684,128,0,78136:0:0:0:0:
192,192,77910,1,0,0:0:0:0:
64,192,78023,1,0,0:0:0:0:
192,192,78136,1,8,0:0:0:0:
448,192,78136,128,2,78587:0:0:0:0:
320,192,78361,1,0,0:0:0:0:
64,192,78587,1,2,0:0:0:0:
192,192,78587,128,0,78812:0:0:0:0:
320,192,78812,128,0,79038:0:0:0:0:
64,192,79038,1,8,0:0:0:0:
192,192,79038,1,2,0:0:0:0:
448,192,79038,1,0,0:0:0:0:
64,192,79263,1,0,0:0:0:0:
320,192,79263,1,0,0:0:0:0:
192,192,79489,1,2,0:0:0:0:
448,192,79489,128,0,79940:0:0:0:0:
320,192,79715,1,0,0:0:0:0:
192,192,79827,1,0,0:0:0:0:
64,192,79940,1,8,0:0:0:0:
320,192,79940,1,2,0:0:0:0:
192,192,80166,1,0,0:0:0:0:
320,192,80166,128,0,80391:0:0:0:0:
64,192,80391,128,2,80617:0:0:0:0:
448,192,80391,1,0,0:0:0:0:
192,192,80504,1,0,0:0:0:0:
320,192,80617,1,0,0:0:0:0:
64,192,80842,1,8,0:0:0:0:
192,192,80842,1,2,0:0:0:0:
448,192,80842,1,0,0:0:0:0:
192,192,81068,1,0,0:0:0:0:
320,192,81068,1,0,0:0:0:0:
64,192,81293,1,2,0:0:0:0:
448,192,81293,128,0,81519:0:0:0:0:
192,192,81519,128,0,81745:0:0:0:0:
64,192,81745,1,8,0:0:0:0:
320,192,81745,128,2,81970:0:0:0:0:
448,192,81745,1,0,0:0:0:0:
448,192,81970,128,0,82196:0:0:0:0:
64,192,82196,128,2,82421:0:0:0:0:
192,192,82196,1,0,0:0:0:0:
320,192,82421,128,0,82647:0:0:0:0:
64,192,82647,128,8,83098:0:0:0:0:
192,192,82647,1,2,0:0:0:0:
448,192,82647,1,0,0:0:0:0:
320,192,82872,1,0,0:0:0:0:
192,192,83098,1,2,0:0:0:0:
320,192,83098,1,4,0:0:0:0:
448,192,83098,128,0,83324:0:0:0:0:
64,192,83324,1,0,0:0:0:0:
448,192,83436,128,0,83662:0:0:0:0:
64,192,83549,1,8,0:0:0:0:
192,192,83549,1,2,0:0:0:0:
320,192,83775,1,0,0:0:0:0:
448,192,83775,128,0,84000:0:0:0:0:
64,192,84000,1,2,0:0:0:0:
192,192,84000,128,0,84226:0:0:0:0:
320,192,84226,128,0,84451:0:0:0:0:
64,192,84451,128,8,84903:0:0:0:0:
192,192,84451,1,2,0:0:0:0:
448,192,84451,1,0,0:0:0:0:
320,192,84677,1,0,0:0:0:0:
192,192,84903,128,2,85128:0:0:0:0:
448,192,84903,1,0,0:0:0:0:
320,192,85128,1,0,0:0:0:0:
192,192,85241,128,0,85466:0:0:0:0:
320,192,85354,1,8,0:0:0:0:
448,192,85354,1,2,0:0:0:0:
64,192,85579,1,0,0:0:0:0:
192,192,85579,128,0,85805:0:0:0:0:
320,192,85805,128,2,86030:0:0:0:0:
448,192,85805,1,0,0:0:0:0:
64,192,86030,128,0,86256:0:0:0:0:
192,192,86256,1,8,0:0:0:0:
320,192,86256,1,2,0:0:0:0:
448,192,86256,128,0,86707:0:0:0:0:
192,192,86481,1,0,0:0:0:0:
64,192,86707,1,2,0:0:0:0:
192,192,86707,1,0,0:0:0:0:
320,192,86707,128,0,86933:0:0:0:0:
448,192,86933,1,0,0:0:0:45:LR_Drum Hit Clap Sn.wav
320,192,87045,128,0,87271:0:0:0:0:
64,192,87158,1,8,0:0:0:0:
192,192,87158,1,2,0:0:0:0:
192,192,87384,1,0,0:0:0:45:LR_Drum Hit Clap Sn.wav
320,192,87384,128,0,87609:0:0:0:0:
64,192,87609,1,2,0:0:0:0:
448,192,87609,128,0,87835:0:0:0:0:
192,192,87835,128,0,88060:0:0:0:45:LR_Drum Hit Clap Sn.wav
64,192,88060,1,8,0:0:0:0:
320,192,88060,128,2,88512:0:0:0:0:
448,192,88060,1,0,0:0:0:0:
192,192,88286,1,0,0:0:0:45:LR_Drum Hit Clap Sn.wav
64,192,88512,1,2,0:0:0:0:
448,192,88512,1,0,0:0:0:0:
192,192,88624,1,0,0:0:0:45:LR_Drum Hit Clap Sn.wav
320,192,88737,1,0,0:0:0:45:LR_Drum Hit Clap Sn.wav
448,192,88850,1,0,0:0:0:45:LR_Drum Hit Clap Sn.wav
64,192,88963,1,8,0:0:0:0:
192,192,88963,1,2,0:0:0:0:
320,192,89075,1,0,0:0:0:45:LR_Drum Hit Clap Sn.wav
64,192,89188,1,0,0:0:0:45:LR_Drum Hit Clap Sn.wav
448,192,89188,1,0,0:0:0:0:
192,192,89301,1,0,0:0:0:45:LR_Drum Hit Clap Sn.wav
320,192,89301,1,0,0:0:0:0:
64,192,89414,1,2,0:0:0:0:
448,192,89414,1,0,0:0:0:0:
192,192,89639,1,2,0:0:0:0:
448,192,89639,1,0,0:0:0:0:
64,192,89865,1,2,0:0:0:0:
320,192,89865,1,0,0:0:0:0:
64,192,90090,128,2,93925:0:0:0:0:
192,192,90090,1,0,0:0:0:0:
448,192,90090,1,0,0:0:0:0:
320,192,90203,1,0,0:0:0:0:
192,192,90316,1,0,0:0:0:0:
448,192,90429,1,0,0:0:0:0:
320,192,90542,1,0,0:0:0:0:
192,192,90654,1,0,0:0:0:0:
448,192,90767,1,0,0:0:0:0:
320,192,90880,1,0,0:0:0:0:
192,192,90993,1,0,0:0:0:0:
320,192,91106,1,0,0:0:0:0:
448,192,91218,1,0,0:0:0:0:
192,192,91331,1,0,0:0:0:0:
320,192,91444,1,0,0:0:0:0:
448,192,91557,1,0,0:0:0:0:
192,192,91669,1,0,0:0:0:0:
320,192,91782,1,0,0:0:0:0:
192,192,91895,1,0,0:0:0:0:
448,192,92008,1,0,0:0:0:0:
320,192,92121,1,0,0:0:0:0:
192,192,92233,1,0,0:0:0:0:
448,192,92346,1,0,0:0:0:0:
320,192,92459,1,0,0:0:0:0:
192,192,92572,1,0,0:0:0:0:
448,192,92684,1,0,0:0:0:0:
320,192,92797,1,0,0:0:0:0:
192,192,92910,1,0,0:0:0:0:
448,192,93023,1,0,0:0:0:0:
320,192,93136,1,0,0:0:0:0:
448,192,93248,1,0,0:0:0:0:
192,192,93361,1,0,0:0:0:0:
320,192,93474,1,0,0:0:0:0:
448,192,93587,1,0,0:0:0:0:
192,192,93699,1,0,0:0:0:0:
320,192,93812,1,0,0:0:0:0:
448,192,93925,1,0,0:0:0:0:
320,192,94038,1,0,0:0:0:0:
192,192,94151,1,0,0:0:0:0:
64,192,94263,1,0,0:0:0:0:
320,192,94376,1,0,0:0:0:0:
192,192,94489,1,0,0:0:0:0:
448,192,94602,1,0,0:0:0:0:
320,192,94715,1,0,0:0:0:0:
64,192,94827,1,0,0:0:0:0:
192,192,94940,1,0,0:0:0:0:
320,192,95053,1,0,0:0:0:0:
448,192,95166,1,0,0:0:0:0:
64,192,95278,1,0,0:0:0:0:
192,192,95391,1,0,0:0:0:0:
448,192,95504,1,0,0:0:0:0:
320,192,95617,1,0,0:0:0:0:
192,192,95730,1,0,0:0:0:0:
448,192,95842,1,0,0:0:0:0:
320,192,95955,1,0,0:0:0:0:
64,192,96068,1,0,0:0:0:0:
192,192,96181,1,0,0:0:0:0:
320,192,96293,1,0,0:0:0:0:
448,192,96406,1,0,0:0:0:0:
192,192,96519,1,0,0:0:0:0:
320,192,96632,1,0,0:0:0:0:
64,192,96745,1,0,0:0:0:0:
192,192,96857,1,0,0:0:0:0:
448,192,96970,1,0,0:0:0:0:
320,192,97083,1,0,0:0:0:0:
192,192,97196,1,0,0:0:0:0:
64,192,97309,1,0,0:0:0:0:
320,192,97421,1,0,0:0:0:0:
448,192,97534,1,0,0:0:0:0:
