osu file format v14

[General]
AudioFilename: audio.mp3
AudioLeadIn: 0
PreviewTime: 40078
Countdown: 1
SampleSet: Normal
StackLeniency: 0.7
Mode: 1
LetterboxInBreaks: 0
WidescreenStoryboard: 0

[Editor]
DistanceSpacing: 1
BeatDivisor: 4
GridSize: 4
TimelineZoom: 3.399998

[Metadata]
Title:PistStar SMILE NonstoP!! ~Kagayake Ashita no Star Dai Sakusen~
TitleUnicode:ぴすとっ☆SMILE♪ノンすとっP!!~輝け明日のスター大作戦~
Artist:ave;new Project feat. Sakura Saori
ArtistUnicode:あべにゅうぷろじぇくと feat. 佐倉紗織
Creator:Glaceon-
Version:Inner Oni
Source:ぴすとっ☆
Tags:Original Net Animation ONA しらたまぷりん Shiratamapurin どれちゅ dorechu Single My Sweet Lady Lump Of Sugar Vulkin
BeatmapID:3310376
BeatmapSetID:1621387

[Difficulty]
HPDrainRate:6
CircleSize:2
OverallDifficulty:6
ApproachRate:5
SliderMultiplier:1.3999998544693
SliderTickRate:1

[Events]
//Background and Video events
0,0,"maxresdefault.jpg",0,0
//Break Periods
//Storyboard Layer 0 (Background)
//Storyboard Layer 1 (Fail)
//Storyboard Layer 2 (Pass)
//Storyboard Layer 3 (Foreground)
//Storyboard Layer 4 (Overlay)
//Storyboard Sound Samples

[TimingPoints]
1130,283.018867924528,4,1,0,100,1,0
16979,-100,4,1,0,100,0,0
26035,-100,4,1,0,100,0,0
35092,-100,4,1,0,100,0,0
43865,-99.009900990099,4,1,0,100,0,0
43936,-98.0392156862745,4,1,0,100,0,0
44007,-97.0873786407767,4,1,0,100,0,0
44078,-96.1538461538461,4,1,0,100,0,0
44148,-95.2380952380952,4,1,0,100,0,0
52922,-96.1538461538461,4,1,0,100,0,0
52993,-97.0873786407767,4,1,0,100,0,0
53063,-98.0392156862745,4,1,0,100,0,0
53134,-99.009900990099,4,1,0,100,0,0
53205,-100,4,1,0,100,0,1
61979,-99.009900990099,4,1,0,100,0,1
62049,-98.0392156862745,4,1,0,100,0,1
62120,-97.0873786407767,4,1,0,80,0,1
62191,-96.1538461538461,4,1,0,80,0,1
62262,-95.2380952380952,4,1,0,80,0,1
71035,-94.3396226415094,4,1,0,80,0,1
71106,-93.4579439252336,4,1,0,80,0,1
71177,-92.5925925925926,4,1,0,80,0,1
71247,-91.743119266055,4,1,0,80,0,1
71318,-90.9090909090909,4,1,0,80,0,0
80375,-90.9090909090909,4,1,0,80,0,0
80516,-95.2380952380952,4,1,0,80,0,0
80658,-111.111111111111,4,1,0,80,0,0
89007,-105.263157894737,4,1,0,80,0,0
89148,-103.092783505155,4,1,0,80,0,0
89290,-101.010101010101,4,1,0,80,0,0
89361,-97.0873786407767,4,1,0,80,0,0
89431,-95.2380952380952,4,1,0,100,0,0
98205,-96.1538461538461,4,1,0,80,0,0
98276,-97.0873786407767,4,1,0,80,0,0
98346,-98.0392156862745,4,1,0,80,0,0
98417,-99.009900990099,4,1,0,80,0,0
98488,-100,4,1,0,80,0,0
107262,-99.009900990099,4,1,0,80,0,0
107332,-98.0392156862745,4,1,0,80,0,0
107403,-97.0873786407767,4,1,0,80,0,0
107474,-96.1538461538461,4,1,0,80,0,0
107545,-95.2380952380952,4,1,0,80,0,0
116318,-96.1538461538461,4,1,0,80,0,0
116389,-97.0873786407767,4,1,0,80,0,0
116460,-98.0392156862745,4,1,0,80,0,0
116530,-99.009900990099,4,1,0,80,0,0
116601,-100,4,1,0,80,0,1
125375,-99.009900990099,4,1,0,80,0,1
125446,-98.0392156862745,4,1,0,80,0,1
125516,-97.0873786407767,4,1,0,80,0,1
125587,-96.1538461538461,4,1,0,80,0,1
125658,-95.2380952380952,4,1,0,80,0,1
134714,-90.9090909090909,4,1,0,80,0,0
143771,-100,4,1,0,80,0,0
152191,-101.010101010101,4,1,0,80,0,0
152262,-102.040816326531,4,1,0,80,0,0
152545,-106.382978723404,4,1,0,80,0,0
152615,-107.52688172043,4,1,0,80,0,0
152686,-108.695652173913,4,1,0,80,0,0
152757,-109.89010989011,4,1,0,80,0,0
152828,-111.111111111111,4,1,0,80,0,0
160894,-109.89010989011,4,1,0,80,0,0
160964,-108.695652173913,4,1,0,80,0,0
161035,-107.52688172043,4,1,0,80,0,0
161106,-106.382978723404,4,1,0,80,0,0
161177,-105.263157894737,4,1,0,80,0,0
161247,-104.166666666667,4,1,0,80,0,0
161318,-103.092783505155,4,1,0,80,0,0
161389,-102.040816326531,4,1,0,80,0,0
161460,-101.010101010101,4,1,0,80,0,0
161530,-100,4,1,0,80,0,0
161601,-99.009900990099,4,1,0,80,0,0
161672,-98.0392156862745,4,1,0,80,0,0
161743,-97.0873786407767,4,1,0,80,0,0
161813,-96.1538461538461,4,1,0,80,0,0
161884,-95.2380952380952,4,1,0,80,0,0
170941,-96.1538461538461,4,1,0,80,0,0
171012,-97.0873786407767,4,1,0,60,0,0
171082,-98.0392156862745,4,1,0,60,0,0
171153,-99.009900990099,4,1,0,60,0,0
171224,-100,4,1,0,80,0,1
179714,-99.009900990099,4,1,0,80,0,1
179785,-98.0392156862745,4,1,0,80,0,1
179856,-97.0873786407767,4,1,0,80,0,1
179927,-96.1538461538461,4,1,0,80,0,1
179997,-95.2380952380952,4,1,0,80,0,1
188771,-94.3396226415094,4,1,0,80,0,1
188842,-93.4579439252336,4,1,0,80,0,1
188913,-92.5925925925926,4,1,0,80,0,1
188983,-91.743119266055,4,1,0,80,0,1
189054,-90.9090909090909,4,1,0,80,0,0
198111,-90.9090909090909,4,1,0,80,0,0
198252,-90.9090909090909,4,1,0,80,0,0
198535,-95.2380952380952,4,1,0,80,0,0
198818,-100,4,1,0,80,0,0

[HitObjects]
173,171,1130,5,0,0:0:0:0:
173,171,1271,1,0,0:0:0:0:
439,162,1413,1,2,0:0:0:0:
371,171,1696,1,0,0:0:0:0:
417,152,1837,1,0,0:0:0:0:
342,189,1979,5,2,0:0:0:0:
281,181,2262,1,0,0:0:0:0:
359,138,2403,1,2,0:0:0:0:
288,132,2474,1,2,0:0:0:0:
446,123,2545,1,2,0:0:0:0:
371,148,2686,1,0,0:0:0:0:
375,175,2828,1,2,0:0:0:0:
375,175,2898,1,2,0:0:0:0:
196,172,2969,1,0,0:0:0:0:
196,172,3040,1,0,0:0:0:0:
368,168,3111,1,2,0:0:0:0:
368,168,3181,1,2,0:0:0:0:
359,138,3252,1,2,0:0:0:0:
310,167,3323,1,2,0:0:0:0:
57,217,3394,1,0,0:0:0:0:
310,167,3535,1,0,0:0:0:0:
207,225,3677,1,2,0:0:0:0:
312,207,3818,1,0,0:0:0:0:
262,188,4101,1,2,0:0:0:0:
401,148,4172,1,0,0:0:0:0:
380,176,4243,1,0,0:0:0:0:
339,192,4384,1,2,0:0:0:0:
237,177,4667,5,0,0:0:0:0:
212,172,4738,1,0,0:0:0:0:
259,88,4809,1,2,0:0:0:0:
320,136,4950,1,2,0:0:0:0:
332,135,5092,1,0,0:0:0:0:
235,179,5233,1,0,0:0:0:0:
200,197,5375,1,2,0:0:0:0:
200,197,5446,1,2,0:0:0:0:
200,197,5516,1,2,0:0:0:0:
216,164,5587,1,2,0:0:0:0:
375,155,5658,1,0,0:0:0:0:
369,211,5799,1,0,0:0:0:0:
369,211,5870,1,0,0:0:0:0:
401,144,5941,1,2,0:0:0:0:
381,148,6012,1,2,0:0:0:0:
274,173,6082,1,0,0:0:0:0:
109,237,6365,1,0,0:0:0:0:
357,197,6436,1,0,0:0:0:0:
282,198,6507,1,2,0:0:0:0:
250,192,6648,1,0,0:0:0:0:
413,168,6790,1,2,0:0:0:0:
361,175,6931,1,2,0:0:0:0:
438,153,7002,1,2,0:0:0:0:
502,138,7073,1,0,0:0:0:0:
409,129,7214,1,0,0:0:0:0:
438,153,7285,1,2,0:0:0:0:
465,142,7356,1,0,0:0:0:0:
290,180,7497,1,0,0:0:0:0:
290,180,7568,1,0,0:0:0:0:
310,154,7639,1,2,0:0:0:0:
214,171,7780,1,2,0:0:0:0:
219,177,7922,1,6,0:0:0:0:
388,176,8063,1,0,0:0:0:0:
388,176,8134,1,0,0:0:0:0:
422,164,8205,1,2,0:0:0:0:
457,135,8346,1,2,0:0:0:0:
358,164,8488,1,4,0:0:0:0:
306,131,8629,1,0,0:0:0:0:
306,131,8700,1,0,0:0:0:0:
360,157,8771,1,2,0:0:0:0:
340,163,8913,1,2,0:0:0:0:
330,131,9054,1,2,0:0:0:0:
330,131,9125,1,0,0:0:0:0:
364,179,9196,1,2,0:0:0:0:
321,188,9266,1,2,0:0:0:0:
298,197,9337,1,0,0:0:0:0:
298,197,9408,1,0,0:0:0:0:
298,197,9479,1,2,0:0:0:0:
266,141,9762,1,0,0:0:0:0:
390,137,9903,1,2,0:0:0:0:
312,134,10045,1,0,0:0:0:0:
312,134,10186,1,0,0:0:0:0:
312,134,10257,1,0,0:0:0:0:
432,115,10328,1,2,0:0:0:0:
331,133,10469,1,2,0:0:0:0:
331,133,10540,1,2,0:0:0:0:
463,149,10611,1,0,0:0:0:0:
433,131,10752,1,0,0:0:0:0:
410,160,10823,1,2,0:0:0:0:
390,162,10894,1,0,0:0:0:0:
390,162,11035,1,2,0:0:0:0:
336,178,11177,1,2,0:0:0:0:
286,149,11318,1,0,0:0:0:0:
386,126,11460,1,2,0:0:0:0:
404,155,11601,1,0,0:0:0:0:
374,153,11672,1,0,0:0:0:0:
510,109,11743,1,2,0:0:0:0:
327,167,11884,1,0,0:0:0:0:
326,168,12026,1,0,0:0:0:0:
326,168,12096,1,0,0:0:0:0:
326,168,12167,1,0,0:0:0:0:
327,167,12238,1,0,0:0:0:0:
327,167,12309,1,0,0:0:0:0:
282,200,12379,1,0,0:0:0:0:
337,154,12450,1,2,0:0:0:0:
336,184,12592,1,0,0:0:0:0:
317,187,12663,1,0,0:0:0:0:
501,134,12733,1,2,0:0:0:0:
403,134,12875,1,2,0:0:0:0:
377,149,13016,1,2,0:0:0:0:
377,149,13087,1,2,0:0:0:0:
384,145,13158,1,0,0:0:0:0:
384,145,13229,1,0,0:0:0:0:
410,152,13299,1,2,0:0:0:0:
410,152,13441,1,2,0:0:0:0:
406,153,13582,1,2,0:0:0:0:
426,126,13653,1,0,0:0:0:0:
320,115,13724,1,2,0:0:0:0:
319,115,13865,1,0,0:0:0:0:
438,107,14007,1,2,0:0:0:0:
202,133,14148,1,0,0:0:0:0:
273,174,14290,1,2,0:0:0:0:
426,111,14361,1,0,0:0:0:0:
385,147,14431,1,2,0:0:0:0:
273,174,14573,1,2,0:0:0:0:
188,87,14714,1,0,0:0:0:0:
200,100,14785,1,0,0:0:0:0:
488,120,14856,1,2,0:0:0:0:
454,126,14997,1,2,0:0:0:0:
454,126,15139,1,2,0:0:0:0:
463,121,15210,1,2,0:0:0:0:
278,100,15280,1,0,0:0:0:0:
369,142,15422,1,0,0:0:0:0:
244,158,15563,1,2,0:0:0:0:
244,158,15705,1,2,0:0:0:0:
203,146,15846,1,2,0:0:0:0:
486,107,15988,1,0,0:0:0:0:
291,137,16129,1,0,0:0:0:0:
291,137,16200,1,0,0:0:0:0:
242,136,16271,1,2,0:0:0:0:
325,93,16413,1,0,0:0:0:0:
355,91,16554,1,2,0:0:0:0:
325,93,16625,1,2,0:0:0:0:
312,93,16696,1,0,0:0:0:0:
386,77,16766,1,2,0:0:0:0:
314,111,16837,5,2,0:0:0:0:
329,61,16908,1,2,0:0:0:0:
240,117,16979,1,0,0:0:0:0:
223,106,17120,1,0,0:0:0:0:
297,129,17262,1,2,0:0:0:0:
425,108,17403,1,0,0:0:0:0:
400,108,17686,1,0,0:0:0:0:
311,136,17828,1,2,0:0:0:0:
285,186,18111,1,0,0:0:0:0:
285,186,18252,1,0,0:0:0:0:
276,173,18394,1,2,0:0:0:0:
224,182,18535,1,0,0:0:0:0:
152,52,18677,1,0,0:0:0:0:
447,169,18818,1,0,0:0:0:0:
466,116,18960,1,2,0:0:0:0:
317,153,19243,1,0,0:0:0:0:
277,160,19384,1,0,0:0:0:0:
321,155,19526,1,2,0:0:0:0:
266,164,19667,1,0,0:0:0:0:
50,68,19950,1,0,0:0:0:0:
257,194,20092,1,2,0:0:0:0:
439,126,20233,1,0,0:0:0:0:
210,155,20375,1,0,0:0:0:0:
346,147,20516,1,2,0:0:0:0:
346,147,20658,1,2,0:0:0:0:
247,144,20799,1,0,0:0:0:0:
399,149,20941,1,2,0:0:0:0:
395,153,21082,1,0,0:0:0:0:
376,119,21224,1,2,0:0:0:0:
337,164,21365,1,2,0:0:0:0:
269,180,21507,1,0,0:0:0:0:
316,140,21790,5,2,0:0:0:0:
207,159,21931,1,0,0:0:0:0:
198,184,22073,1,0,0:0:0:0:
343,157,22356,5,2,0:0:0:0:
506,139,22639,1,0,0:0:0:0:
387,148,22780,1,2,0:0:0:0:
357,134,23063,1,2,0:0:0:0:
266,171,23205,1,0,0:0:0:0:
325,116,23488,1,2,0:0:0:0:
401,128,23771,1,0,0:0:0:0:
401,128,23913,1,0,0:0:0:0:
336,144,24054,1,2,0:0:0:0:
390,144,24196,1,0,0:0:0:0:
340,100,24337,1,2,0:0:0:0:
385,144,24479,1,0,0:0:0:0:
287,132,24620,1,2,0:0:0:0:
381,147,24762,1,0,0:0:0:0:
291,169,24903,1,0,0:0:0:0:
323,166,24974,1,0,0:0:0:0:
345,158,25045,1,2,0:0:0:0:
359,177,25186,1,0,0:0:0:0:
288,163,25328,1,2,0:0:0:0:
201,171,25469,1,0,0:0:0:0:
30,215,25540,1,0,0:0:0:0:
296,149,25611,1,2,0:0:0:0:
194,144,25752,1,2,0:0:0:0:
194,144,25823,1,2,0:0:0:0:
305,173,25894,1,0,0:0:0:0:
328,170,25964,1,0,0:0:0:0:
194,144,26035,1,2,0:0:0:0:
252,161,26318,1,0,0:0:0:0:
243,186,26389,1,0,0:0:0:0:
175,235,26460,1,2,0:0:0:0:
161,235,26601,1,2,0:0:0:0:
375,173,26743,1,0,0:0:0:0:
264,136,26884,1,0,0:0:0:0:
355,158,27026,1,2,0:0:0:0:
283,145,27309,1,0,0:0:0:0:
352,134,27450,1,0,0:0:0:0:
359,146,27592,1,0,0:0:0:0:
359,146,27663,1,0,0:0:0:0:
356,127,27733,1,2,0:0:0:0:
350,145,27875,1,0,0:0:0:0:
212,200,28016,1,2,0:0:0:0:
337,159,28087,1,0,0:0:0:0:
212,200,28158,1,2,0:0:0:0:
360,142,28299,1,2,0:0:0:0:
241,192,28441,1,0,0:0:0:0:
304,152,28512,1,0,0:0:0:0:
366,153,28582,1,2,0:0:0:0:
392,133,28724,1,0,0:0:0:0:
392,133,28795,1,0,0:0:0:0:
385,122,28865,1,2,0:0:0:0:
372,122,28936,1,2,0:0:0:0:
314,144,29007,1,0,0:0:0:0:
281,126,29148,1,0,0:0:0:0:
237,159,29290,1,2,0:0:0:0:
272,138,29431,1,0,0:0:0:0:
250,140,29502,1,0,0:0:0:0:
416,137,29573,1,2,0:0:0:0:
297,157,29714,1,2,0:0:0:0:
139,204,29856,1,0,0:0:0:0:
292,157,29997,1,2,0:0:0:0:
341,156,30139,1,2,0:0:0:0:
256,176,30210,1,0,0:0:0:0:
130,184,30280,1,0,0:0:0:0:
349,137,30422,1,0,0:0:0:0:
337,129,30563,1,0,0:0:0:0:
214,166,30705,1,0,0:0:0:0:
314,159,30846,1,2,0:0:0:0:
314,158,30917,1,2,0:0:0:0:
283,163,30988,1,0,0:0:0:0:
483,117,31129,1,0,0:0:0:0:
274,137,31271,1,2,0:0:0:0:
160,200,31342,1,0,0:0:0:0:
236,168,31413,1,0,0:0:0:0:
274,137,31483,1,0,0:0:0:0:
492,136,31554,1,2,0:0:0:0:
346,129,31696,1,0,0:0:0:0:
294,120,31837,1,2,0:0:0:0:
321,124,31979,1,2,0:0:0:0:
321,124,32049,1,2,0:0:0:0:
211,162,32120,1,0,0:0:0:0:
346,103,32262,1,0,0:0:0:0:
179,186,32403,1,2,0:0:0:0:
231,178,32545,1,0,0:0:0:0:
281,167,32615,1,0,0:0:0:0:
315,165,32686,1,2,0:0:0:0:
288,156,32828,5,0,0:0:0:0:
353,153,32969,1,2,0:0:0:0:
427,135,33111,1,0,0:0:0:0:
406,144,33181,1,0,0:0:0:0:
310,199,33252,1,2,0:0:0:0:
244,166,33323,1,2,0:0:0:0:
301,197,33394,1,0,0:0:0:0:
223,168,33535,1,2,0:0:0:0:
467,131,33677,1,0,0:0:0:0:
392,135,33747,1,0,0:0:0:0:
173,158,33818,1,2,0:0:0:0:
305,173,33960,5,0,0:0:0:0:
305,173,34030,1,0,0:0:0:0:
325,175,34101,1,0,0:0:0:0:
325,175,34172,1,0,0:0:0:0:
263,175,34243,1,2,0:0:0:0:
263,175,34313,1,2,0:0:0:0:
263,175,34384,1,2,0:0:0:0:
263,175,34455,1,2,0:0:0:0:
326,174,34526,1,0,0:0:0:0:
326,174,34596,1,0,0:0:0:0:
326,174,34667,1,0,0:0:0:0:
326,174,34738,1,0,0:0:0:0:
323,178,34809,1,2,0:0:0:0:
317,180,34879,1,2,0:0:0:0:
317,180,34950,1,2,0:0:0:0:
317,180,35021,1,2,0:0:0:0:
348,159,35092,1,0,0:0:0:0:
272,174,35516,1,0,0:0:0:0:
263,176,35658,1,0,0:0:0:0:
389,151,35941,1,2,0:0:0:0:
293,155,36224,1,0,0:0:0:0:
211,164,36648,1,0,0:0:0:0:
211,164,36790,1,0,0:0:0:0:
445,141,37073,1,2,0:0:0:0:
339,140,37356,1,0,0:0:0:0:
223,108,37639,5,2,0:0:0:0:
270,82,37780,1,0,0:0:0:0:
270,82,37922,1,0,0:0:0:0:
250,117,38205,1,2,0:0:0:0:
212,189,38488,1,0,0:0:0:0:
183,192,38629,1,0,0:0:0:0:
183,192,38771,1,2,0:0:0:0:
286,213,39054,1,2,0:0:0:0:
298,189,39196,1,0,0:0:0:0:
295,163,39337,1,2,0:0:0:0:
319,148,39620,1,0,0:0:0:0:
188,78,39903,1,2,0:0:0:0:
246,147,40045,1,0,0:0:0:0:
246,147,40186,1,0,0:0:0:0:
147,209,40469,1,2,0:0:0:0:
296,158,40752,1,0,0:0:0:0:
239,200,41035,1,2,0:0:0:0:
265,162,41177,1,0,0:0:0:0:
192,171,41318,1,0,0:0:0:0:
143,153,41601,1,2,0:0:0:0:
264,133,41884,1,0,0:0:0:0:
156,220,42167,1,0,0:0:0:0:
279,149,42309,1,2,0:0:0:0:
279,149,42450,1,2,0:0:0:0:
362,158,42733,1,2,0:0:0:0:
277,162,43016,1,2,0:0:0:0:
270,163,43087,1,2,0:0:0:0:
284,184,43158,1,0,0:0:0:0:
284,184,43229,1,0,0:0:0:0:
428,137,43299,1,2,0:0:0:0:
278,185,43441,1,0,0:0:0:0:
403,139,43582,1,2,0:0:0:0:
403,139,43653,1,2,0:0:0:0:
403,139,43724,1,2,0:0:0:0:
403,139,43795,1,2,0:0:0:0:
324,164,43865,1,0,0:0:0:0:
240,189,43936,1,0,0:0:0:0:
240,189,44007,1,0,0:0:0:0:
240,189,44078,1,0,0:0:0:0:
323,118,44148,1,2,0:0:0:0:
272,168,44290,1,0,0:0:0:0:
340,188,44431,1,2,0:0:0:0:
324,164,44714,1,0,0:0:0:0:
324,164,44785,1,0,0:0:0:0:
324,164,44856,1,0,0:0:0:0:
324,164,44927,1,0,0:0:0:0:
360,160,44997,1,2,0:0:0:0:
420,196,45139,1,2,0:0:0:0:
432,128,45280,1,0,0:0:0:0:
460,152,45351,1,2,0:0:0:0:
360,160,45422,1,0,0:0:0:0:
360,160,45493,1,0,0:0:0:0:
432,128,45563,1,2,0:0:0:0:
364,140,45705,1,0,0:0:0:0:
364,112,45846,1,2,0:0:0:0:
380,108,45988,1,2,0:0:0:0:
408,128,46129,1,2,0:0:0:0:
360,160,46413,1,0,0:0:0:0:
316,216,46554,1,0,0:0:0:0:
300,244,46625,1,0,0:0:0:0:
292,36,46696,1,2,0:0:0:0:
340,84,46837,1,0,0:0:0:0:
380,120,46979,1,2,0:0:0:0:
304,160,47120,1,0,0:0:0:0:
176,52,47191,1,0,0:0:0:0:
340,156,47262,1,2,0:0:0:0:
400,120,47403,1,0,0:0:0:0:
372,100,47545,1,2,0:0:0:0:
440,108,47686,1,0,0:0:0:0:
303,204,47757,1,2,0:0:0:0:
472,96,47828,1,2,0:0:0:0:
436,100,47898,1,0,0:0:0:0:
404,112,47969,1,2,0:0:0:0:
396,180,48111,1,0,0:0:0:0:
400,144,48181,1,0,0:0:0:0:
428,124,48252,1,0,0:0:0:0:
428,124,48323,1,0,0:0:0:0:
436,100,48394,1,2,0:0:0:0:
300,128,48677,1,4,0:0:0:0:
336,188,48818,1,2,0:0:0:0:
308,168,48889,1,0,0:0:0:0:
336,188,48960,1,2,0:0:0:0:
260,148,49101,1,0,0:0:0:0:
212,96,49243,1,0,0:0:0:0:
236,118,49313,1,2,0:0:0:0:
360,156,49384,1,2,0:0:0:0:
352,124,49455,1,0,0:0:0:0:
388,124,49526,1,2,0:0:0:0:
268,184,49667,1,0,0:0:0:0:
260,148,49738,1,0,0:0:0:0:
360,156,49809,1,2,0:0:0:0:
320,136,49879,1,2,0:0:0:0:
320,136,49950,5,0,0:0:0:0:
392,156,50092,1,0,0:0:0:0:
360,156,50233,1,2,0:0:0:0:
360,156,50375,1,0,0:0:0:0:
316,168,50446,1,2,0:0:0:0:
360,156,50516,1,2,0:0:0:0:
328,172,50587,1,0,0:0:0:0:
360,156,50658,1,2,0:0:0:0:
316,104,50799,1,0,0:0:0:0:
228,196,50941,1,2,0:0:0:0:
360,156,51012,1,2,0:0:0:0:
344,188,51082,1,0,0:0:0:0:
344,188,51224,1,0,0:0:0:0:
360,156,51365,1,2,0:0:0:0:
360,156,51436,1,2,0:0:0:0:
344,188,51507,1,0,0:0:0:0:
316,252,51648,1,0,0:0:0:0:
200,228,51790,1,2,0:0:0:0:
232,212,51861,1,2,0:0:0:0:
264,200,51931,1,0,0:0:0:0:
300,192,52002,1,0,0:0:0:0:
328,172,52073,1,2,0:0:0:0:
296,184,52214,1,2,0:0:0:0:
296,184,52285,1,2,0:0:0:0:
316,252,52356,1,0,0:0:0:0:
316,252,52427,1,0,0:0:0:0:
344,232,52497,1,0,0:0:0:0:
264,200,52568,1,0,0:0:0:0:
268,164,52639,1,2,0:0:0:0:
352,184,52780,1,2,0:0:0:0:
352,184,52851,1,2,0:0:0:0:
328,172,52922,1,0,0:0:0:0:
328,172,52993,1,2,0:0:0:0:
328,172,53063,1,0,0:0:0:0:
328,172,53134,1,0,0:0:0:0:
356,152,53205,1,2,0:0:0:0:
256,296,53346,5,0,0:0:0:0:
212,224,53417,1,0,0:0:0:0:
240,196,53488,1,2,0:0:0:0:
248,164,53629,1,0,0:0:0:0:
376,184,53771,1,0,0:0:0:0:
352,184,53842,1,0,0:0:0:0:
356,160,53913,1,2,0:0:0:0:
288,148,54054,1,0,0:0:0:0:
468,152,54196,1,2,0:0:0:0:
364,196,54266,1,2,0:0:0:0:
356,144,54337,1,0,0:0:0:0:
396,144,54479,1,0,0:0:0:0:
240,212,54620,5,2,0:0:0:0:
240,212,54762,1,0,0:0:0:0:
288,188,54832,1,0,0:0:0:0:
192,220,54903,1,2,0:0:0:0:
256,148,55045,1,0,0:0:0:0:
192,220,55186,1,2,0:0:0:0:
192,220,55328,1,2,0:0:0:0:
364,228,55611,1,2,0:0:0:0:
336,180,55681,1,2,0:0:0:0:
376,184,55752,1,0,0:0:0:0:
208,216,55894,1,0,0:0:0:0:
208,216,55964,1,0,0:0:0:0:
344,196,56035,1,2,0:0:0:0:
344,196,56177,1,2,0:0:0:0:
388,180,56318,1,0,0:0:0:0:
224,184,56460,1,2,0:0:0:0:
368,144,56530,1,0,0:0:0:0:
236,208,56601,1,0,0:0:0:0:
384,176,56743,1,2,0:0:0:0:
344,188,56884,1,0,0:0:0:0:
376,176,57167,1,0,0:0:0:0:
336,184,57238,1,0,0:0:0:0:
432,144,57309,1,2,0:0:0:0:
236,208,57379,1,0,0:0:0:0:
512,136,57450,1,2,0:0:0:0:
328,196,57592,1,0,0:0:0:0:
332,196,57663,1,0,0:0:0:0:
384,164,57733,1,2,0:0:0:0:
432,120,57875,1,0,0:0:0:0:
412,140,58016,1,0,0:0:0:0:
408,152,58087,1,0,0:0:0:0:
440,144,58158,1,0,0:0:0:0:
416,160,58229,1,0,0:0:0:0:
392,168,58299,1,2,0:0:0:0:
224,228,58441,1,2,0:0:0:0:
288,184,58582,1,0,0:0:0:0:
292,168,58724,1,2,0:0:0:0:
244,188,58795,1,2,0:0:0:0:
292,168,58865,1,0,0:0:0:0:
296,176,59007,1,2,0:0:0:0:
265,129,59148,1,0,0:0:0:0:
452,164,59290,1,2,0:0:0:0:
247,153,59431,1,0,0:0:0:0:
247,153,59573,1,0,0:0:0:0:
247,153,59644,1,0,0:0:0:0:
247,153,59714,1,0,0:0:0:0:
220,208,59856,1,0,0:0:0:0:
172,240,59997,1,2,0:0:0:0:
172,240,60068,1,2,0:0:0:0:
368,156,60139,1,0,0:0:0:0:
260,176,60280,1,2,0:0:0:0:
260,176,60351,1,2,0:0:0:0:
320,164,60422,1,0,0:0:0:0:
296,162,60563,1,0,0:0:0:0:
208,99,60705,1,2,0:0:0:0:
272,180,60846,1,0,0:0:0:0:
448,152,60917,1,2,0:0:0:0:
352,164,60988,1,0,0:0:0:0:
232,168,61129,1,2,0:0:0:0:
232,168,61271,1,2,0:0:0:0:
232,168,61342,1,2,0:0:0:0:
192,196,61413,1,0,0:0:0:0:
204,232,61483,1,0,0:0:0:0:
248,196,61554,1,2,0:0:0:0:
272,180,61696,1,2,0:0:0:0:
272,180,61766,1,2,0:0:0:0:
416,160,61837,1,0,0:0:0:0:
416,160,61908,1,0,0:0:0:0:
380,168,61979,1,2,0:0:0:0:
336,156,62049,1,2,0:0:0:0:
380,168,62120,1,0,0:0:0:0:
316,144,62191,1,0,0:0:0:0:
368,160,62262,1,2,0:0:0:0:
316,144,62403,1,2,0:0:0:0:
316,144,62474,1,2,0:0:0:0:
416,160,62545,1,0,0:0:0:0:
368,176,62686,1,2,0:0:0:0:
364,144,62828,1,2,0:0:0:0:
248,184,62898,1,2,0:0:0:0:
316,128,62969,1,0,0:0:0:0:
192,192,63111,1,0,0:0:0:0:
336,156,63252,1,2,0:0:0:0:
412,144,63394,1,2,0:0:0:0:
268,148,63464,1,0,0:0:0:0:
268,148,63535,1,0,0:0:0:0:
236,168,63677,1,2,0:0:0:0:
272,172,63747,1,0,0:0:0:0:
368,144,63818,1,2,0:0:0:0:
364,136,63889,1,2,0:0:0:0:
436,152,63960,1,0,0:0:0:0:
420,144,64101,1,0,0:0:0:0:
200,196,64172,1,2,0:0:0:0:
308,168,64243,1,0,0:0:0:0:
252,188,64384,1,2,0:0:0:0:
376,136,64526,1,0,0:0:0:0:
376,136,64667,1,0,0:0:0:0:
376,136,64738,1,0,0:0:0:0:
432,136,64809,1,2,0:0:0:0:
232,184,64950,1,0,0:0:0:0:
352,124,65092,1,2,0:0:0:0:
272,152,65233,1,0,0:0:0:0:
272,152,65304,1,0,0:0:0:0:
312,148,65375,1,0,0:0:0:0:
196,180,65516,1,2,0:0:0:0:
248,200,65658,1,0,0:0:0:0:
280,168,65799,1,2,0:0:0:0:
248,200,65870,1,0,0:0:0:0:
280,168,65941,1,2,0:0:0:0:
240,200,66082,1,0,0:0:0:0:
388,116,66224,1,2,0:0:0:0:
400,140,66295,1,2,0:0:0:0:
212,144,66365,1,0,0:0:0:0:
288,144,66436,1,0,0:0:0:0:
220,160,66507,1,2,0:0:0:0:
288,144,66648,1,0,0:0:0:0:
288,144,66719,1,0,0:0:0:0:
268,180,66790,1,2,0:0:0:0:
208,236,66931,1,0,0:0:0:0:
240,212,67073,1,2,0:0:0:0:
224,196,67214,1,2,0:0:0:0:
228,200,67356,1,2,0:0:0:0:
228,200,67427,1,2,0:0:0:0:
288,184,67497,1,0,0:0:0:0:
384,176,67639,1,0,0:0:0:0:
384,176,67710,1,0,0:0:0:0:
300,192,67780,1,2,0:0:0:0:
300,192,67922,1,2,0:0:0:0:
360,180,67993,5,0,0:0:0:0:
428,120,68063,1,2,0:0:0:0:
304,160,68205,1,2,0:0:0:0:
240,216,68276,1,2,0:0:0:0:
288,232,68346,1,0,0:0:0:0:
328,188,68629,1,0,0:0:0:0:
152,196,68771,1,0,0:0:0:0:
104,208,68913,1,0,0:0:0:0:
296,176,69054,1,6,0:0:0:0:
232,148,69196,1,0,0:0:0:0:
376,140,69337,1,2,0:0:0:0:
232,148,69479,1,0,0:0:0:0:
388,132,69620,1,0,0:0:0:0:
372,168,69691,1,0,0:0:0:0:
356,160,69762,1,2,0:0:0:0:
164,208,69903,1,2,0:0:0:0:
248,172,69974,1,0,0:0:0:0:
268,148,70045,1,2,0:0:0:0:
224,176,70186,1,4,0:0:0:0:
368,128,70328,1,4,0:0:0:0:
336,148,70469,1,6,0:0:0:0:
240,160,70611,1,2,0:0:0:0:
422,164,70681,1,2,0:0:0:0:
244,152,70752,1,0,0:0:0:0:
316,164,70823,1,0,0:0:0:0:
248,140,70894,1,2,0:0:0:0:
244,88,70964,1,2,0:0:0:0:
268,96,71035,1,0,0:0:0:0:
296,156,71106,1,0,0:0:0:0:
292,84,71177,1,0,0:0:0:0:
296,156,71247,1,0,0:0:0:0:
219,177,71318,1,6,0:0:0:0:
388,176,71460,1,0,0:0:0:0:
388,176,71530,1,0,0:0:0:0:
422,164,71601,1,2,0:0:0:0:
457,135,71743,1,2,0:0:0:0:
358,164,71884,1,0,0:0:0:0:
306,131,72026,1,0,0:0:0:0:
306,131,72096,1,0,0:0:0:0:
360,157,72167,1,2,0:0:0:0:
340,163,72309,1,2,0:0:0:0:
330,131,72450,1,2,0:0:0:0:
330,131,72521,1,2,0:0:0:0:
364,179,72592,1,2,0:0:0:0:
321,188,72663,1,2,0:0:0:0:
298,197,72733,1,0,0:0:0:0:
356,136,72875,5,2,0:0:0:0:
320,168,73016,1,0,0:0:0:0:
320,168,73087,1,0,0:0:0:0:
248,104,73158,1,2,0:0:0:0:
225,162,73229,1,2,0:0:0:0:
390,137,73299,1,0,0:0:0:0:
288,132,73441,1,2,0:0:0:0:
312,134,73582,1,0,0:0:0:0:
305,163,73653,1,0,0:0:0:0:
432,115,73724,1,2,0:0:0:0:
331,133,73865,1,2,0:0:0:0:
331,133,73936,1,2,0:0:0:0:
463,149,74007,1,0,0:0:0:0:
433,131,74148,1,0,0:0:0:0:
410,160,74219,1,2,0:0:0:0:
390,162,74290,1,2,0:0:0:0:
390,162,74431,1,2,0:0:0:0:
336,178,74502,1,0,0:0:0:0:
336,178,74573,1,0,0:0:0:0:
286,149,74714,1,2,0:0:0:0:
504,107,74785,1,0,0:0:0:0:
386,126,74856,1,2,0:0:0:0:
357,149,74927,1,0,0:0:0:0:
404,155,74997,1,0,0:0:0:0:
510,109,75068,1,0,0:0:0:0:
374,153,75139,1,2,0:0:0:0:
327,167,75280,1,0,0:0:0:0:
386,126,75422,1,2,0:0:0:0:
344,128,75493,1,0,0:0:0:0:
468,120,75563,5,2,0:0:0:0:
420,132,75634,1,0,0:0:0:0:
420,132,75705,1,0,0:0:0:0:
403,134,75846,1,2,0:0:0:0:
336,184,75988,1,0,0:0:0:0:
317,187,76059,1,0,0:0:0:0:
501,134,76129,1,2,0:0:0:0:
403,134,76271,1,2,0:0:0:0:
377,149,76413,1,2,0:0:0:0:
377,149,76483,1,2,0:0:0:0:
384,145,76554,1,0,0:0:0:0:
384,145,76625,1,0,0:0:0:0:
410,152,76696,1,2,0:0:0:0:
410,152,76837,1,2,0:0:0:0:
406,153,76979,1,2,0:0:0:0:
426,126,77049,1,0,0:0:0:0:
320,115,77120,1,2,0:0:0:0:
319,115,77191,1,2,0:0:0:0:
392,126,77262,1,0,0:0:0:0:
392,126,77332,1,0,0:0:0:0:
438,107,77403,1,2,0:0:0:0:
202,133,77545,1,0,0:0:0:0:
273,174,77686,1,2,0:0:0:0:
426,111,77757,1,0,0:0:0:0:
385,147,77828,1,2,0:0:0:0:
273,174,77969,1,2,0:0:0:0:
288,140,78040,1,2,0:0:0:0:
188,87,78111,1,0,0:0:0:0:
200,100,78181,1,0,0:0:0:0:
488,120,78252,1,2,0:0:0:0:
454,126,78394,1,2,0:0:0:0:
454,126,78535,1,2,0:0:0:0:
463,121,78606,1,2,0:0:0:0:
278,100,78677,1,0,0:0:0:0:
369,142,78818,1,0,0:0:0:0:
244,158,78960,1,2,0:0:0:0:
244,158,79101,1,2,0:0:0:0:
203,146,79243,1,2,0:0:0:0:
359,126,79313,1,0,0:0:0:0:
486,107,79384,1,2,0:0:0:0:
232,108,79455,1,0,0:0:0:0:
291,137,79526,1,0,0:0:0:0:
291,137,79596,1,0,0:0:0:0:
369,142,79667,1,2,0:0:0:0:
288,160,79809,1,0,0:0:0:0:
288,160,79879,1,0,0:0:0:0:
288,160,79950,1,0,0:0:0:0:
288,160,80021,1,0,0:0:0:0:
328,152,80092,1,2,0:0:0:0:
412,148,80233,1,0,0:0:0:0:
328,152,80375,1,4,0:0:0:0:
212,156,80658,1,0,0:0:0:0:
272,128,80941,1,2,0:0:0:0:
280,116,81082,1,0,0:0:0:0:
280,116,81224,1,0,0:0:0:0:
184,116,81365,1,2,0:0:0:0:
240,120,81648,1,2,0:0:0:0:
208,120,81790,1,0,0:0:0:0:
208,96,81931,1,0,0:0:0:0:
288,96,82073,1,2,0:0:0:0:
288,96,82214,1,0,0:0:0:0:
392,136,82356,1,2,0:0:0:0:
396,168,82639,1,2,0:0:0:0:
209,115,82780,1,0,0:0:0:0:
384,144,82922,1,2,0:0:0:0:
384,168,83063,1,2,0:0:0:0:
384,144,83205,1,0,0:0:0:0:
332,192,83346,1,2,0:0:0:0:
208,116,83629,1,0,0:0:0:0:
348,124,83771,1,2,0:0:0:0:
239,199,83913,1,2,0:0:0:0:
349,162,84054,1,0,0:0:0:0:
224,192,84337,1,0,0:0:0:0:
312,156,84620,1,2,0:0:0:0:
392,136,84903,1,0,0:0:0:0:
324,124,85186,1,2,0:0:0:0:
192,144,85328,1,0,0:0:0:0:
192,144,85469,1,0,0:0:0:0:
172,136,85611,1,2,0:0:0:0:
248,220,85752,1,0,0:0:0:0:
216,224,85894,1,2,0:0:0:0:
336,196,86177,1,0,0:0:0:0:
336,196,86318,1,0,0:0:0:0:
224,220,86460,1,2,0:0:0:0:
340,152,86601,1,2,0:0:0:0:
440,164,86743,1,0,0:0:0:0:
168,240,86884,1,2,0:0:0:0:
340,160,87026,1,0,0:0:0:0:
64,144,87167,1,2,0:0:0:0:
256,128,87238,1,2,0:0:0:0:
412,124,87309,1,0,0:0:0:0:
360,112,87450,1,0,0:0:0:0:
348,148,87592,1,2,0:0:0:0:
340,140,87733,1,0,0:0:0:0:
396,120,87804,1,0,0:0:0:0:
452,104,87875,1,0,0:0:0:0:
448,108,88016,1,2,0:0:0:0:
376,128,88158,1,2,0:0:0:0:
448,128,88229,1,0,0:0:0:0:
440,128,88299,1,0,0:0:0:0:
496,104,88370,1,0,0:0:0:0:
512,100,88441,1,2,0:0:0:0:
324,148,88582,1,2,0:0:0:0:
324,148,88724,1,2,0:0:0:0:
324,148,88795,1,2,0:0:0:0:
364,152,88865,1,0,0:0:0:0:
372,148,88936,1,0,0:0:0:0:
324,148,89007,1,2,0:0:0:0:
212,154,89078,1,0,0:0:0:0:
392,140,89148,1,2,0:0:0:0:
332,160,89290,1,0,0:0:0:0:
356,192,89361,1,2,0:0:0:0:
384,152,89431,1,0,0:0:0:0:
161,235,89714,1,2,0:0:0:0:
375,173,89856,1,0,0:0:0:0:
264,136,89997,1,2,0:0:0:0:
355,158,90139,1,2,0:0:0:0:
144,136,90210,1,0,0:0:0:0:
144,136,90280,1,0,0:0:0:0:
283,145,90422,1,0,0:0:0:0:
352,134,90563,1,0,0:0:0:0:
247,155,90634,1,2,0:0:0:0:
247,155,90705,1,2,0:0:0:0:
359,146,90776,1,0,0:0:0:0:
356,127,90846,1,2,0:0:0:0:
350,145,90988,1,0,0:0:0:0:
212,200,91129,1,2,0:0:0:0:
212,200,91271,1,2,0:0:0:0:
16,144,91342,1,0,0:0:0:0:
360,142,91413,1,2,0:0:0:0:
241,192,91554,1,0,0:0:0:0:
304,152,91625,1,0,0:0:0:0:
366,153,91696,1,2,0:0:0:0:
392,133,91837,1,0,0:0:0:0:
385,122,91979,1,2,0:0:0:0:
292,124,92049,1,2,0:0:0:0:
314,144,92120,1,0,0:0:0:0:
237,159,92262,1,2,0:0:0:0:
281,126,92403,1,0,0:0:0:0:
416,137,92545,1,2,0:0:0:0:
297,157,92686,1,2,0:0:0:0:
272,138,92828,1,0,0:0:0:0:
139,204,92969,1,0,0:0:0:0:
368,144,93040,1,0,0:0:0:0:
292,157,93111,1,2,0:0:0:0:
341,156,93252,1,2,0:0:0:0:
256,176,93323,1,0,0:0:0:0:
130,184,93394,1,0,0:0:0:0:
445,135,93464,1,2,0:0:0:0:
337,129,93606,1,0,0:0:0:0:
448,100,93677,1,2,0:0:0:0:
214,166,93818,1,0,0:0:0:0:
314,159,93960,1,2,0:0:0:0:
483,117,94243,1,0,0:0:0:0:
274,137,94384,1,2,0:0:0:0:
216,144,94526,1,0,0:0:0:0:
492,136,94667,1,2,0:0:0:0:
346,129,94809,1,0,0:0:0:0:
264,216,94879,1,0,0:0:0:0:
294,120,94950,1,2,0:0:0:0:
321,124,95092,1,2,0:0:0:0:
211,162,95233,1,0,0:0:0:0:
244,96,95304,1,0,0:0:0:0:
346,103,95375,1,0,0:0:0:0:
179,186,95516,1,2,0:0:0:0:
231,178,95658,1,0,0:0:0:0:
281,167,95729,1,0,0:0:0:0:
315,165,95799,1,2,0:0:0:0:
288,156,95941,5,0,0:0:0:0:
353,153,96082,1,2,0:0:0:0:
427,135,96224,1,0,0:0:0:0:
406,144,96295,1,0,0:0:0:0:
310,199,96365,1,2,0:0:0:0:
244,166,96436,1,2,0:0:0:0:
301,197,96507,1,0,0:0:0:0:
223,168,96648,1,2,0:0:0:0:
467,131,96790,1,0,0:0:0:0:
392,135,96861,1,0,0:0:0:0:
173,158,96931,1,2,0:0:0:0:
380,104,97073,1,2,0:0:0:0:
432,152,97214,1,0,0:0:0:0:
256,108,97356,1,6,0:0:0:0:
300,152,97497,1,6,0:0:0:0:
184,136,97639,1,4,0:0:0:0:
188,128,97780,1,0,0:0:0:0:
188,128,97851,1,0,0:0:0:0:
396,128,97922,1,2,0:0:0:0:
344,120,97993,1,2,0:0:0:0:
344,120,98063,1,2,0:0:0:0:
344,120,98134,1,2,0:0:0:0:
220,184,98205,1,0,0:0:0:0:
228,188,98276,1,0,0:0:0:0:
312,176,98346,1,2,0:0:0:0:
312,176,98417,1,2,0:0:0:0:
380,160,98488,1,0,0:0:0:0:
272,174,98913,1,0,0:0:0:0:
263,176,99054,1,0,0:0:0:0:
389,151,99337,1,2,0:0:0:0:
293,155,99620,1,0,0:0:0:0:
211,164,100045,1,0,0:0:0:0:
211,164,100186,1,0,0:0:0:0:
445,141,100469,1,2,0:0:0:0:
339,140,100752,1,0,0:0:0:0:
223,108,101035,5,2,0:0:0:0:
270,82,101177,1,0,0:0:0:0:
270,82,101318,1,0,0:0:0:0:
250,117,101601,1,2,0:0:0:0:
212,189,101884,1,4,0:0:0:0:
183,192,102167,1,6,0:0:0:0:
286,213,102450,1,6,0:0:0:0:
293,191,102592,1,0,0:0:0:0:
295,163,102733,1,2,0:0:0:0:
319,148,103016,1,4,0:0:0:0:
188,78,103299,1,2,0:0:0:0:
246,147,103441,1,0,0:0:0:0:
246,147,103582,1,0,0:0:0:0:
147,209,103865,1,2,0:0:0:0:
296,158,104148,1,0,0:0:0:0:
239,200,104431,1,2,0:0:0:0:
265,162,104573,1,0,0:0:0:0:
192,171,104714,1,0,0:0:0:0:
143,153,104997,1,2,0:0:0:0:
264,133,105280,1,0,0:0:0:0:
156,220,105563,1,0,0:0:0:0:
279,149,105705,1,2,0:0:0:0:
279,149,105846,1,2,0:0:0:0:
362,158,106129,1,2,0:0:0:0:
277,162,106413,1,2,0:0:0:0:
270,163,106483,1,2,0:0:0:0:
284,184,106554,1,0,0:0:0:0:
284,184,106625,1,0,0:0:0:0:
428,137,106696,1,2,0:0:0:0:
328,132,106766,1,2,0:0:0:0:
278,185,106837,1,0,0:0:0:0:
384,152,106908,1,0,0:0:0:0:
403,139,106979,1,2,0:0:0:0:
403,139,107049,1,2,0:0:0:0:
403,139,107120,1,2,0:0:0:0:
403,139,107191,1,2,0:0:0:0:
324,164,107262,1,0,0:0:0:0:
240,189,107332,1,0,0:0:0:0:
240,189,107403,1,0,0:0:0:0:
240,189,107474,1,0,0:0:0:0:
323,118,107545,1,2,0:0:0:0:
272,168,107686,1,0,0:0:0:0:
340,188,107828,1,2,0:0:0:0:
216,100,108111,1,2,0:0:0:0:
324,164,108252,1,0,0:0:0:0:
324,164,108323,1,0,0:0:0:0:
360,160,108394,1,2,0:0:0:0:
420,196,108535,1,2,0:0:0:0:
432,128,108677,1,0,0:0:0:0:
460,152,108747,1,2,0:0:0:0:
432,128,108818,1,2,0:0:0:0:
360,160,108889,1,0,0:0:0:0:
384,136,108960,1,2,0:0:0:0:
364,140,109101,1,0,0:0:0:0:
364,112,109243,1,2,0:0:0:0:
324,108,109313,5,0,0:0:0:0:
380,108,109384,1,2,0:0:0:0:
408,128,109526,1,2,0:0:0:0:
360,160,109809,1,0,0:0:0:0:
316,216,109950,1,0,0:0:0:0:
292,36,110092,1,2,0:0:0:0:
340,84,110233,1,0,0:0:0:0:
380,120,110375,1,2,0:0:0:0:
304,160,110516,1,0,0:0:0:0:
176,52,110587,1,0,0:0:0:0:
340,156,110658,1,2,0:0:0:0:
400,120,110799,1,0,0:0:0:0:
372,100,110941,1,2,0:0:0:0:
440,108,111082,1,0,0:0:0:0:
472,96,111224,1,2,0:0:0:0:
400,120,111295,1,2,0:0:0:0:
220,108,111365,1,0,0:0:0:0:
396,180,111507,1,0,0:0:0:0:
428,124,111648,1,0,0:0:0:0:
428,124,111719,1,0,0:0:0:0:
436,100,111790,1,2,0:0:0:0:
300,128,112073,1,4,0:0:0:0:
336,188,112214,1,2,0:0:0:0:
308,168,112285,1,0,0:0:0:0:
336,188,112356,1,2,0:0:0:0:
260,148,112497,1,0,0:0:0:0:
212,96,112639,1,2,0:0:0:0:
360,156,112780,1,2,0:0:0:0:
352,124,112851,1,0,0:0:0:0:
388,124,112922,1,2,0:0:0:0:
268,184,113063,1,0,0:0:0:0:
260,148,113134,1,0,0:0:0:0:
360,156,113205,1,2,0:0:0:0:
320,136,113276,1,2,0:0:0:0:
320,136,113346,5,0,0:0:0:0:
392,156,113488,1,0,0:0:0:0:
360,156,113629,1,2,0:0:0:0:
360,156,113771,1,0,0:0:0:0:
316,168,113842,1,2,0:0:0:0:
360,156,113913,1,2,0:0:0:0:
328,172,113983,1,0,0:0:0:0:
360,156,114054,1,2,0:0:0:0:
316,104,114196,1,0,0:0:0:0:
228,196,114337,1,2,0:0:0:0:
360,156,114408,1,2,0:0:0:0:
344,188,114479,1,0,0:0:0:0:
344,188,114620,1,0,0:0:0:0:
360,156,114762,1,2,0:0:0:0:
360,156,114832,1,2,0:0:0:0:
344,188,114903,1,0,0:0:0:0:
316,252,115045,1,0,0:0:0:0:
200,228,115186,1,2,0:0:0:0:
232,212,115257,1,2,0:0:0:0:
264,200,115328,1,0,0:0:0:0:
300,192,115398,1,0,0:0:0:0:
328,172,115469,1,2,0:0:0:0:
360,104,115540,1,2,0:0:0:0:
328,120,115611,1,2,0:0:0:0:
296,184,115681,1,2,0:0:0:0:
316,252,115752,1,0,0:0:0:0:
316,252,115823,1,0,0:0:0:0:
344,232,115894,1,0,0:0:0:0:
264,200,115964,1,0,0:0:0:0:
268,164,116035,1,2,0:0:0:0:
336,104,116106,1,0,0:0:0:0:
352,184,116177,1,2,0:0:0:0:
352,184,116247,1,2,0:0:0:0:
328,172,116318,1,0,0:0:0:0:
328,172,116389,1,0,0:0:0:0:
328,172,116460,1,0,0:0:0:0:
328,172,116530,1,0,0:0:0:0:
356,152,116601,1,2,0:0:0:0:
256,296,116743,5,0,0:0:0:0:
212,224,116813,1,0,0:0:0:0:
240,196,116884,1,2,0:0:0:0:
248,164,117026,1,0,0:0:0:0:
376,184,117167,1,0,0:0:0:0:
352,184,117238,1,0,0:0:0:0:
356,160,117309,1,2,0:0:0:0:
288,148,117450,1,0,0:0:0:0:
468,152,117592,1,2,0:0:0:0:
364,196,117663,1,2,0:0:0:0:
356,144,117733,1,0,0:0:0:0:
396,144,117875,1,0,0:0:0:0:
240,212,118016,5,2,0:0:0:0:
240,212,118158,1,0,0:0:0:0:
288,188,118229,1,0,0:0:0:0:
192,220,118299,1,2,0:0:0:0:
256,148,118441,1,0,0:0:0:0:
192,220,118582,1,2,0:0:0:0:
192,220,118724,1,2,0:0:0:0:
364,228,119007,1,2,0:0:0:0:
376,184,119148,1,0,0:0:0:0:
208,216,119290,1,0,0:0:0:0:
208,216,119361,1,0,0:0:0:0:
344,196,119431,1,2,0:0:0:0:
344,196,119573,1,2,0:0:0:0:
388,180,119714,1,0,0:0:0:0:
224,184,119856,1,2,0:0:0:0:
236,208,119997,1,0,0:0:0:0:
232,112,120068,1,0,0:0:0:0:
384,176,120139,1,2,0:0:0:0:
344,188,120280,1,0,0:0:0:0:
376,176,120563,1,0,0:0:0:0:
432,144,120705,1,2,0:0:0:0:
236,208,120776,1,0,0:0:0:0:
512,136,120846,1,2,0:0:0:0:
328,196,120988,1,0,0:0:0:0:
384,164,121129,1,2,0:0:0:0:
400,144,121200,1,2,0:0:0:0:
432,120,121271,1,0,0:0:0:0:
412,140,121413,1,2,0:0:0:0:
440,144,121554,1,0,0:0:0:0:
416,160,121625,1,0,0:0:0:0:
392,168,121696,1,2,0:0:0:0:
224,228,121837,1,2,0:0:0:0:
288,184,121979,1,0,0:0:0:0:
292,168,122120,1,2,0:0:0:0:
244,188,122191,1,2,0:0:0:0:
292,168,122262,1,0,0:0:0:0:
296,176,122403,1,0,0:0:0:0:
356,112,122545,1,2,0:0:0:0:
232,88,122686,1,0,0:0:0:0:
360,152,122969,1,2,0:0:0:0:
324,156,123111,1,0,0:0:0:0:
220,208,123252,1,0,0:0:0:0:
172,240,123394,1,2,0:0:0:0:
172,240,123464,1,2,0:0:0:0:
368,156,123535,1,0,0:0:0:0:
260,176,123677,1,2,0:0:0:0:
260,176,123747,1,0,0:0:0:0:
320,164,123818,1,2,0:0:0:0:
220,116,123960,1,2,0:0:0:0:
298,164,124101,1,0,0:0:0:0:
225,180,124172,1,0,0:0:0:0:
390,157,124243,1,2,0:0:0:0:
208,159,124384,1,0,0:0:0:0:
247,194,124526,1,2,0:0:0:0:
254,145,124667,1,0,0:0:0:0:
217,135,124809,1,2,0:0:0:0:
339,114,124879,1,0,0:0:0:0:
248,196,124950,1,2,0:0:0:0:
456,136,125021,1,2,0:0:0:0:
272,180,125092,1,2,0:0:0:0:
272,180,125163,1,2,0:0:0:0:
416,160,125233,1,0,0:0:0:0:
416,160,125304,1,0,0:0:0:0:
380,168,125375,1,2,0:0:0:0:
336,156,125446,1,2,0:0:0:0:
380,168,125516,1,0,0:0:0:0:
316,144,125587,1,0,0:0:0:0:
368,160,125658,1,2,0:0:0:0:
316,144,125799,1,2,0:0:0:0:
316,144,125870,1,2,0:0:0:0:
416,160,125941,1,0,0:0:0:0:
368,176,126082,1,2,0:0:0:0:
364,144,126224,1,2,0:0:0:0:
248,184,126295,1,0,0:0:0:0:
312,180,126365,1,2,0:0:0:0:
192,192,126507,1,0,0:0:0:0:
336,156,126648,1,2,0:0:0:0:
412,144,126790,1,2,0:0:0:0:
268,148,126861,1,0,0:0:0:0:
268,148,126931,1,0,0:0:0:0:
236,168,127073,1,2,0:0:0:0:
272,172,127144,1,0,0:0:0:0:
368,144,127214,1,2,0:0:0:0:
436,152,127356,1,0,0:0:0:0:
368,164,127427,1,0,0:0:0:0:
400,184,127497,1,2,0:0:0:0:
200,196,127568,1,2,0:0:0:0:
308,168,127639,1,0,0:0:0:0:
252,188,127780,1,2,0:0:0:0:
236,127,128063,1,0,0:0:0:0:
432,136,128205,1,2,0:0:0:0:
232,184,128346,1,0,0:0:0:0:
352,124,128488,1,2,0:0:0:0:
272,152,128629,1,0,0:0:0:0:
312,148,128771,1,0,0:0:0:0:
384,136,128842,5,0,0:0:0:0:
196,180,128913,1,2,0:0:0:0:
280,168,129196,1,2,0:0:0:0:
120,144,129337,1,0,0:0:0:0:
240,200,129479,1,0,0:0:0:0:
388,116,129620,1,2,0:0:0:0:
400,140,129691,1,2,0:0:0:0:
212,144,129762,1,0,0:0:0:0:
288,144,129832,1,0,0:0:0:0:
220,160,129903,1,2,0:0:0:0:
268,180,130186,1,2,0:0:0:0:
208,236,130328,1,0,0:0:0:0:
240,212,130469,1,2,0:0:0:0:
228,200,130752,1,2,0:0:0:0:
228,200,130823,1,2,0:0:0:0:
288,184,130894,1,0,0:0:0:0:
384,176,131035,1,0,0:0:0:0:
384,176,131106,1,0,0:0:0:0:
300,192,131177,1,2,0:0:0:0:
300,192,131318,1,2,0:0:0:0:
360,180,131389,5,0,0:0:0:0:
428,120,131460,1,2,0:0:0:0:
224,112,131530,1,2,0:0:0:0:
376,120,131601,1,0,0:0:0:0:
288,232,131672,1,0,0:0:0:0:
240,216,131743,1,2,0:0:0:0:
328,188,132026,1,0,0:0:0:0:
152,196,132167,1,0,0:0:0:0:
104,208,132309,1,0,0:0:0:0:
296,176,132450,1,6,0:0:0:0:
232,148,132592,1,0,0:0:0:0:
184,160,132663,1,0,0:0:0:0:
376,140,132733,1,2,0:0:0:0:
232,148,132875,1,0,0:0:0:0:
388,132,133016,1,0,0:0:0:0:
356,160,133158,1,2,0:0:0:0:
164,208,133299,1,2,0:0:0:0:
248,172,133370,1,0,0:0:0:0:
268,148,133441,1,2,0:0:0:0:
224,176,133582,1,4,0:0:0:0:
368,128,133724,1,4,0:0:0:0:
336,148,133865,1,6,0:0:0:0:
240,160,134007,1,2,0:0:0:0:
422,164,134078,1,2,0:0:0:0:
244,152,134148,1,0,0:0:0:0:
248,140,134290,1,2,0:0:0:0:
244,88,134361,1,2,0:0:0:0:
268,96,134431,1,0,0:0:0:0:
296,156,134502,1,0,0:0:0:0:
292,84,134573,1,0,0:0:0:0:
296,156,134644,1,0,0:0:0:0:
219,177,134714,1,6,0:0:0:0:
388,176,134856,1,0,0:0:0:0:
388,176,134927,1,0,0:0:0:0:
422,164,134997,1,2,0:0:0:0:
457,135,135139,1,2,0:0:0:0:
358,164,135280,1,0,0:0:0:0:
306,131,135422,1,0,0:0:0:0:
306,131,135493,1,0,0:0:0:0:
360,157,135563,1,2,0:0:0:0:
340,163,135705,1,2,0:0:0:0:
330,131,135846,1,2,0:0:0:0:
330,131,135917,1,2,0:0:0:0:
364,179,135988,1,2,0:0:0:0:
321,188,136059,1,2,0:0:0:0:
298,197,136129,1,0,0:0:0:0:
356,136,136271,5,2,0:0:0:0:
320,168,136413,1,0,0:0:0:0:
248,104,136554,1,2,0:0:0:0:
390,137,136625,1,0,0:0:0:0:
225,162,136696,1,2,0:0:0:0:
288,132,136837,1,2,0:0:0:0:
312,134,136979,1,0,0:0:0:0:
432,115,137120,1,2,0:0:0:0:
331,133,137262,1,2,0:0:0:0:
331,133,137332,1,2,0:0:0:0:
463,149,137403,1,0,0:0:0:0:
433,131,137545,1,0,0:0:0:0:
390,162,137686,1,2,0:0:0:0:
390,162,137828,1,2,0:0:0:0:
336,178,137898,1,0,0:0:0:0:
336,178,137969,1,0,0:0:0:0:
286,149,138111,1,2,0:0:0:0:
504,107,138181,1,0,0:0:0:0:
386,126,138252,1,2,0:0:0:0:
456,116,138323,1,2,0:0:0:0:
404,155,138394,1,0,0:0:0:0:
510,109,138464,1,0,0:0:0:0:
374,153,138535,1,2,0:0:0:0:
327,167,138677,1,0,0:0:0:0:
386,126,138818,1,2,0:0:0:0:
344,128,138889,1,0,0:0:0:0:
468,120,138960,5,2,0:0:0:0:
420,132,139030,1,0,0:0:0:0:
420,132,139101,1,0,0:0:0:0:
436,144,139172,1,0,0:0:0:0:
403,134,139243,1,2,0:0:0:0:
336,184,139384,1,0,0:0:0:0:
317,187,139455,1,0,0:0:0:0:
501,134,139526,1,2,0:0:0:0:
403,134,139667,1,2,0:0:0:0:
377,149,139809,1,2,0:0:0:0:
377,149,139879,1,2,0:0:0:0:
384,145,139950,1,0,0:0:0:0:
384,145,140021,1,0,0:0:0:0:
410,152,140092,1,2,0:0:0:0:
410,152,140233,1,2,0:0:0:0:
406,153,140375,1,2,0:0:0:0:
426,126,140446,1,0,0:0:0:0:
320,115,140516,1,2,0:0:0:0:
319,115,140587,1,2,0:0:0:0:
392,126,140658,1,0,0:0:0:0:
438,107,140729,1,2,0:0:0:0:
392,126,140799,1,0,0:0:0:0:
202,133,140941,1,0,0:0:0:0:
273,174,141082,1,2,0:0:0:0:
426,111,141153,1,0,0:0:0:0:
385,147,141224,1,2,0:0:0:0:
273,174,141365,1,2,0:0:0:0:
288,140,141436,1,2,0:0:0:0:
188,87,141507,1,0,0:0:0:0:
200,100,141578,1,0,0:0:0:0:
488,120,141648,1,2,0:0:0:0:
454,126,141790,1,2,0:0:0:0:
454,126,141931,1,2,0:0:0:0:
463,121,142002,1,2,0:0:0:0:
278,100,142073,1,0,0:0:0:0:
369,142,142214,1,0,0:0:0:0:
244,158,142356,1,2,0:0:0:0:
244,158,142497,1,2,0:0:0:0:
203,146,142639,1,2,0:0:0:0:
359,126,142710,1,0,0:0:0:0:
486,107,142780,1,2,0:0:0:0:
232,108,142851,1,0,0:0:0:0:
291,137,142922,1,0,0:0:0:0:
291,137,142993,1,0,0:0:0:0:
369,142,143063,1,2,0:0:0:0:
288,160,143205,1,0,0:0:0:0:
288,160,143276,1,0,0:0:0:0:
288,160,143346,1,0,0:0:0:0:
288,160,143417,1,0,0:0:0:0:
328,152,143488,1,2,0:0:0:0:
412,148,143629,1,0,0:0:0:0:
328,152,143771,1,4,0:0:0:0:
252,196,143913,1,0,0:0:0:0:
512,116,144054,1,2,0:0:0:0:
308,148,144125,5,0,0:0:0:0:
308,148,144196,1,0,0:0:0:0:
232,100,144479,1,0,0:0:0:0:
472,124,144620,1,2,0:0:0:0:
472,124,144691,1,2,0:0:0:0:
404,108,144762,1,0,0:0:0:0:
300,112,144903,1,2,0:0:0:0:
327,159,145045,1,2,0:0:0:0:
342,152,145115,1,2,0:0:0:0:
344,152,145186,1,0,0:0:0:0:
376,80,145328,1,0,0:0:0:0:
288,92,145469,1,0,0:0:0:0:
442,97,145611,1,2,0:0:0:0:
332,148,145681,1,2,0:0:0:0:
251,159,145752,1,2,0:0:0:0:
356,181,145823,1,2,0:0:0:0:
365,153,146035,1,2,0:0:0:0:
184,116,146177,1,0,0:0:0:0:
184,116,146318,1,0,0:0:0:0:
184,116,146389,1,0,0:0:0:0:
324,88,146460,1,2,0:0:0:0:
256,100,146601,1,0,0:0:0:0:
276,132,146743,1,2,0:0:0:0:
172,112,146813,1,0,0:0:0:0:
272,132,146884,1,2,0:0:0:0:
324,156,146955,1,2,0:0:0:0:
172,112,147026,1,0,0:0:0:0:
168,112,147167,1,0,0:0:0:0:
244,112,147309,1,0,0:0:0:0:
244,112,147379,1,0,0:0:0:0:
376,112,147450,1,2,0:0:0:0:
411,145,147521,1,2,0:0:0:0:
216,128,147592,1,0,0:0:0:0:
296,128,147663,1,0,0:0:0:0:
312,152,147733,1,2,0:0:0:0:
330,165,147875,1,0,0:0:0:0:
308,104,148016,1,0,0:0:0:0:
233,162,148158,1,0,0:0:0:0:
337,155,148299,1,2,0:0:0:0:
256,120,148441,1,0,0:0:0:0:
512,116,148582,1,2,0:0:0:0:
308,148,148653,5,0,0:0:0:0:
308,148,148724,1,0,0:0:0:0:
232,100,149007,1,0,0:0:0:0:
472,124,149148,1,2,0:0:0:0:
472,124,149219,1,2,0:0:0:0:
404,108,149290,1,0,0:0:0:0:
300,112,149573,1,0,0:0:0:0:
344,152,149644,1,2,0:0:0:0:
344,152,149714,1,2,0:0:0:0:
344,152,149785,1,2,0:0:0:0:
376,80,149856,1,0,0:0:0:0:
288,92,149997,1,0,0:0:0:0:
400,96,150068,1,0,0:0:0:0:
336,148,150139,1,2,0:0:0:0:
332,148,150210,1,2,0:0:0:0:
336,120,150280,1,0,0:0:0:0:
184,116,150421,1,2,0:0:0:0:
280,148,150563,1,0,0:0:0:0:
280,148,150705,1,0,0:0:0:0:
184,116,150846,1,0,0:0:0:0:
184,116,150917,1,0,0:0:0:0:
324,88,150988,1,2,0:0:0:0:
256,100,151129,1,0,0:0:0:0:
276,132,151271,1,2,0:0:0:0:
172,112,151342,1,0,0:0:0:0:
272,132,151413,1,2,0:0:0:0:
272,132,151483,1,2,0:0:0:0:
172,112,151554,1,0,0:0:0:0:
168,112,151696,1,0,0:0:0:0:
244,112,151837,1,0,0:0:0:0:
244,112,151908,1,0,0:0:0:0:
376,112,151979,1,2,0:0:0:0:
352,128,152049,1,2,0:0:0:0:
216,128,152120,1,0,0:0:0:0:
296,128,152191,1,0,0:0:0:0:
312,152,152262,1,2,0:0:0:0:
200,168,152403,1,0,0:0:0:0:
360,150,152545,1,2,0:0:0:0:
308,104,152615,1,0,0:0:0:0:
308,104,152686,1,0,0:0:0:0:
308,104,152757,1,0,0:0:0:0:
308,104,152828,1,0,0:0:0:0:
272,174,153252,1,0,0:0:0:0:
263,176,153394,1,0,0:0:0:0:
389,151,153677,1,2,0:0:0:0:
293,155,153960,1,0,0:0:0:0:
211,164,154384,1,0,0:0:0:0:
211,164,154526,1,0,0:0:0:0:
445,141,154809,1,2,0:0:0:0:
339,140,155092,1,0,0:0:0:0:
223,108,155375,5,2,0:0:0:0:
270,82,155516,1,0,0:0:0:0:
270,82,155658,1,0,0:0:0:0:
250,117,155941,1,2,0:0:0:0:
212,189,156224,1,0,0:0:0:0:
183,192,156365,1,0,0:0:0:0:
183,192,156507,1,2,0:0:0:0:
286,213,156790,1,2,0:0:0:0:
298,189,156931,1,0,0:0:0:0:
295,163,157073,1,2,0:0:0:0:
319,148,157356,1,0,0:0:0:0:
188,78,157639,1,2,0:0:0:0:
246,147,157780,1,0,0:0:0:0:
246,147,157922,1,0,0:0:0:0:
147,209,158205,1,2,0:0:0:0:
296,158,158488,1,0,0:0:0:0:
239,200,158771,1,2,0:0:0:0:
265,162,158913,1,0,0:0:0:0:
192,171,159054,1,0,0:0:0:0:
143,153,159337,1,0,0:0:0:0:
264,133,159620,1,2,0:0:0:0:
156,220,159903,1,0,0:0:0:0:
279,149,160045,1,2,0:0:0:0:
279,149,160186,1,2,0:0:0:0:
362,158,160469,1,2,0:0:0:0:
277,162,160752,1,2,0:0:0:0:
270,163,160823,1,2,0:0:0:0:
284,184,160894,1,0,0:0:0:0:
284,184,160964,1,0,0:0:0:0:
428,137,161035,1,2,0:0:0:0:
278,185,161177,1,0,0:0:0:0:
403,139,161318,1,2,0:0:0:0:
403,139,161389,1,0,0:0:0:0:
403,139,161460,1,2,0:0:0:0:
403,139,161530,1,2,0:0:0:0:
324,164,161601,1,0,0:0:0:0:
240,189,161672,1,2,0:0:0:0:
240,189,161743,1,0,0:0:0:0:
240,189,161813,1,0,0:0:0:0:
323,118,161884,1,2,0:0:0:0:
272,168,162026,1,0,0:0:0:0:
340,188,162167,1,2,0:0:0:0:
324,164,162450,1,0,0:0:0:0:
324,164,162521,1,0,0:0:0:0:
324,164,162592,1,0,0:0:0:0:
324,164,162663,1,0,0:0:0:0:
360,160,162733,1,2,0:0:0:0:
420,196,162875,1,2,0:0:0:0:
432,128,163016,1,0,0:0:0:0:
460,152,163087,1,2,0:0:0:0:
360,160,163158,1,0,0:0:0:0:
360,160,163229,1,0,0:0:0:0:
432,128,163299,1,2,0:0:0:0:
364,140,163441,1,0,0:0:0:0:
364,112,163582,1,2,0:0:0:0:
380,108,163724,1,2,0:0:0:0:
408,128,163795,1,0,0:0:0:0:
408,128,163865,1,2,0:0:0:0:
360,160,164148,1,0,0:0:0:0:
316,216,164290,1,0,0:0:0:0:
300,244,164361,1,0,0:0:0:0:
292,36,164431,1,2,0:0:0:0:
340,84,164573,1,0,0:0:0:0:
380,120,164714,1,2,0:0:0:0:
304,160,164856,1,0,0:0:0:0:
176,52,164927,1,0,0:0:0:0:
340,156,164997,1,2,0:0:0:0:
400,120,165139,1,0,0:0:0:0:
372,100,165280,1,2,0:0:0:0:
440,108,165422,1,0,0:0:0:0:
472,96,165563,1,2,0:0:0:0:
436,100,165634,1,0,0:0:0:0:
404,112,165705,1,2,0:0:0:0:
396,180,165846,1,0,0:0:0:0:
400,144,165917,1,0,0:0:0:0:
428,124,165988,1,0,0:0:0:0:
428,124,166059,1,0,0:0:0:0:
436,100,166129,1,2,0:0:0:0:
300,128,166413,1,4,0:0:0:0:
336,188,166554,1,2,0:0:0:0:
308,168,166625,1,0,0:0:0:0:
336,188,166696,1,2,0:0:0:0:
260,148,166837,1,0,0:0:0:0:
212,96,166979,1,0,0:0:0:0:
360,156,167120,1,2,0:0:0:0:
352,124,167191,1,0,0:0:0:0:
388,124,167262,1,2,0:0:0:0:
268,184,167403,1,0,0:0:0:0:
260,148,167474,1,0,0:0:0:0:
360,156,167545,1,2,0:0:0:0:
320,136,167615,1,2,0:0:0:0:
320,136,167686,5,0,0:0:0:0:
392,156,167828,1,0,0:0:0:0:
360,156,167969,1,2,0:0:0:0:
360,156,168111,1,0,0:0:0:0:
316,168,168181,1,2,0:0:0:0:
360,156,168252,1,2,0:0:0:0:
328,172,168323,1,0,0:0:0:0:
360,156,168394,1,2,0:0:0:0:
316,104,168535,1,0,0:0:0:0:
228,196,168677,1,2,0:0:0:0:
360,156,168747,1,2,0:0:0:0:
344,188,168818,1,0,0:0:0:0:
344,188,168960,1,0,0:0:0:0:
360,156,169101,1,2,0:0:0:0:
360,156,169172,1,2,0:0:0:0:
344,188,169243,1,0,0:0:0:0:
316,252,169384,1,0,0:0:0:0:
200,228,169526,1,2,0:0:0:0:
232,212,169596,1,2,0:0:0:0:
264,200,169667,1,0,0:0:0:0:
300,192,169738,1,0,0:0:0:0:
328,172,169809,1,2,0:0:0:0:
296,184,169950,1,2,0:0:0:0:
296,184,170021,1,2,0:0:0:0:
316,252,170092,1,0,0:0:0:0:
316,252,170163,1,0,0:0:0:0:
344,232,170233,1,0,0:0:0:0:
264,200,170304,1,0,0:0:0:0:
268,164,170375,1,2,0:0:0:0:
352,184,170516,1,2,0:0:0:0:
352,184,170587,1,2,0:0:0:0:
328,172,170658,1,0,0:0:0:0:
328,172,170729,1,2,0:0:0:0:
328,172,170799,1,0,0:0:0:0:
328,172,170870,1,0,0:0:0:0:
356,152,170941,1,2,2:2:0:0:
236,124,171012,1,0,2:2:0:0:
236,124,171082,1,0,2:2:0:0:
236,124,171153,1,0,2:2:0:0:
240,196,171224,1,2,2:2:0:0:
248,164,171365,1,0,0:0:0:0:
376,184,171507,1,0,0:0:0:0:
352,184,171578,1,0,0:0:0:0:
356,160,171648,1,2,0:0:0:0:
288,148,171790,1,0,0:0:0:0:
468,152,171931,1,2,0:0:0:0:
364,196,172002,1,2,0:0:0:0:
356,144,172073,1,0,0:0:0:0:
396,144,172214,1,0,0:0:0:0:
240,212,172356,5,0,0:0:0:0:
240,212,172497,1,0,0:0:0:0:
288,188,172568,1,0,0:0:0:0:
192,220,172639,1,2,0:0:0:0:
256,148,172780,1,0,0:0:0:0:
192,220,172922,1,2,0:0:0:0:
192,220,173063,1,2,0:0:0:0:
364,228,173346,1,2,0:0:0:0:
336,180,173417,1,2,0:0:0:0:
376,184,173488,1,0,0:0:0:0:
208,216,173629,1,0,0:0:0:0:
208,216,173700,1,0,0:0:0:0:
344,196,173771,1,2,0:0:0:0:
344,196,173913,1,2,0:0:0:0:
388,180,174054,1,0,0:0:0:0:
224,184,174196,1,2,0:0:0:0:
368,144,174266,1,0,0:0:0:0:
236,208,174337,1,0,0:0:0:0:
384,176,174479,1,2,0:0:0:0:
344,188,174620,1,0,0:0:0:0:
376,176,174903,1,0,0:0:0:0:
336,184,174974,1,0,0:0:0:0:
432,144,175045,1,2,0:0:0:0:
236,208,175115,1,0,0:0:0:0:
512,136,175186,1,2,0:0:0:0:
328,196,175328,1,0,0:0:0:0:
332,196,175398,1,0,0:0:0:0:
384,164,175469,1,2,0:0:0:0:
432,120,175611,1,0,0:0:0:0:
412,140,175752,1,0,0:0:0:0:
408,152,175823,1,0,0:0:0:0:
440,144,175894,1,0,0:0:0:0:
416,160,175964,1,0,0:0:0:0:
392,168,176035,1,2,0:0:0:0:
224,228,176177,1,2,0:0:0:0:
288,184,176318,1,0,0:0:0:0:
292,168,176460,1,2,0:0:0:0:
244,188,176530,1,2,0:0:0:0:
292,168,176601,1,0,0:0:0:0:
296,176,176743,1,0,0:0:0:0:
452,164,177026,1,2,0:0:0:0:
336,160,177309,1,0,0:0:0:0:
336,160,177450,1,0,0:0:0:0:
220,208,177592,1,0,0:0:0:0:
172,240,177733,1,2,0:0:0:0:
172,240,177804,1,2,0:0:0:0:
368,156,177875,1,0,0:0:0:0:
260,176,178016,1,2,0:0:0:0:
260,176,178087,1,2,0:0:0:0:
320,164,178158,1,2,0:0:0:0:
232,248,178299,1,0,0:0:0:0:
232,248,178370,1,0,0:0:0:0:
476,148,178441,1,2,0:0:0:0:
272,180,178582,1,0,0:0:0:0:
448,152,178653,1,2,0:0:0:0:
352,164,178724,1,0,0:0:0:0:
232,168,178865,1,2,0:0:0:0:
232,168,179007,1,2,0:0:0:0:
232,168,179078,1,2,0:0:0:0:
192,196,179148,1,0,0:0:0:0:
204,232,179219,1,0,0:0:0:0:
248,196,179290,1,2,0:0:0:0:
272,180,179431,1,2,0:0:0:0:
272,180,179502,1,2,0:0:0:0:
416,160,179573,1,0,0:0:0:0:
416,160,179644,1,0,0:0:0:0:
380,168,179714,1,2,0:0:0:0:
336,156,179785,1,2,0:0:0:0:
380,168,179856,1,0,0:0:0:0:
316,144,179927,1,0,0:0:0:0:
368,160,179997,1,2,0:0:0:0:
316,144,180139,1,2,0:0:0:0:
316,144,180210,1,2,0:0:0:0:
416,160,180280,1,0,0:0:0:0:
368,176,180422,1,2,0:0:0:0:
364,144,180563,1,2,0:0:0:0:
248,184,180634,1,2,0:0:0:0:
316,128,180705,1,0,0:0:0:0:
192,192,180846,1,0,0:0:0:0:
336,156,180988,1,2,0:0:0:0:
412,144,181129,1,2,0:0:0:0:
268,148,181200,1,2,0:0:0:0:
268,148,181271,1,0,0:0:0:0:
236,168,181413,1,2,0:0:0:0:
368,144,181554,1,0,0:0:0:0:
364,136,181696,1,2,0:0:0:0:
436,152,181766,1,2,0:0:0:0:
420,144,181837,1,0,0:0:0:0:
200,196,181908,1,2,0:0:0:0:
308,168,181979,1,0,0:0:0:0:
252,188,182120,1,2,0:0:0:0:
376,136,182262,1,0,0:0:0:0:
376,136,182403,1,0,0:0:0:0:
376,136,182474,1,0,0:0:0:0:
432,136,182545,1,2,0:0:0:0:
232,184,182686,1,0,0:0:0:0:
352,124,182828,1,2,0:0:0:0:
272,152,182969,1,0,0:0:0:0:
272,152,183040,1,0,0:0:0:0:
312,148,183111,1,0,0:0:0:0:
196,180,183252,1,2,0:0:0:0:
248,200,183394,1,0,0:0:0:0:
280,168,183535,1,2,0:0:0:0:
248,200,183606,1,0,0:0:0:0:
280,168,183677,1,2,0:0:0:0:
240,200,183818,1,0,0:0:0:0:
388,116,183960,1,2,0:0:0:0:
400,140,184030,1,2,0:0:0:0:
212,144,184101,1,0,0:0:0:0:
288,144,184172,1,0,0:0:0:0:
220,160,184243,1,2,0:0:0:0:
288,144,184384,1,0,0:0:0:0:
288,144,184455,1,0,0:0:0:0:
268,180,184526,1,2,0:0:0:0:
208,236,184667,1,0,0:0:0:0:
240,212,184809,1,2,0:0:0:0:
224,196,184950,1,2,0:0:0:0:
228,200,185092,1,2,0:0:0:0:
228,200,185163,1,2,0:0:0:0:
288,184,185233,1,0,0:0:0:0:
384,176,185375,1,0,0:0:0:0:
384,176,185446,1,0,0:0:0:0:
300,192,185516,1,2,0:0:0:0:
300,192,185658,1,2,0:0:0:0:
360,180,185729,5,0,0:0:0:0:
428,120,185799,1,2,0:0:0:0:
304,160,185941,1,2,0:0:0:0:
240,216,186012,1,2,0:0:0:0:
288,232,186082,1,0,0:0:0:0:
328,188,186365,1,0,0:0:0:0:
152,196,186507,1,0,0:0:0:0:
104,208,186648,1,0,0:0:0:0:
296,176,186790,1,6,0:0:0:0:
232,148,186931,1,0,0:0:0:0:
376,140,187073,1,2,0:0:0:0:
232,148,187214,1,0,0:0:0:0:
388,132,187356,1,0,0:0:0:0:
372,168,187427,1,0,0:0:0:0:
356,160,187497,1,2,0:0:0:0:
164,208,187639,1,2,0:0:0:0:
248,172,187710,1,0,0:0:0:0:
268,148,187780,1,2,0:0:0:0:
224,176,187922,1,4,0:0:0:0:
368,128,188063,1,4,0:0:0:0:
336,148,188205,1,6,0:0:0:0:
240,160,188346,1,2,0:0:0:0:
422,164,188417,1,2,0:0:0:0:
244,152,188488,1,0,0:0:0:0:
316,164,188559,1,0,0:0:0:0:
248,140,188629,1,2,0:0:0:0:
244,88,188700,1,2,0:0:0:0:
268,96,188771,1,0,0:0:0:0:
296,156,188842,1,0,0:0:0:0:
292,84,188913,1,0,0:0:0:0:
296,156,188983,1,0,0:0:0:0:
219,177,189054,1,6,0:0:0:0:
388,176,189196,1,0,0:0:0:0:
388,176,189266,1,0,0:0:0:0:
422,164,189337,1,2,0:0:0:0:
457,135,189479,1,2,0:0:0:0:
358,164,189620,1,0,0:0:0:0:
306,131,189762,1,0,0:0:0:0:
306,131,189832,1,0,0:0:0:0:
360,157,189903,1,2,0:0:0:0:
340,163,190045,1,2,0:0:0:0:
330,131,190186,1,2,0:0:0:0:
330,131,190257,1,2,0:0:0:0:
364,179,190328,1,2,0:0:0:0:
321,188,190398,1,2,0:0:0:0:
298,197,190469,1,0,0:0:0:0:
356,136,190611,5,2,0:0:0:0:
320,168,190752,1,0,0:0:0:0:
320,168,190823,1,0,0:0:0:0:
248,104,190894,1,2,0:0:0:0:
225,162,190964,1,2,0:0:0:0:
390,137,191035,1,0,0:0:0:0:
288,132,191177,1,2,0:0:0:0:
300,124,191247,1,2,0:0:0:0:
312,134,191318,1,0,0:0:0:0:
432,115,191460,1,2,0:0:0:0:
331,133,191601,1,2,0:0:0:0:
331,133,191672,1,2,0:0:0:0:
463,149,191743,1,0,0:0:0:0:
433,131,191884,1,0,0:0:0:0:
410,160,191955,1,2,0:0:0:0:
390,162,192026,1,2,0:0:0:0:
390,162,192167,1,2,0:0:0:0:
336,178,192238,1,0,0:0:0:0:
336,178,192309,1,0,0:0:0:0:
286,149,192450,1,2,0:0:0:0:
504,107,192521,1,0,0:0:0:0:
386,126,192592,1,2,0:0:0:0:
357,149,192663,1,0,0:0:0:0:
404,155,192733,1,0,0:0:0:0:
510,109,192804,1,0,0:0:0:0:
374,153,192875,1,2,0:0:0:0:
327,167,193016,1,0,0:0:0:0:
386,126,193158,1,2,0:0:0:0:
344,128,193229,1,0,0:0:0:0:
468,120,193299,5,2,0:0:0:0:
420,132,193441,1,0,0:0:0:0:
403,134,193582,1,2,0:0:0:0:
336,184,193724,1,0,0:0:0:0:
317,187,193795,1,0,0:0:0:0:
501,134,193865,1,2,0:0:0:0:
403,134,194007,1,2,0:0:0:0:
377,149,194148,1,2,0:0:0:0:
377,149,194219,1,2,0:0:0:0:
384,145,194290,1,0,0:0:0:0:
384,145,194361,1,0,0:0:0:0:
410,152,194431,1,2,0:0:0:0:
410,152,194573,1,2,0:0:0:0:
406,153,194714,1,2,0:0:0:0:
426,126,194785,1,0,0:0:0:0:
320,115,194856,1,2,0:0:0:0:
319,115,194927,1,2,0:0:0:0:
392,126,194997,1,0,0:0:0:0:
392,126,195068,1,0,0:0:0:0:
438,107,195139,1,2,0:0:0:0:
202,133,195280,1,0,0:0:0:0:
273,174,195422,1,2,0:0:0:0:
426,111,195493,1,0,0:0:0:0:
385,147,195563,1,2,0:0:0:0:
273,174,195705,1,2,0:0:0:0:
288,140,195776,1,2,0:0:0:0:
188,87,195846,1,0,0:0:0:0:
200,100,195917,1,0,0:0:0:0:
488,120,195988,1,2,0:0:0:0:
454,126,196129,1,2,0:0:0:0:
454,126,196271,1,2,0:0:0:0:
463,121,196342,1,2,0:0:0:0:
278,100,196413,1,0,0:0:0:0:
369,142,196554,1,0,0:0:0:0:
244,158,196696,1,2,0:0:0:0:
244,158,196837,1,2,0:0:0:0:
203,146,196979,1,2,0:0:0:0:
359,126,197049,1,0,0:0:0:0:
486,107,197120,5,2,0:0:0:0:
232,108,197191,1,0,0:0:0:0:
291,137,197262,1,0,0:0:0:0:
291,137,197332,1,0,0:0:0:0:
369,142,197403,1,2,0:0:0:0:
288,160,197545,1,0,0:0:0:0:
288,160,197615,1,0,0:0:0:0:
288,160,197686,1,0,0:0:0:0:
288,160,197757,1,0,0:0:0:0:
328,152,197828,1,2,0:0:0:0:
412,148,197969,1,0,0:0:0:0:
328,152,198111,1,4,0:0:0:0:
257,197,198252,5,2,0:0:0:0:
262,188,198323,1,2,0:0:0:0:
207,225,198394,1,0,0:0:0:0:
312,207,198535,1,0,0:0:0:0:
235,246,198677,1,2,0:0:0:0:
279,206,198818,1,0,0:0:0:0:
401,148,198889,1,0,0:0:0:0:
248,198,198960,1,2,0:0:0:0:
339,192,199101,1,2,0:0:0:0:
376,123,199172,1,2,0:0:0:0:
369,124,199243,1,2,0:0:0:0:
237,177,199384,5,0,0:0:0:0:
259,88,199526,1,2,0:0:0:0:
320,136,199667,1,2,0:0:0:0:
393,136,199738,1,2,0:0:0:0:
332,135,199809,1,0,0:0:0:0:
235,179,199950,1,0,0:0:0:0:
200,197,200092,1,2,0:0:0:0:
200,197,200163,1,2,0:0:0:0:
200,197,200233,1,2,0:0:0:0:
200,197,200304,1,2,0:0:0:0:
375,155,200375,1,0,0:0:0:0:
369,211,200516,1,0,0:0:0:0:
369,211,200587,1,0,0:0:0:0:
401,144,200658,1,2,0:0:0:0:
381,148,200729,1,2,0:0:0:0:
274,173,200799,1,0,0:0:0:0:
395,182,200941,1,2,0:0:0:0:
395,182,201012,1,2,0:0:0:0:
109,237,201082,1,0,0:0:0:0:
357,197,201153,1,0,0:0:0:0:
282,198,201224,1,2,0:0:0:0:
250,192,201365,1,0,0:0:0:0:
413,168,201507,1,2,0:0:0:0:
361,175,201648,1,2,0:0:0:0:
438,153,201719,1,2,0:0:0:0:
502,138,201790,1,0,0:0:0:0:
409,129,201931,1,0,0:0:0:0:
438,153,202002,1,2,0:0:0:0:
465,142,202073,1,0,0:0:0:0:
290,180,202214,1,0,0:0:0:0:
290,180,202285,1,0,0:0:0:0:
310,154,202356,1,2,0:0:0:0:
214,171,202497,1,2,0:0:0:0:
57,217,202639,1,0,0:0:0:0:
257,197,202780,1,2,0:0:0:0:
262,188,202851,1,2,0:0:0:0:
207,225,202922,1,0,0:0:0:0:
312,207,203063,1,0,0:0:0:0:
235,246,203205,1,2,0:0:0:0:
279,206,203346,1,0,0:0:0:0:
401,148,203417,1,0,0:0:0:0:
248,198,203488,1,2,0:0:0:0:
339,192,203629,1,2,0:0:0:0:
376,123,203700,1,2,0:0:0:0:
369,124,203771,1,2,0:0:0:0:
237,177,203913,5,0,0:0:0:0:
259,88,204054,1,2,0:0:0:0:
320,136,204196,1,2,0:0:0:0:
393,136,204266,1,2,0:0:0:0:
332,135,204337,1,0,0:0:0:0:
235,179,204479,1,0,0:0:0:0:
200,197,204620,1,0,0:0:0:0:
200,197,204691,1,0,0:0:0:0:
200,197,204762,1,2,0:0:0:0:
272,156,204832,1,2,0:0:0:0:
375,155,204903,1,0,0:0:0:0:
369,211,205045,1,0,0:0:0:0:
401,144,205186,1,2,0:0:0:0:
408,160,205257,1,2,0:0:0:0:
274,173,205328,1,0,0:0:0:0:
204,168,205469,1,0,0:0:0:0:
109,237,205611,1,2,0:0:0:0:
357,197,205681,1,0,0:0:0:0:
282,198,205752,1,2,0:0:0:0:
250,192,205894,1,0,0:0:0:0:
413,168,206035,1,2,0:0:0:0:
361,175,206177,1,2,0:0:0:0:
438,153,206247,1,2,0:0:0:0:
502,138,206318,1,0,0:0:0:0:
409,129,206460,1,0,0:0:0:0:
438,153,206530,1,2,0:0:0:0:
465,142,206601,1,0,0:0:0:0:
290,180,206743,1,0,0:0:0:0:
290,180,206813,1,0,0:0:0:0:
310,154,206884,1,2,0:0:0:0:
214,171,207026,1,2,0:0:0:0:
372,240,207167,1,6,0:0:0:0:
300,196,207450,1,4,0:0:0:0:
216,192,207592,1,6,0:0:0:0:
276,196,207875,1,4,0:0:0:0:
220,208,208158,1,6,0:0:0:0:
272,172,209148,1,0,0:0:0:0:
272,172,209219,1,0,0:0:0:0:
272,172,209290,1,0,0:0:0:0:
224,176,209431,1,6,0:0:0:0:
272,172,209573,1,0,0:0:0:0:
328,168,209714,1,4,0:0:0:0:
324,132,209856,1,6,0:0:0:0:
184,132,210139,1,4,0:0:0:0:
320,100,210422,1,6,0:0:0:0:
