osu file format v14

[General]
AudioFilename: audio.mp3
AudioLeadIn: 0
PreviewTime: -1
Countdown: 1
SampleSet: None
StackLeniency: 0.7
Mode: 0
LetterboxInBreaks: 0
SkinPreference:yee updated
EpilepsyWarning: 1
WidescreenStoryboard: 0

[Editor]
DistanceSpacing: 0.8
BeatDivisor: 4
GridSize: 32
TimelineZoom: 1

[Metadata]
Title:hardest beatmap ever now can i die pls?
TitleUnicode:hardest beatmap ever now can i die pls?
Artist:
ArtistUnicode:
Creator:owwwwwwwwww
Version:n-n-no
Source:Super Mario World
Tags:mayo lolwut lol eksdee lo meme hard insane omg wut wat what aaaaaaaa
BeatmapID:1585246
BeatmapSetID:752674

[Difficulty]
HPDrainRate:10
CircleSize:7
OverallDifficulty:10
ApproachRate:10
SliderMultiplier:1.4
SliderTickRate:4

[Events]
//Background and Video events
0,0,"billy's adventure in game.png",0,0
//Break Periods
//Storyboard Layer 0 (Background)
//Storyboard Layer 1 (Fail)
//Storyboard Layer 2 (Pass)
//Storyboard Layer 3 (Foreground)
//Storyboard Sound Samples

[TimingPoints]
0,6,4,1,0,100,1,0
100,6,4,1,0,100,1,1
3000,6,4,1,0,100,1,0

[Colours]
Combo1 : 0,0,0
Combo2 : 255,0,0

[HitObjects]
445,219,0,5,0,0:0:0:0:
439,247,1,1,0,0:0:0:0:
429,273,3,1,0,0:0:0:0:
415,297,4,1,0,0:0:0:0:
398,319,6,1,0,0:0:0:0:
378,339,7,1,0,0:0:0:0:
355,355,9,1,0,0:0:0:0:
331,368,10,1,0,0:0:0:0:
304,377,12,1,0,0:0:0:0:
276,382,13,1,0,0:0:0:0:
248,383,15,1,0,0:0:0:0:
221,380,16,1,0,0:0:0:0:
194,373,18,1,0,0:0:0:0:
168,362,19,1,0,0:0:0:0:
144,347,21,1,0,0:0:0:0:
122,330,22,1,0,0:0:0:0:
104,309,24,1,0,0:0:0:0:
88,285,25,1,0,0:0:0:0:
76,260,27,1,0,0:0:0:0:
68,233,28,1,0,0:0:0:0:
64,205,30,1,0,0:0:0:0:
64,177,31,1,0,0:0:0:0:
68,150,33,1,0,0:0:0:0:
76,123,34,1,0,0:0:0:0:
88,98,36,1,0,0:0:0:0:
104,74,37,1,0,0:0:0:0:
122,53,39,1,0,0:0:0:0:
144,36,40,1,0,0:0:0:0:
168,21,42,1,0,0:0:0:0:
194,10,43,1,0,0:0:0:0:
221,3,45,1,0,0:0:0:0:
248,0,46,1,0,0:0:0:0:
276,1,48,1,0,0:0:0:0:
304,6,49,1,0,0:0:0:0:
331,15,51,1,0,0:0:0:0:
355,28,52,1,0,0:0:0:0:
378,44,54,1,0,0:0:0:0:
398,64,55,1,0,0:0:0:0:
415,86,57,1,0,0:0:0:0:
429,110,58,1,0,0:0:0:0:
439,136,60,1,0,0:0:0:0:
445,164,61,1,0,0:0:0:0:
447,192,63,1,0,0:0:0:0:
445,219,64,1,0,0:0:0:0:
439,247,66,1,0,0:0:0:0:
429,273,67,1,0,0:0:0:0:
415,297,69,1,0,0:0:0:0:
398,319,70,1,0,0:0:0:0:
378,339,72,1,0,0:0:0:0:
355,355,73,1,0,0:0:0:0:
331,368,75,1,0,0:0:0:0:
304,377,76,1,0,0:0:0:0:
276,382,78,1,0,0:0:0:0:
248,383,79,1,0,0:0:0:0:
221,380,81,1,0,0:0:0:0:
194,373,82,1,0,0:0:0:0:
168,362,84,1,0,0:0:0:0:
144,347,85,1,0,0:0:0:0:
122,330,87,1,0,0:0:0:0:
104,309,88,1,0,0:0:0:0:
88,285,90,1,0,0:0:0:0:
76,260,91,1,0,0:0:0:0:
68,233,93,1,0,0:0:0:0:
64,205,94,1,0,0:0:0:0:
64,177,96,1,0,0:0:0:0:
68,150,97,1,0,0:0:0:0:
76,123,99,1,0,0:0:0:0:
88,98,101,1,0,0:0:0:0:
104,74,103,1,0,0:0:0:0:
122,53,104,1,0,0:0:0:0:
144,36,106,1,0,0:0:0:0:
168,21,107,1,0,0:0:0:0:
194,10,109,1,0,0:0:0:0:
221,3,110,1,0,0:0:0:0:
248,0,112,1,0,0:0:0:0:
276,1,113,1,0,0:0:0:0:
304,6,115,1,0,0:0:0:0:
331,15,116,1,0,0:0:0:0:
355,28,118,1,0,0:0:0:0:
378,44,119,1,0,0:0:0:0:
398,64,121,1,0,0:0:0:0:
415,86,122,1,0,0:0:0:0:
429,110,124,1,0,0:0:0:0:
439,136,125,1,0,0:0:0:0:
445,164,127,1,0,0:0:0:0:
447,192,128,1,0,0:0:0:0:
445,219,130,1,0,0:0:0:0:
439,247,131,1,0,0:0:0:0:
429,273,133,1,0,0:0:0:0:
415,297,134,1,0,0:0:0:0:
398,319,136,1,0,0:0:0:0:
378,339,137,1,0,0:0:0:0:
355,355,139,1,0,0:0:0:0:
331,368,140,1,0,0:0:0:0:
304,377,142,1,0,0:0:0:0:
276,382,143,1,0,0:0:0:0:
248,383,145,1,0,0:0:0:0:
221,380,146,1,0,0:0:0:0:
194,373,148,1,0,0:0:0:0:
168,362,149,1,0,0:0:0:0:
144,347,151,1,0,0:0:0:0:
122,330,152,1,0,0:0:0:0:
104,309,154,1,0,0:0:0:0:
88,285,155,1,0,0:0:0:0:
76,260,157,1,0,0:0:0:0:
68,233,158,1,0,0:0:0:0:
64,205,160,1,0,0:0:0:0:
64,177,161,1,0,0:0:0:0:
68,150,163,1,0,0:0:0:0:
76,123,164,1,0,0:0:0:0:
88,98,166,1,0,0:0:0:0:
104,74,167,1,0,0:0:0:0:
122,53,169,1,0,0:0:0:0:
144,36,170,1,0,0:0:0:0:
168,21,172,1,0,0:0:0:0:
194,10,173,1,0,0:0:0:0:
221,3,175,1,0,0:0:0:0:
248,0,176,1,0,0:0:0:0:
276,1,178,1,0,0:0:0:0:
304,6,179,1,0,0:0:0:0:
331,15,181,1,0,0:0:0:0:
355,28,182,1,0,0:0:0:0:
378,44,184,1,0,0:0:0:0:
398,64,185,1,0,0:0:0:0:
415,86,187,1,0,0:0:0:0:
429,110,188,1,0,0:0:0:0:
439,136,190,1,0,0:0:0:0:
445,164,191,1,0,0:0:0:0:
447,192,193,1,0,0:0:0:0:
445,219,194,1,0,0:0:0:0:
439,247,196,1,0,0:0:0:0:
429,273,197,1,0,0:0:0:0:
415,297,199,1,0,0:0:0:0:
398,319,200,1,0,0:0:0:0:
378,339,202,1,0,0:0:0:0:
355,355,203,1,0,0:0:0:0:
331,368,205,1,0,0:0:0:0:
304,377,206,1,0,0:0:0:0:
276,382,208,1,0,0:0:0:0:
248,383,209,1,0,0:0:0:0:
221,380,211,1,0,0:0:0:0:
194,373,212,1,0,0:0:0:0:
168,362,214,1,0,0:0:0:0:
144,347,215,1,0,0:0:0:0:
122,330,217,1,0,0:0:0:0:
104,309,218,1,0,0:0:0:0:
88,285,220,1,0,0:0:0:0:
76,260,221,1,0,0:0:0:0:
68,233,223,1,0,0:0:0:0:
64,205,224,1,0,0:0:0:0:
64,177,226,1,0,0:0:0:0:
68,150,227,1,0,0:0:0:0:
76,123,229,1,0,0:0:0:0:
88,98,230,1,0,0:0:0:0:
104,74,232,1,0,0:0:0:0:
122,53,233,1,0,0:0:0:0:
144,36,235,1,0,0:0:0:0:
168,21,236,1,0,0:0:0:0:
194,10,238,1,0,0:0:0:0:
221,3,239,1,0,0:0:0:0:
248,0,241,1,0,0:0:0:0:
276,1,242,1,0,0:0:0:0:
304,6,244,1,0,0:0:0:0:
331,15,245,1,0,0:0:0:0:
355,28,247,1,0,0:0:0:0:
378,44,248,1,0,0:0:0:0:
398,64,250,1,0,0:0:0:0:
415,86,251,1,0,0:0:0:0:
429,110,253,1,0,0:0:0:0:
439,136,254,1,0,0:0:0:0:
445,164,256,1,0,0:0:0:0:
447,192,257,1,0,0:0:0:0:
445,219,259,1,0,0:0:0:0:
439,247,260,1,0,0:0:0:0:
429,273,262,1,0,0:0:0:0:
415,297,263,1,0,0:0:0:0:
398,319,265,1,0,0:0:0:0:
378,339,266,1,0,0:0:0:0:
355,355,268,1,0,0:0:0:0:
331,368,269,1,0,0:0:0:0:
304,377,271,1,0,0:0:0:0:
276,382,272,1,0,0:0:0:0:
248,383,274,1,0,0:0:0:0:
221,380,275,1,0,0:0:0:0:
194,373,277,1,0,0:0:0:0:
168,362,278,1,0,0:0:0:0:
144,347,280,1,0,0:0:0:0:
122,330,281,1,0,0:0:0:0:
104,309,283,1,0,0:0:0:0:
88,285,284,1,0,0:0:0:0:
76,260,286,1,0,0:0:0:0:
68,233,287,1,0,0:0:0:0:
64,205,289,1,0,0:0:0:0:
64,177,290,1,0,0:0:0:0:
68,150,292,1,0,0:0:0:0:
76,123,293,1,0,0:0:0:0:
88,98,295,1,0,0:0:0:0:
104,74,296,1,0,0:0:0:0:
122,53,298,1,0,0:0:0:0:
144,36,299,1,0,0:0:0:0:
168,21,301,1,0,0:0:0:0:
194,10,302,1,0,0:0:0:0:
221,3,304,1,0,0:0:0:0:
248,0,305,1,0,0:0:0:0:
276,1,307,1,0,0:0:0:0:
304,6,308,1,0,0:0:0:0:
331,15,310,1,0,0:0:0:0:
355,28,311,1,0,0:0:0:0:
378,44,313,1,0,0:0:0:0:
398,64,314,1,0,0:0:0:0:
415,86,316,1,0,0:0:0:0:
429,110,317,1,0,0:0:0:0:
439,136,319,1,0,0:0:0:0:
445,164,320,1,0,0:0:0:0:
447,192,322,1,0,0:0:0:0:
445,219,323,1,0,0:0:0:0:
439,247,325,1,0,0:0:0:0:
429,273,326,1,0,0:0:0:0:
415,297,328,1,0,0:0:0:0:
398,319,329,1,0,0:0:0:0:
378,339,331,1,0,0:0:0:0:
355,355,332,1,0,0:0:0:0:
331,368,334,1,0,0:0:0:0:
304,377,335,1,0,0:0:0:0:
276,382,337,1,0,0:0:0:0:
248,383,338,1,0,0:0:0:0:
221,380,340,1,0,0:0:0:0:
194,373,341,1,0,0:0:0:0:
168,362,343,1,0,0:0:0:0:
144,347,344,1,0,0:0:0:0:
122,330,346,1,0,0:0:0:0:
104,309,347,1,0,0:0:0:0:
88,285,349,1,0,0:0:0:0:
76,260,350,1,0,0:0:0:0:
68,233,352,1,0,0:0:0:0:
64,205,353,1,0,0:0:0:0:
64,177,355,1,0,0:0:0:0:
68,150,356,1,0,0:0:0:0:
76,123,358,1,0,0:0:0:0:
88,98,359,1,0,0:0:0:0:
104,74,361,1,0,0:0:0:0:
122,53,362,1,0,0:0:0:0:
144,36,364,1,0,0:0:0:0:
168,21,365,1,0,0:0:0:0:
194,10,367,1,0,0:0:0:0:
221,3,368,1,0,0:0:0:0:
248,0,370,1,0,0:0:0:0:
276,1,371,1,0,0:0:0:0:
304,6,373,1,0,0:0:0:0:
331,15,374,1,0,0:0:0:0:
355,28,376,1,0,0:0:0:0:
378,44,377,1,0,0:0:0:0:
398,64,379,1,0,0:0:0:0:
415,86,380,1,0,0:0:0:0:
429,110,382,1,0,0:0:0:0:
439,136,383,1,0,0:0:0:0:
445,164,385,1,0,0:0:0:0:
447,192,386,1,0,0:0:0:0:
445,219,388,1,0,0:0:0:0:
439,247,389,1,0,0:0:0:0:
429,273,391,1,0,0:0:0:0:
415,297,392,1,0,0:0:0:0:
398,319,394,1,0,0:0:0:0:
378,339,395,1,0,0:0:0:0:
355,355,397,1,0,0:0:0:0:
331,368,398,1,0,0:0:0:0:
304,377,400,1,0,0:0:0:0:
276,382,401,1,0,0:0:0:0:
248,383,403,1,0,0:0:0:0:
221,380,404,1,0,0:0:0:0:
194,373,406,1,0,0:0:0:0:
168,362,407,1,0,0:0:0:0:
144,347,409,1,0,0:0:0:0:
122,330,410,1,0,0:0:0:0:
104,309,412,1,0,0:0:0:0:
88,285,413,1,0,0:0:0:0:
76,260,415,1,0,0:0:0:0:
68,233,416,1,0,0:0:0:0:
64,205,418,1,0,0:0:0:0:
64,177,419,1,0,0:0:0:0:
68,150,421,1,0,0:0:0:0:
76,123,422,1,0,0:0:0:0:
88,98,424,1,0,0:0:0:0:
104,74,425,1,0,0:0:0:0:
122,53,427,1,0,0:0:0:0:
144,36,428,1,0,0:0:0:0:
168,21,430,1,0,0:0:0:0:
194,10,431,1,0,0:0:0:0:
221,3,433,1,0,0:0:0:0:
248,0,434,1,0,0:0:0:0:
276,1,436,1,0,0:0:0:0:
304,6,437,1,0,0:0:0:0:
331,15,439,1,0,0:0:0:0:
355,28,440,1,0,0:0:0:0:
378,44,442,1,0,0:0:0:0:
398,64,443,1,0,0:0:0:0:
415,86,445,1,0,0:0:0:0:
429,110,446,1,0,0:0:0:0:
439,136,448,1,0,0:0:0:0:
445,164,449,1,0,0:0:0:0:
447,192,451,1,0,0:0:0:0:
445,219,452,1,0,0:0:0:0:
439,247,454,1,0,0:0:0:0:
429,273,455,1,0,0:0:0:0:
415,297,457,1,0,0:0:0:0:
398,319,458,1,0,0:0:0:0:
378,339,460,1,0,0:0:0:0:
355,355,461,1,0,0:0:0:0:
331,368,463,1,0,0:0:0:0:
304,377,464,1,0,0:0:0:0:
276,382,466,1,0,0:0:0:0:
248,383,467,1,0,0:0:0:0:
221,380,469,1,0,0:0:0:0:
194,373,470,1,0,0:0:0:0:
168,362,472,1,0,0:0:0:0:
144,347,473,1,0,0:0:0:0:
122,330,475,1,0,0:0:0:0:
104,309,476,1,0,0:0:0:0:
88,285,478,1,0,0:0:0:0:
76,260,479,1,0,0:0:0:0:
68,233,481,1,0,0:0:0:0:
64,205,482,1,0,0:0:0:0:
64,177,484,1,0,0:0:0:0:
68,150,485,1,0,0:0:0:0:
76,123,487,1,0,0:0:0:0:
88,98,488,1,0,0:0:0:0:
104,74,490,1,0,0:0:0:0:
122,53,491,1,0,0:0:0:0:
144,36,493,1,0,0:0:0:0:
168,21,494,1,0,0:0:0:0:
194,10,496,1,0,0:0:0:0:
221,3,497,1,0,0:0:0:0:
248,0,499,1,0,0:0:0:0:
276,1,500,1,0,0:0:0:0:
304,6,502,1,0,0:0:0:0:
331,15,503,1,0,0:0:0:0:
355,28,505,1,0,0:0:0:0:
378,44,506,1,0,0:0:0:0:
398,64,508,1,0,0:0:0:0:
415,86,509,1,0,0:0:0:0:
429,110,511,1,0,0:0:0:0:
439,136,512,1,0,0:0:0:0:
445,164,514,1,0,0:0:0:0:
447,192,515,1,0,0:0:0:0:
445,219,517,1,0,0:0:0:0:
439,247,518,1,0,0:0:0:0:
429,273,520,1,0,0:0:0:0:
415,297,521,1,0,0:0:0:0:
398,319,523,1,0,0:0:0:0:
378,339,524,1,0,0:0:0:0:
355,355,526,1,0,0:0:0:0:
331,368,527,1,0,0:0:0:0:
304,377,529,1,0,0:0:0:0:
276,382,530,1,0,0:0:0:0:
248,383,532,1,0,0:0:0:0:
221,380,533,1,0,0:0:0:0:
194,373,535,1,0,0:0:0:0:
168,362,536,1,0,0:0:0:0:
144,347,538,1,0,0:0:0:0:
122,330,539,1,0,0:0:0:0:
104,309,541,1,0,0:0:0:0:
88,285,542,1,0,0:0:0:0:
76,260,544,1,0,0:0:0:0:
68,233,545,1,0,0:0:0:0:
64,205,547,1,0,0:0:0:0:
64,177,548,1,0,0:0:0:0:
68,150,550,1,0,0:0:0:0:
76,123,551,1,0,0:0:0:0:
88,98,553,1,0,0:0:0:0:
104,74,554,1,0,0:0:0:0:
122,53,556,1,0,0:0:0:0:
144,36,557,1,0,0:0:0:0:
168,21,559,1,0,0:0:0:0:
194,10,560,1,0,0:0:0:0:
221,3,562,1,0,0:0:0:0:
248,0,563,1,0,0:0:0:0:
276,1,565,1,0,0:0:0:0:
304,6,566,1,0,0:0:0:0:
331,15,568,1,0,0:0:0:0:
355,28,569,1,0,0:0:0:0:
378,44,571,1,0,0:0:0:0:
398,64,572,1,0,0:0:0:0:
415,86,574,1,0,0:0:0:0:
429,110,575,1,0,0:0:0:0:
439,136,577,1,0,0:0:0:0:
445,164,578,1,0,0:0:0:0:
447,192,580,1,0,0:0:0:0:
445,219,581,1,0,0:0:0:0:
439,247,583,1,0,0:0:0:0:
429,273,584,1,0,0:0:0:0:
415,297,586,1,0,0:0:0:0:
398,319,587,1,0,0:0:0:0:
378,339,589,1,0,0:0:0:0:
355,355,590,1,0,0:0:0:0:
331,368,592,1,0,0:0:0:0:
304,377,593,1,0,0:0:0:0:
276,382,595,1,0,0:0:0:0:
248,383,596,1,0,0:0:0:0:
221,380,598,1,0,0:0:0:0:
194,373,599,1,0,0:0:0:0:
168,362,601,1,0,0:0:0:0:
144,347,602,1,0,0:0:0:0:
122,330,604,1,0,0:0:0:0:
104,309,605,1,0,0:0:0:0:
88,285,607,1,0,0:0:0:0:
76,260,608,1,0,0:0:0:0:
68,233,610,1,0,0:0:0:0:
64,205,611,1,0,0:0:0:0:
64,177,613,1,0,0:0:0:0:
68,150,614,1,0,0:0:0:0:
76,123,616,1,0,0:0:0:0:
88,98,617,1,0,0:0:0:0:
104,74,619,1,0,0:0:0:0:
122,53,620,1,0,0:0:0:0:
144,36,622,1,0,0:0:0:0:
168,21,623,1,0,0:0:0:0:
194,10,625,1,0,0:0:0:0:
221,3,626,1,0,0:0:0:0:
248,0,628,1,0,0:0:0:0:
276,1,629,1,0,0:0:0:0:
304,6,631,1,0,0:0:0:0:
331,15,632,1,0,0:0:0:0:
355,28,634,1,0,0:0:0:0:
378,44,635,1,0,0:0:0:0:
398,64,637,1,0,0:0:0:0:
415,86,638,1,0,0:0:0:0:
429,110,640,1,0,0:0:0:0:
439,136,641,1,0,0:0:0:0:
445,164,643,1,0,0:0:0:0:
447,192,644,1,0,0:0:0:0:
445,219,650,1,0,0:0:0:0:
439,247,651,1,0,0:0:0:0:
429,273,653,1,0,0:0:0:0:
415,297,654,1,0,0:0:0:0:
398,319,656,1,0,0:0:0:0:
378,339,657,1,0,0:0:0:0:
355,355,659,1,0,0:0:0:0:
331,368,660,1,0,0:0:0:0:
304,377,662,1,0,0:0:0:0:
276,382,663,1,0,0:0:0:0:
248,383,665,1,0,0:0:0:0:
221,380,666,1,0,0:0:0:0:
194,373,668,1,0,0:0:0:0:
168,362,669,1,0,0:0:0:0:
144,347,671,1,0,0:0:0:0:
122,330,672,1,0,0:0:0:0:
104,309,674,1,0,0:0:0:0:
88,285,675,1,0,0:0:0:0:
76,260,677,1,0,0:0:0:0:
68,233,678,1,0,0:0:0:0:
64,205,680,1,0,0:0:0:0:
64,177,681,1,0,0:0:0:0:
68,150,683,1,0,0:0:0:0:
76,123,684,1,0,0:0:0:0:
88,98,686,1,0,0:0:0:0:
104,74,687,1,0,0:0:0:0:
122,53,689,1,0,0:0:0:0:
144,36,690,1,0,0:0:0:0:
168,21,692,1,0,0:0:0:0:
194,10,693,1,0,0:0:0:0:
221,3,695,1,0,0:0:0:0:
248,0,696,1,0,0:0:0:0:
276,1,698,1,0,0:0:0:0:
304,6,699,1,0,0:0:0:0:
331,15,701,1,0,0:0:0:0:
355,28,702,1,0,0:0:0:0:
378,44,704,1,0,0:0:0:0:
398,64,705,1,0,0:0:0:0:
415,86,707,1,0,0:0:0:0:
429,110,708,1,0,0:0:0:0:
439,136,710,1,0,0:0:0:0:
445,164,711,1,0,0:0:0:0:
447,192,713,1,0,0:0:0:0:
445,219,714,1,0,0:0:0:0:
439,247,716,1,0,0:0:0:0:
429,273,717,1,0,0:0:0:0:
415,297,719,1,0,0:0:0:0:
398,319,720,1,0,0:0:0:0:
378,339,722,1,0,0:0:0:0:
355,355,723,1,0,0:0:0:0:
331,368,725,1,0,0:0:0:0:
304,377,726,1,0,0:0:0:0:
276,382,728,1,0,0:0:0:0:
248,383,729,1,0,0:0:0:0:
221,380,731,1,0,0:0:0:0:
194,373,732,1,0,0:0:0:0:
168,362,734,1,0,0:0:0:0:
144,347,735,1,0,0:0:0:0:
122,330,737,1,0,0:0:0:0:
104,309,738,1,0,0:0:0:0:
88,285,740,1,0,0:0:0:0:
76,260,741,1,0,0:0:0:0:
68,233,743,1,0,0:0:0:0:
64,205,744,1,0,0:0:0:0:
64,177,746,1,0,0:0:0:0:
68,150,747,1,0,0:0:0:0:
76,123,749,1,0,0:0:0:0:
88,98,751,1,0,0:0:0:0:
104,74,753,1,0,0:0:0:0:
122,53,754,1,0,0:0:0:0:
144,36,756,1,0,0:0:0:0:
168,21,757,1,0,0:0:0:0:
194,10,759,1,0,0:0:0:0:
221,3,760,1,0,0:0:0:0:
248,0,762,1,0,0:0:0:0:
276,1,763,1,0,0:0:0:0:
304,6,765,1,0,0:0:0:0:
331,15,766,1,0,0:0:0:0:
355,28,768,1,0,0:0:0:0:
378,44,769,1,0,0:0:0:0:
398,64,771,1,0,0:0:0:0:
415,86,772,1,0,0:0:0:0:
429,110,774,1,0,0:0:0:0:
439,136,775,1,0,0:0:0:0:
445,164,777,1,0,0:0:0:0:
447,192,778,1,0,0:0:0:0:
445,219,780,1,0,0:0:0:0:
439,247,781,1,0,0:0:0:0:
429,273,783,1,0,0:0:0:0:
415,297,784,1,0,0:0:0:0:
398,319,786,1,0,0:0:0:0:
378,339,787,1,0,0:0:0:0:
355,355,789,1,0,0:0:0:0:
331,368,790,1,0,0:0:0:0:
304,377,792,1,0,0:0:0:0:
276,382,793,1,0,0:0:0:0:
248,383,795,1,0,0:0:0:0:
221,380,796,1,0,0:0:0:0:
194,373,798,1,0,0:0:0:0:
168,362,799,1,0,0:0:0:0:
144,347,801,1,0,0:0:0:0:
122,330,802,1,0,0:0:0:0:
104,309,804,1,0,0:0:0:0:
88,285,805,1,0,0:0:0:0:
76,260,807,1,0,0:0:0:0:
68,233,808,1,0,0:0:0:0:
64,205,810,1,0,0:0:0:0:
64,177,811,1,0,0:0:0:0:
68,150,813,1,0,0:0:0:0:
76,123,814,1,0,0:0:0:0:
88,98,816,1,0,0:0:0:0:
104,74,817,1,0,0:0:0:0:
122,53,819,1,0,0:0:0:0:
144,36,820,1,0,0:0:0:0:
168,21,822,1,0,0:0:0:0:
194,10,823,1,0,0:0:0:0:
221,3,825,1,0,0:0:0:0:
248,0,826,1,0,0:0:0:0:
276,1,828,1,0,0:0:0:0:
304,6,829,1,0,0:0:0:0:
331,15,831,1,0,0:0:0:0:
355,28,832,1,0,0:0:0:0:
378,44,834,1,0,0:0:0:0:
398,64,835,1,0,0:0:0:0:
415,86,837,1,0,0:0:0:0:
429,110,838,1,0,0:0:0:0:
439,136,840,1,0,0:0:0:0:
445,164,841,1,0,0:0:0:0:
447,192,843,1,0,0:0:0:0:
445,219,844,1,0,0:0:0:0:
439,247,846,1,0,0:0:0:0:
429,273,847,1,0,0:0:0:0:
415,297,849,1,0,0:0:0:0:
398,319,850,1,0,0:0:0:0:
378,339,852,1,0,0:0:0:0:
355,355,853,1,0,0:0:0:0:
331,368,855,1,0,0:0:0:0:
304,377,856,1,0,0:0:0:0:
276,382,858,1,0,0:0:0:0:
248,383,859,1,0,0:0:0:0:
221,380,861,1,0,0:0:0:0:
194,373,862,1,0,0:0:0:0:
168,362,864,1,0,0:0:0:0:
144,347,865,1,0,0:0:0:0:
122,330,867,1,0,0:0:0:0:
104,309,868,1,0,0:0:0:0:
88,285,870,1,0,0:0:0:0:
76,260,871,1,0,0:0:0:0:
68,233,873,1,0,0:0:0:0:
64,205,874,1,0,0:0:0:0:
64,177,876,1,0,0:0:0:0:
68,150,877,1,0,0:0:0:0:
76,123,879,1,0,0:0:0:0:
88,98,880,1,0,0:0:0:0:
104,74,882,1,0,0:0:0:0:
122,53,883,1,0,0:0:0:0:
144,36,885,1,0,0:0:0:0:
168,21,886,1,0,0:0:0:0:
194,10,888,1,0,0:0:0:0:
221,3,889,1,0,0:0:0:0:
248,0,891,1,0,0:0:0:0:
276,1,892,1,0,0:0:0:0:
304,6,894,1,0,0:0:0:0:
331,15,895,1,0,0:0:0:0:
355,28,897,1,0,0:0:0:0:
378,44,898,1,0,0:0:0:0:
398,64,900,1,0,0:0:0:0:
415,86,901,1,0,0:0:0:0:
429,110,903,1,0,0:0:0:0:
439,136,904,1,0,0:0:0:0:
445,164,906,1,0,0:0:0:0:
447,192,907,1,0,0:0:0:0:
445,219,909,1,0,0:0:0:0:
439,247,910,1,0,0:0:0:0:
429,273,912,1,0,0:0:0:0:
415,297,913,1,0,0:0:0:0:
398,319,915,1,0,0:0:0:0:
378,339,916,1,0,0:0:0:0:
355,355,918,1,0,0:0:0:0:
331,368,919,1,0,0:0:0:0:
304,377,921,1,0,0:0:0:0:
276,382,922,1,0,0:0:0:0:
248,383,924,1,0,0:0:0:0:
221,380,925,1,0,0:0:0:0:
194,373,927,1,0,0:0:0:0:
168,362,928,1,0,0:0:0:0:
144,347,930,1,0,0:0:0:0:
122,330,931,1,0,0:0:0:0:
104,309,933,1,0,0:0:0:0:
88,285,934,1,0,0:0:0:0:
76,260,936,1,0,0:0:0:0:
68,233,937,1,0,0:0:0:0:
64,205,939,1,0,0:0:0:0:
64,177,940,1,0,0:0:0:0:
68,150,942,1,0,0:0:0:0:
76,123,943,1,0,0:0:0:0:
88,98,945,1,0,0:0:0:0:
104,74,946,1,0,0:0:0:0:
122,53,948,1,0,0:0:0:0:
144,36,949,1,0,0:0:0:0:
168,21,951,1,0,0:0:0:0:
194,10,952,1,0,0:0:0:0:
221,3,954,1,0,0:0:0:0:
248,0,955,1,0,0:0:0:0:
276,1,957,1,0,0:0:0:0:
304,6,958,1,0,0:0:0:0:
331,15,960,1,0,0:0:0:0:
355,28,961,1,0,0:0:0:0:
378,44,963,1,0,0:0:0:0:
398,64,964,1,0,0:0:0:0:
415,86,966,1,0,0:0:0:0:
429,110,967,1,0,0:0:0:0:
439,136,969,1,0,0:0:0:0:
445,164,970,1,0,0:0:0:0:
447,192,972,1,0,0:0:0:0:
445,219,973,1,0,0:0:0:0:
439,247,975,1,0,0:0:0:0:
429,273,976,1,0,0:0:0:0:
415,297,978,1,0,0:0:0:0:
398,319,979,1,0,0:0:0:0:
378,339,981,1,0,0:0:0:0:
355,355,982,1,0,0:0:0:0:
331,368,984,1,0,0:0:0:0:
304,377,985,1,0,0:0:0:0:
276,382,987,1,0,0:0:0:0:
248,383,988,1,0,0:0:0:0:
221,380,990,1,0,0:0:0:0:
194,373,991,1,0,0:0:0:0:
168,362,993,1,0,0:0:0:0:
144,347,994,1,0,0:0:0:0:
122,330,996,1,0,0:0:0:0:
104,309,997,1,0,0:0:0:0:
88,285,999,1,0,0:0:0:0:
76,260,1000,1,0,0:0:0:0:
68,233,1002,1,0,0:0:0:0:
64,205,1003,1,0,0:0:0:0:
64,177,1005,1,0,0:0:0:0:
68,150,1006,1,0,0:0:0:0:
76,123,1008,1,0,0:0:0:0:
88,98,1009,1,0,0:0:0:0:
104,74,1011,1,0,0:0:0:0:
122,53,1012,1,0,0:0:0:0:
144,36,1014,1,0,0:0:0:0:
168,21,1015,1,0,0:0:0:0:
194,10,1017,1,0,0:0:0:0:
221,3,1018,1,0,0:0:0:0:
248,0,1020,1,0,0:0:0:0:
276,1,1021,1,0,0:0:0:0:
304,6,1023,1,0,0:0:0:0:
331,15,1024,1,0,0:0:0:0:
355,28,1026,1,0,0:0:0:0:
378,44,1027,1,0,0:0:0:0:
398,64,1029,1,0,0:0:0:0:
415,86,1030,1,0,0:0:0:0:
429,110,1032,1,0,0:0:0:0:
439,136,1033,1,0,0:0:0:0:
445,164,1035,1,0,0:0:0:0:
447,192,1036,1,0,0:0:0:0:
445,219,1038,1,0,0:0:0:0:
439,247,1039,1,0,0:0:0:0:
429,273,1041,1,0,0:0:0:0:
415,297,1042,1,0,0:0:0:0:
398,319,1044,1,0,0:0:0:0:
378,339,1045,1,0,0:0:0:0:
355,355,1047,1,0,0:0:0:0:
331,368,1048,1,0,0:0:0:0:
304,377,1050,1,0,0:0:0:0:
276,382,1051,1,0,0:0:0:0:
248,383,1053,1,0,0:0:0:0:
221,380,1054,1,0,0:0:0:0:
194,373,1056,1,0,0:0:0:0:
168,362,1057,1,0,0:0:0:0:
144,347,1059,1,0,0:0:0:0:
122,330,1060,1,0,0:0:0:0:
104,309,1062,1,0,0:0:0:0:
88,285,1063,1,0,0:0:0:0:
76,260,1065,1,0,0:0:0:0:
68,233,1066,1,0,0:0:0:0:
64,205,1068,1,0,0:0:0:0:
64,177,1069,1,0,0:0:0:0:
68,150,1071,1,0,0:0:0:0:
76,123,1072,1,0,0:0:0:0:
88,98,1074,1,0,0:0:0:0:
104,74,1075,1,0,0:0:0:0:
122,53,1077,1,0,0:0:0:0:
144,36,1078,1,0,0:0:0:0:
168,21,1080,1,0,0:0:0:0:
194,10,1081,1,0,0:0:0:0:
221,3,1083,1,0,0:0:0:0:
248,0,1084,1,0,0:0:0:0:
276,1,1086,1,0,0:0:0:0:
304,6,1087,1,0,0:0:0:0:
331,15,1089,1,0,0:0:0:0:
355,28,1090,1,0,0:0:0:0:
378,44,1092,1,0,0:0:0:0:
398,64,1093,1,0,0:0:0:0:
415,86,1095,1,0,0:0:0:0:
429,110,1096,1,0,0:0:0:0:
439,136,1098,1,0,0:0:0:0:
445,164,1099,1,0,0:0:0:0:
447,192,1101,1,0,0:0:0:0:
445,219,1102,1,0,0:0:0:0:
439,247,1104,1,0,0:0:0:0:
429,273,1105,1,0,0:0:0:0:
415,297,1107,1,0,0:0:0:0:
398,319,1108,1,0,0:0:0:0:
378,339,1110,1,0,0:0:0:0:
355,355,1111,1,0,0:0:0:0:
331,368,1113,1,0,0:0:0:0:
304,377,1114,1,0,0:0:0:0:
276,382,1116,1,0,0:0:0:0:
248,383,1117,1,0,0:0:0:0:
221,380,1119,1,0,0:0:0:0:
194,373,1120,1,0,0:0:0:0:
168,362,1122,1,0,0:0:0:0:
144,347,1123,1,0,0:0:0:0:
122,330,1125,1,0,0:0:0:0:
104,309,1126,1,0,0:0:0:0:
88,285,1128,1,0,0:0:0:0:
76,260,1129,1,0,0:0:0:0:
68,233,1131,1,0,0:0:0:0:
64,205,1132,1,0,0:0:0:0:
64,177,1134,1,0,0:0:0:0:
68,150,1135,1,0,0:0:0:0:
76,123,1137,1,0,0:0:0:0:
88,98,1138,1,0,0:0:0:0:
104,74,1140,1,0,0:0:0:0:
122,53,1141,1,0,0:0:0:0:
144,36,1143,1,0,0:0:0:0:
168,21,1144,1,0,0:0:0:0:
194,10,1146,1,0,0:0:0:0:
221,3,1147,1,0,0:0:0:0:
248,0,1149,1,0,0:0:0:0:
276,1,1150,1,0,0:0:0:0:
304,6,1152,1,0,0:0:0:0:
331,15,1153,1,0,0:0:0:0:
355,28,1155,1,0,0:0:0:0:
378,44,1156,1,0,0:0:0:0:
398,64,1158,1,0,0:0:0:0:
415,86,1159,1,0,0:0:0:0:
429,110,1161,1,0,0:0:0:0:
439,136,1162,1,0,0:0:0:0:
445,164,1164,1,0,0:0:0:0:
447,192,1165,1,0,0:0:0:0:
445,219,1167,1,0,0:0:0:0:
439,247,1168,1,0,0:0:0:0:
429,273,1170,1,0,0:0:0:0:
415,297,1171,1,0,0:0:0:0:
398,319,1173,1,0,0:0:0:0:
378,339,1174,1,0,0:0:0:0:
355,355,1176,1,0,0:0:0:0:
331,368,1177,1,0,0:0:0:0:
304,377,1179,1,0,0:0:0:0:
276,382,1180,1,0,0:0:0:0:
248,383,1182,1,0,0:0:0:0:
221,380,1183,1,0,0:0:0:0:
194,373,1185,1,0,0:0:0:0:
168,362,1186,1,0,0:0:0:0:
144,347,1188,1,0,0:0:0:0:
122,330,1189,1,0,0:0:0:0:
104,309,1191,1,0,0:0:0:0:
88,285,1192,1,0,0:0:0:0:
76,260,1194,1,0,0:0:0:0:
68,233,1195,1,0,0:0:0:0:
64,205,1197,1,0,0:0:0:0:
64,177,1198,1,0,0:0:0:0:
68,150,1200,1,0,0:0:0:0:
76,123,1201,1,0,0:0:0:0:
88,98,1203,1,0,0:0:0:0:
104,74,1204,1,0,0:0:0:0:
122,53,1206,1,0,0:0:0:0:
144,36,1207,1,0,0:0:0:0:
168,21,1209,1,0,0:0:0:0:
194,10,1210,1,0,0:0:0:0:
221,3,1212,1,0,0:0:0:0:
248,0,1213,1,0,0:0:0:0:
276,1,1215,1,0,0:0:0:0:
304,6,1216,1,0,0:0:0:0:
331,15,1218,1,0,0:0:0:0:
355,28,1219,1,0,0:0:0:0:
378,44,1221,1,0,0:0:0:0:
398,64,1222,1,0,0:0:0:0:
415,86,1224,1,0,0:0:0:0:
429,110,1225,1,0,0:0:0:0:
439,136,1227,1,0,0:0:0:0:
445,164,1228,1,0,0:0:0:0:
447,192,1230,1,0,0:0:0:0:
445,219,1231,1,0,0:0:0:0:
439,247,1233,1,0,0:0:0:0:
429,273,1234,1,0,0:0:0:0:
415,297,1236,1,0,0:0:0:0:
398,319,1237,1,0,0:0:0:0:
378,339,1239,1,0,0:0:0:0:
355,355,1240,1,0,0:0:0:0:
331,368,1242,1,0,0:0:0:0:
304,377,1243,1,0,0:0:0:0:
276,382,1245,1,0,0:0:0:0:
248,383,1246,1,0,0:0:0:0:
221,380,1248,1,0,0:0:0:0:
194,373,1249,1,0,0:0:0:0:
168,362,1251,1,0,0:0:0:0:
144,347,1252,1,0,0:0:0:0:
122,330,1254,1,0,0:0:0:0:
104,309,1255,1,0,0:0:0:0:
88,285,1257,1,0,0:0:0:0:
76,260,1258,1,0,0:0:0:0:
68,233,1260,1,0,0:0:0:0:
64,205,1261,1,0,0:0:0:0:
64,177,1263,1,0,0:0:0:0:
68,150,1264,1,0,0:0:0:0:
76,123,1266,1,0,0:0:0:0:
88,98,1267,1,0,0:0:0:0:
104,74,1269,1,0,0:0:0:0:
122,53,1270,1,0,0:0:0:0:
144,36,1272,1,0,0:0:0:0:
168,21,1273,1,0,0:0:0:0:
194,10,1275,1,0,0:0:0:0:
221,3,1276,1,0,0:0:0:0:
248,0,1278,1,0,0:0:0:0:
276,1,1279,1,0,0:0:0:0:
304,6,1281,1,0,0:0:0:0:
331,15,1282,1,0,0:0:0:0:
355,28,1284,1,0,0:0:0:0:
378,44,1285,1,0,0:0:0:0:
398,64,1287,1,0,0:0:0:0:
415,86,1288,1,0,0:0:0:0:
429,110,1290,1,0,0:0:0:0:
439,136,1291,1,0,0:0:0:0:
445,164,1293,1,0,0:0:0:0:
447,192,1294,1,0,0:0:0:0:
445,219,1300,1,0,0:0:0:0:
439,247,1301,1,0,0:0:0:0:
429,273,1303,1,0,0:0:0:0:
415,297,1304,1,0,0:0:0:0:
398,319,1306,1,0,0:0:0:0:
378,339,1307,1,0,0:0:0:0:
355,355,1309,1,0,0:0:0:0:
331,368,1310,1,0,0:0:0:0:
304,377,1312,1,0,0:0:0:0:
276,382,1313,1,0,0:0:0:0:
248,383,1315,1,0,0:0:0:0:
221,380,1316,1,0,0:0:0:0:
194,373,1318,1,0,0:0:0:0:
168,362,1319,1,0,0:0:0:0:
144,347,1321,1,0,0:0:0:0:
122,330,1322,1,0,0:0:0:0:
104,309,1324,1,0,0:0:0:0:
88,285,1325,1,0,0:0:0:0:
76,260,1327,1,0,0:0:0:0:
68,233,1328,1,0,0:0:0:0:
64,205,1330,1,0,0:0:0:0:
64,177,1331,1,0,0:0:0:0:
68,150,1333,1,0,0:0:0:0:
76,123,1334,1,0,0:0:0:0:
88,98,1336,1,0,0:0:0:0:
104,74,1337,1,0,0:0:0:0:
122,53,1339,1,0,0:0:0:0:
144,36,1340,1,0,0:0:0:0:
168,21,1342,1,0,0:0:0:0:
194,10,1343,1,0,0:0:0:0:
221,3,1345,1,0,0:0:0:0:
248,0,1346,1,0,0:0:0:0:
276,1,1348,1,0,0:0:0:0:
304,6,1349,1,0,0:0:0:0:
331,15,1351,1,0,0:0:0:0:
355,28,1352,1,0,0:0:0:0:
378,44,1354,1,0,0:0:0:0:
398,64,1355,1,0,0:0:0:0:
415,86,1357,1,0,0:0:0:0:
429,110,1358,1,0,0:0:0:0:
439,136,1360,1,0,0:0:0:0:
445,164,1361,1,0,0:0:0:0:
447,192,1363,1,0,0:0:0:0:
445,219,1364,1,0,0:0:0:0:
439,247,1366,1,0,0:0:0:0:
429,273,1367,1,0,0:0:0:0:
415,297,1369,1,0,0:0:0:0:
398,319,1370,1,0,0:0:0:0:
378,339,1372,1,0,0:0:0:0:
355,355,1373,1,0,0:0:0:0:
331,368,1375,1,0,0:0:0:0:
304,377,1376,1,0,0:0:0:0:
276,382,1378,1,0,0:0:0:0:
248,383,1379,1,0,0:0:0:0:
221,380,1381,1,0,0:0:0:0:
194,373,1382,1,0,0:0:0:0:
168,362,1384,1,0,0:0:0:0:
144,347,1385,1,0,0:0:0:0:
122,330,1387,1,0,0:0:0:0:
104,309,1388,1,0,0:0:0:0:
88,285,1390,1,0,0:0:0:0:
76,260,1391,1,0,0:0:0:0:
68,233,1393,1,0,0:0:0:0:
64,205,1394,1,0,0:0:0:0:
64,177,1396,1,0,0:0:0:0:
68,150,1397,1,0,0:0:0:0:
76,123,1399,1,0,0:0:0:0:
88,98,1401,1,0,0:0:0:0:
104,74,1403,1,0,0:0:0:0:
122,53,1404,1,0,0:0:0:0:
144,36,1406,1,0,0:0:0:0:
168,21,1407,1,0,0:0:0:0:
194,10,1409,1,0,0:0:0:0:
221,3,1410,1,0,0:0:0:0:
248,0,1412,1,0,0:0:0:0:
276,1,1413,1,0,0:0:0:0:
304,6,1415,1,0,0:0:0:0:
331,15,1416,1,0,0:0:0:0:
355,28,1418,1,0,0:0:0:0:
378,44,1419,1,0,0:0:0:0:
398,64,1421,1,0,0:0:0:0:
415,86,1422,1,0,0:0:0:0:
429,110,1424,1,0,0:0:0:0:
439,136,1425,1,0,0:0:0:0:
445,164,1427,1,0,0:0:0:0:
447,192,1428,1,0,0:0:0:0:
445,219,1430,1,0,0:0:0:0:
439,247,1431,1,0,0:0:0:0:
429,273,1433,1,0,0:0:0:0:
415,297,1434,1,0,0:0:0:0:
398,319,1436,1,0,0:0:0:0:
378,339,1437,1,0,0:0:0:0:
355,355,1439,1,0,0:0:0:0:
331,368,1440,1,0,0:0:0:0:
304,377,1442,1,0,0:0:0:0:
276,382,1443,1,0,0:0:0:0:
248,383,1445,1,0,0:0:0:0:
221,380,1446,1,0,0:0:0:0:
194,373,1448,1,0,0:0:0:0:
168,362,1449,1,0,0:0:0:0:
144,347,1451,1,0,0:0:0:0:
122,330,1452,1,0,0:0:0:0:
104,309,1454,1,0,0:0:0:0:
88,285,1455,1,0,0:0:0:0:
76,260,1457,1,0,0:0:0:0:
68,233,1458,1,0,0:0:0:0:
64,205,1460,1,0,0:0:0:0:
64,177,1461,1,0,0:0:0:0:
68,150,1463,1,0,0:0:0:0:
76,123,1464,1,0,0:0:0:0:
88,98,1466,1,0,0:0:0:0:
104,74,1467,1,0,0:0:0:0:
122,53,1469,1,0,0:0:0:0:
144,36,1470,1,0,0:0:0:0:
168,21,1472,1,0,0:0:0:0:
194,10,1473,1,0,0:0:0:0:
221,3,1475,1,0,0:0:0:0:
248,0,1476,1,0,0:0:0:0:
276,1,1478,1,0,0:0:0:0:
304,6,1479,1,0,0:0:0:0:
331,15,1481,1,0,0:0:0:0:
355,28,1482,1,0,0:0:0:0:
378,44,1484,1,0,0:0:0:0:
398,64,1485,1,0,0:0:0:0:
415,86,1487,1,0,0:0:0:0:
429,110,1488,1,0,0:0:0:0:
439,136,1490,1,0,0:0:0:0:
445,164,1491,1,0,0:0:0:0:
447,192,1493,1,0,0:0:0:0:
445,219,1494,1,0,0:0:0:0:
439,247,1496,1,0,0:0:0:0:
429,273,1497,1,0,0:0:0:0:
415,297,1499,1,0,0:0:0:0:
398,319,1500,1,0,0:0:0:0:
378,339,1502,1,0,0:0:0:0:
355,355,1503,1,0,0:0:0:0:
331,368,1505,1,0,0:0:0:0:
304,377,1506,1,0,0:0:0:0:
276,382,1508,1,0,0:0:0:0:
248,383,1509,1,0,0:0:0:0:
221,380,1511,1,0,0:0:0:0:
194,373,1512,1,0,0:0:0:0:
168,362,1514,1,0,0:0:0:0:
144,347,1515,1,0,0:0:0:0:
122,330,1517,1,0,0:0:0:0:
104,309,1518,1,0,0:0:0:0:
88,285,1520,1,0,0:0:0:0:
76,260,1521,1,0,0:0:0:0:
68,233,1523,1,0,0:0:0:0:
64,205,1524,1,0,0:0:0:0:
64,177,1526,1,0,0:0:0:0:
68,150,1527,1,0,0:0:0:0:
76,123,1529,1,0,0:0:0:0:
88,98,1530,1,0,0:0:0:0:
104,74,1532,1,0,0:0:0:0:
122,53,1533,1,0,0:0:0:0:
144,36,1535,1,0,0:0:0:0:
168,21,1536,1,0,0:0:0:0:
194,10,1538,1,0,0:0:0:0:
221,3,1539,1,0,0:0:0:0:
248,0,1541,1,0,0:0:0:0:
276,1,1542,1,0,0:0:0:0:
304,6,1544,1,0,0:0:0:0:
331,15,1545,1,0,0:0:0:0:
355,28,1547,1,0,0:0:0:0:
378,44,1548,1,0,0:0:0:0:
398,64,1550,1,0,0:0:0:0:
415,86,1551,1,0,0:0:0:0:
429,110,1553,1,0,0:0:0:0:
439,136,1554,1,0,0:0:0:0:
445,164,1556,1,0,0:0:0:0:
447,192,1557,1,0,0:0:0:0:
445,219,1559,1,0,0:0:0:0:
439,247,1560,1,0,0:0:0:0:
429,273,1562,1,0,0:0:0:0:
415,297,1563,1,0,0:0:0:0:
398,319,1565,1,0,0:0:0:0:
378,339,1566,1,0,0:0:0:0:
355,355,1568,1,0,0:0:0:0:
331,368,1569,1,0,0:0:0:0:
304,377,1571,1,0,0:0:0:0:
276,382,1572,1,0,0:0:0:0:
248,383,1574,1,0,0:0:0:0:
221,380,1575,1,0,0:0:0:0:
194,373,1577,1,0,0:0:0:0:
168,362,1578,1,0,0:0:0:0:
144,347,1580,1,0,0:0:0:0:
122,330,1581,1,0,0:0:0:0:
104,309,1583,1,0,0:0:0:0:
88,285,1584,1,0,0:0:0:0:
76,260,1586,1,0,0:0:0:0:
68,233,1587,1,0,0:0:0:0:
64,205,1589,1,0,0:0:0:0:
64,177,1590,1,0,0:0:0:0:
68,150,1592,1,0,0:0:0:0:
76,123,1593,1,0,0:0:0:0:
88,98,1595,1,0,0:0:0:0:
104,74,1596,1,0,0:0:0:0:
122,53,1598,1,0,0:0:0:0:
144,36,1599,1,0,0:0:0:0:
168,21,1601,1,0,0:0:0:0:
194,10,1602,1,0,0:0:0:0:
221,3,1604,1,0,0:0:0:0:
248,0,1605,1,0,0:0:0:0:
276,1,1607,1,0,0:0:0:0:
304,6,1608,1,0,0:0:0:0:
331,15,1610,1,0,0:0:0:0:
355,28,1611,1,0,0:0:0:0:
378,44,1613,1,0,0:0:0:0:
398,64,1614,1,0,0:0:0:0:
415,86,1616,1,0,0:0:0:0:
429,110,1617,1,0,0:0:0:0:
439,136,1619,1,0,0:0:0:0:
445,164,1620,1,0,0:0:0:0:
447,192,1622,1,0,0:0:0:0:
445,219,1623,1,0,0:0:0:0:
439,247,1625,1,0,0:0:0:0:
429,273,1626,1,0,0:0:0:0:
415,297,1628,1,0,0:0:0:0:
398,319,1629,1,0,0:0:0:0:
378,339,1631,1,0,0:0:0:0:
355,355,1632,1,0,0:0:0:0:
331,368,1634,1,0,0:0:0:0:
304,377,1635,1,0,0:0:0:0:
276,382,1637,1,0,0:0:0:0:
248,383,1638,1,0,0:0:0:0:
221,380,1640,1,0,0:0:0:0:
194,373,1641,1,0,0:0:0:0:
168,362,1643,1,0,0:0:0:0:
144,347,1644,1,0,0:0:0:0:
122,330,1646,1,0,0:0:0:0:
104,309,1647,1,0,0:0:0:0:
88,285,1649,1,0,0:0:0:0:
76,260,1650,1,0,0:0:0:0:
68,233,1652,1,0,0:0:0:0:
64,205,1653,1,0,0:0:0:0:
64,177,1655,1,0,0:0:0:0:
68,150,1656,1,0,0:0:0:0:
76,123,1658,1,0,0:0:0:0:
88,98,1659,1,0,0:0:0:0:
104,74,1661,1,0,0:0:0:0:
122,53,1662,1,0,0:0:0:0:
144,36,1664,1,0,0:0:0:0:
168,21,1665,1,0,0:0:0:0:
194,10,1667,1,0,0:0:0:0:
221,3,1668,1,0,0:0:0:0:
248,0,1670,1,0,0:0:0:0:
276,1,1671,1,0,0:0:0:0:
304,6,1673,1,0,0:0:0:0:
331,15,1674,1,0,0:0:0:0:
355,28,1676,1,0,0:0:0:0:
378,44,1677,1,0,0:0:0:0:
398,64,1679,1,0,0:0:0:0:
415,86,1680,1,0,0:0:0:0:
429,110,1682,1,0,0:0:0:0:
439,136,1683,1,0,0:0:0:0:
445,164,1685,1,0,0:0:0:0:
447,192,1686,1,0,0:0:0:0:
445,219,1688,1,0,0:0:0:0:
439,247,1689,1,0,0:0:0:0:
429,273,1691,1,0,0:0:0:0:
415,297,1692,1,0,0:0:0:0:
398,319,1694,1,0,0:0:0:0:
378,339,1695,1,0,0:0:0:0:
355,355,1697,1,0,0:0:0:0:
331,368,1698,1,0,0:0:0:0:
304,377,1700,1,0,0:0:0:0:
276,382,1701,1,0,0:0:0:0:
248,383,1703,1,0,0:0:0:0:
221,380,1704,1,0,0:0:0:0:
194,373,1706,1,0,0:0:0:0:
168,362,1707,1,0,0:0:0:0:
144,347,1709,1,0,0:0:0:0:
122,330,1710,1,0,0:0:0:0:
104,309,1712,1,0,0:0:0:0:
88,285,1713,1,0,0:0:0:0:
76,260,1715,1,0,0:0:0:0:
68,233,1716,1,0,0:0:0:0:
64,205,1718,1,0,0:0:0:0:
64,177,1719,1,0,0:0:0:0:
68,150,1721,1,0,0:0:0:0:
76,123,1722,1,0,0:0:0:0:
88,98,1724,1,0,0:0:0:0:
104,74,1725,1,0,0:0:0:0:
122,53,1727,1,0,0:0:0:0:
144,36,1728,1,0,0:0:0:0:
168,21,1730,1,0,0:0:0:0:
194,10,1731,1,0,0:0:0:0:
221,3,1733,1,0,0:0:0:0:
248,0,1734,1,0,0:0:0:0:
276,1,1736,1,0,0:0:0:0:
304,6,1737,1,0,0:0:0:0:
331,15,1739,1,0,0:0:0:0:
355,28,1740,1,0,0:0:0:0:
378,44,1742,1,0,0:0:0:0:
398,64,1743,1,0,0:0:0:0:
415,86,1745,1,0,0:0:0:0:
429,110,1746,1,0,0:0:0:0:
439,136,1748,1,0,0:0:0:0:
445,164,1749,1,0,0:0:0:0:
447,192,1751,1,0,0:0:0:0:
445,219,1752,1,0,0:0:0:0:
439,247,1754,1,0,0:0:0:0:
429,273,1755,1,0,0:0:0:0:
415,297,1757,1,0,0:0:0:0:
398,319,1758,1,0,0:0:0:0:
378,339,1760,1,0,0:0:0:0:
355,355,1761,1,0,0:0:0:0:
331,368,1763,1,0,0:0:0:0:
304,377,1764,1,0,0:0:0:0:
276,382,1766,1,0,0:0:0:0:
248,383,1767,1,0,0:0:0:0:
221,380,1769,1,0,0:0:0:0:
194,373,1770,1,0,0:0:0:0:
168,362,1772,1,0,0:0:0:0:
144,347,1773,1,0,0:0:0:0:
122,330,1775,1,0,0:0:0:0:
104,309,1776,1,0,0:0:0:0:
88,285,1778,1,0,0:0:0:0:
76,260,1779,1,0,0:0:0:0:
68,233,1781,1,0,0:0:0:0:
64,205,1782,1,0,0:0:0:0:
64,177,1784,1,0,0:0:0:0:
68,150,1785,1,0,0:0:0:0:
76,123,1787,1,0,0:0:0:0:
88,98,1788,1,0,0:0:0:0:
104,74,1790,1,0,0:0:0:0:
122,53,1791,1,0,0:0:0:0:
144,36,1793,1,0,0:0:0:0:
168,21,1794,1,0,0:0:0:0:
194,10,1796,1,0,0:0:0:0:
221,3,1797,1,0,0:0:0:0:
248,0,1799,1,0,0:0:0:0:
276,1,1800,1,0,0:0:0:0:
304,6,1802,1,0,0:0:0:0:
331,15,1803,1,0,0:0:0:0:
355,28,1805,1,0,0:0:0:0:
378,44,1806,1,0,0:0:0:0:
398,64,1808,1,0,0:0:0:0:
415,86,1809,1,0,0:0:0:0:
429,110,1811,1,0,0:0:0:0:
439,136,1812,1,0,0:0:0:0:
445,164,1814,1,0,0:0:0:0:
447,192,1815,1,0,0:0:0:0:
445,219,1817,1,0,0:0:0:0:
439,247,1818,1,0,0:0:0:0:
429,273,1820,1,0,0:0:0:0:
415,297,1821,1,0,0:0:0:0:
398,319,1823,1,0,0:0:0:0:
378,339,1824,1,0,0:0:0:0:
355,355,1826,1,0,0:0:0:0:
331,368,1827,1,0,0:0:0:0:
304,377,1829,1,0,0:0:0:0:
276,382,1830,1,0,0:0:0:0:
248,383,1832,1,0,0:0:0:0:
221,380,1833,1,0,0:0:0:0:
194,373,1835,1,0,0:0:0:0:
168,362,1836,1,0,0:0:0:0:
144,347,1838,1,0,0:0:0:0:
122,330,1839,1,0,0:0:0:0:
104,309,1841,1,0,0:0:0:0:
88,285,1842,1,0,0:0:0:0:
76,260,1844,1,0,0:0:0:0:
68,233,1845,1,0,0:0:0:0:
64,205,1847,1,0,0:0:0:0:
64,177,1848,1,0,0:0:0:0:
68,150,1850,1,0,0:0:0:0:
76,123,1851,1,0,0:0:0:0:
88,98,1853,1,0,0:0:0:0:
104,74,1854,1,0,0:0:0:0:
122,53,1856,1,0,0:0:0:0:
144,36,1857,1,0,0:0:0:0:
168,21,1859,1,0,0:0:0:0:
194,10,1860,1,0,0:0:0:0:
221,3,1862,1,0,0:0:0:0:
248,0,1863,1,0,0:0:0:0:
276,1,1865,1,0,0:0:0:0:
304,6,1866,1,0,0:0:0:0:
331,15,1868,1,0,0:0:0:0:
355,28,1869,1,0,0:0:0:0:
378,44,1871,1,0,0:0:0:0:
398,64,1872,1,0,0:0:0:0:
415,86,1874,1,0,0:0:0:0:
429,110,1875,1,0,0:0:0:0:
439,136,1877,1,0,0:0:0:0:
445,164,1878,1,0,0:0:0:0:
447,192,1880,1,0,0:0:0:0:
445,219,1881,1,0,0:0:0:0:
439,247,1883,1,0,0:0:0:0:
429,273,1884,1,0,0:0:0:0:
415,297,1886,1,0,0:0:0:0:
398,319,1887,1,0,0:0:0:0:
378,339,1889,1,0,0:0:0:0:
355,355,1890,1,0,0:0:0:0:
331,368,1892,1,0,0:0:0:0:
304,377,1893,1,0,0:0:0:0:
276,382,1895,1,0,0:0:0:0:
248,383,1896,1,0,0:0:0:0:
221,380,1898,1,0,0:0:0:0:
194,373,1899,1,0,0:0:0:0:
168,362,1901,1,0,0:0:0:0:
144,347,1902,1,0,0:0:0:0:
122,330,1904,1,0,0:0:0:0:
104,309,1905,1,0,0:0:0:0:
88,285,1907,1,0,0:0:0:0:
76,260,1908,1,0,0:0:0:0:
68,233,1910,1,0,0:0:0:0:
64,205,1911,1,0,0:0:0:0:
64,177,1913,1,0,0:0:0:0:
68,150,1914,1,0,0:0:0:0:
76,123,1916,1,0,0:0:0:0:
88,98,1917,1,0,0:0:0:0:
104,74,1919,1,0,0:0:0:0:
122,53,1920,1,0,0:0:0:0:
144,36,1922,1,0,0:0:0:0:
168,21,1923,1,0,0:0:0:0:
194,10,1925,1,0,0:0:0:0:
221,3,1926,1,0,0:0:0:0:
248,0,1928,1,0,0:0:0:0:
276,1,1929,1,0,0:0:0:0:
304,6,1931,1,0,0:0:0:0:
331,15,1932,1,0,0:0:0:0:
355,28,1934,1,0,0:0:0:0:
378,44,1935,1,0,0:0:0:0:
398,64,1937,1,0,0:0:0:0:
415,86,1938,1,0,0:0:0:0:
429,110,1940,1,0,0:0:0:0:
439,136,1941,1,0,0:0:0:0:
445,164,1943,1,0,0:0:0:0:
447,192,1944,1,0,0:0:0:0:
445,219,1951,1,0,0:0:0:0:
439,247,1952,1,0,0:0:0:0:
429,273,1954,1,0,0:0:0:0:
415,297,1955,1,0,0:0:0:0:
398,319,1957,1,0,0:0:0:0:
378,339,1958,1,0,0:0:0:0:
355,355,1960,1,0,0:0:0:0:
331,368,1961,1,0,0:0:0:0:
304,377,1963,1,0,0:0:0:0:
276,382,1964,1,0,0:0:0:0:
248,383,1966,1,0,0:0:0:0:
221,380,1967,1,0,0:0:0:0:
194,373,1969,1,0,0:0:0:0:
168,362,1970,1,0,0:0:0:0:
144,347,1972,1,0,0:0:0:0:
122,330,1973,1,0,0:0:0:0:
104,309,1975,1,0,0:0:0:0:
88,285,1976,1,0,0:0:0:0:
76,260,1978,1,0,0:0:0:0:
68,233,1979,1,0,0:0:0:0:
64,205,1981,1,0,0:0:0:0:
64,177,1982,1,0,0:0:0:0:
68,150,1984,1,0,0:0:0:0:
76,123,1985,1,0,0:0:0:0:
88,98,1987,1,0,0:0:0:0:
104,74,1988,1,0,0:0:0:0:
122,53,1990,1,0,0:0:0:0:
144,36,1991,1,0,0:0:0:0:
168,21,1993,1,0,0:0:0:0:
194,10,1994,1,0,0:0:0:0:
221,3,1996,1,0,0:0:0:0:
248,0,1997,1,0,0:0:0:0:
276,1,1999,1,0,0:0:0:0:
304,6,2000,1,0,0:0:0:0:
331,15,2002,1,0,0:0:0:0:
355,28,2003,1,0,0:0:0:0:
378,44,2005,1,0,0:0:0:0:
398,64,2006,1,0,0:0:0:0:
415,86,2008,1,0,0:0:0:0:
429,110,2009,1,0,0:0:0:0:
439,136,2011,1,0,0:0:0:0:
445,164,2012,1,0,0:0:0:0:
447,192,2014,1,0,0:0:0:0:
445,219,2015,1,0,0:0:0:0:
439,247,2017,1,0,0:0:0:0:
429,273,2018,1,0,0:0:0:0:
415,297,2020,1,0,0:0:0:0:
398,319,2021,1,0,0:0:0:0:
378,339,2023,1,0,0:0:0:0:
355,355,2024,1,0,0:0:0:0:
331,368,2026,1,0,0:0:0:0:
304,377,2027,1,0,0:0:0:0:
276,382,2029,1,0,0:0:0:0:
248,383,2030,1,0,0:0:0:0:
221,380,2032,1,0,0:0:0:0:
194,373,2033,1,0,0:0:0:0:
168,362,2035,1,0,0:0:0:0:
144,347,2036,1,0,0:0:0:0:
122,330,2038,1,0,0:0:0:0:
104,309,2039,1,0,0:0:0:0:
88,285,2041,1,0,0:0:0:0:
76,260,2042,1,0,0:0:0:0:
68,233,2044,1,0,0:0:0:0:
64,205,2045,1,0,0:0:0:0:
64,177,2047,1,0,0:0:0:0:
68,150,2048,1,0,0:0:0:0:
76,123,2050,1,0,0:0:0:0:
88,98,2052,1,0,0:0:0:0:
104,74,2054,1,0,0:0:0:0:
122,53,2055,1,0,0:0:0:0:
144,36,2057,1,0,0:0:0:0:
168,21,2058,1,0,0:0:0:0:
194,10,2060,1,0,0:0:0:0:
221,3,2061,1,0,0:0:0:0:
248,0,2063,1,0,0:0:0:0:
276,1,2064,1,0,0:0:0:0:
304,6,2066,1,0,0:0:0:0:
331,15,2067,1,0,0:0:0:0:
355,28,2069,1,0,0:0:0:0:
378,44,2070,1,0,0:0:0:0:
398,64,2072,1,0,0:0:0:0:
415,86,2073,1,0,0:0:0:0:
429,110,2075,1,0,0:0:0:0:
439,136,2076,1,0,0:0:0:0:
445,164,2078,1,0,0:0:0:0:
447,192,2079,1,0,0:0:0:0:
445,219,2081,1,0,0:0:0:0:
439,247,2082,1,0,0:0:0:0:
429,273,2084,1,0,0:0:0:0:
415,297,2085,1,0,0:0:0:0:
398,319,2087,1,0,0:0:0:0:
378,339,2088,1,0,0:0:0:0:
355,355,2090,1,0,0:0:0:0:
331,368,2091,1,0,0:0:0:0:
304,377,2093,1,0,0:0:0:0:
276,382,2094,1,0,0:0:0:0:
248,383,2096,1,0,0:0:0:0:
221,380,2097,1,0,0:0:0:0:
194,373,2099,1,0,0:0:0:0:
168,362,2100,1,0,0:0:0:0:
144,347,2102,1,0,0:0:0:0:
122,330,2103,1,0,0:0:0:0:
104,309,2105,1,0,0:0:0:0:
88,285,2106,1,0,0:0:0:0:
76,260,2108,1,0,0:0:0:0:
68,233,2109,1,0,0:0:0:0:
64,205,2111,1,0,0:0:0:0:
64,177,2112,1,0,0:0:0:0:
68,150,2114,1,0,0:0:0:0:
76,123,2115,1,0,0:0:0:0:
88,98,2117,1,0,0:0:0:0:
104,74,2118,1,0,0:0:0:0:
122,53,2120,1,0,0:0:0:0:
144,36,2121,1,0,0:0:0:0:
168,21,2123,1,0,0:0:0:0:
194,10,2124,1,0,0:0:0:0:
221,3,2126,1,0,0:0:0:0:
248,0,2127,1,0,0:0:0:0:
276,1,2129,1,0,0:0:0:0:
304,6,2130,1,0,0:0:0:0:
331,15,2132,1,0,0:0:0:0:
355,28,2133,1,0,0:0:0:0:
378,44,2135,1,0,0:0:0:0:
398,64,2136,1,0,0:0:0:0:
415,86,2138,1,0,0:0:0:0:
429,110,2139,1,0,0:0:0:0:
439,136,2141,1,0,0:0:0:0:
445,164,2142,1,0,0:0:0:0:
447,192,2144,1,0,0:0:0:0:
445,219,2145,1,0,0:0:0:0:
439,247,2147,1,0,0:0:0:0:
429,273,2148,1,0,0:0:0:0:
415,297,2150,1,0,0:0:0:0:
398,319,2151,1,0,0:0:0:0:
378,339,2153,1,0,0:0:0:0:
355,355,2154,1,0,0:0:0:0:
331,368,2156,1,0,0:0:0:0:
304,377,2157,1,0,0:0:0:0:
276,382,2159,1,0,0:0:0:0:
248,383,2160,1,0,0:0:0:0:
221,380,2162,1,0,0:0:0:0:
194,373,2163,1,0,0:0:0:0:
168,362,2165,1,0,0:0:0:0:
144,347,2166,1,0,0:0:0:0:
122,330,2168,1,0,0:0:0:0:
104,309,2169,1,0,0:0:0:0:
88,285,2171,1,0,0:0:0:0:
76,260,2172,1,0,0:0:0:0:
68,233,2174,1,0,0:0:0:0:
64,205,2175,1,0,0:0:0:0:
64,177,2177,1,0,0:0:0:0:
68,150,2178,1,0,0:0:0:0:
76,123,2180,1,0,0:0:0:0:
88,98,2181,1,0,0:0:0:0:
104,74,2183,1,0,0:0:0:0:
122,53,2184,1,0,0:0:0:0:
144,36,2186,1,0,0:0:0:0:
168,21,2187,1,0,0:0:0:0:
194,10,2189,1,0,0:0:0:0:
221,3,2190,1,0,0:0:0:0:
248,0,2192,1,0,0:0:0:0:
276,1,2193,1,0,0:0:0:0:
304,6,2195,1,0,0:0:0:0:
331,15,2196,1,0,0:0:0:0:
355,28,2198,1,0,0:0:0:0:
378,44,2199,1,0,0:0:0:0:
398,64,2201,1,0,0:0:0:0:
415,86,2202,1,0,0:0:0:0:
429,110,2204,1,0,0:0:0:0:
439,136,2205,1,0,0:0:0:0:
445,164,2207,1,0,0:0:0:0:
447,192,2208,1,0,0:0:0:0:
445,219,2210,1,0,0:0:0:0:
439,247,2211,1,0,0:0:0:0:
429,273,2213,1,0,0:0:0:0:
415,297,2214,1,0,0:0:0:0:
398,319,2216,1,0,0:0:0:0:
378,339,2217,1,0,0:0:0:0:
355,355,2219,1,0,0:0:0:0:
331,368,2220,1,0,0:0:0:0:
304,377,2222,1,0,0:0:0:0:
276,382,2223,1,0,0:0:0:0:
248,383,2225,1,0,0:0:0:0:
221,380,2226,1,0,0:0:0:0:
194,373,2228,1,0,0:0:0:0:
168,362,2229,1,0,0:0:0:0:
144,347,2231,1,0,0:0:0:0:
122,330,2232,1,0,0:0:0:0:
104,309,2234,1,0,0:0:0:0:
88,285,2235,1,0,0:0:0:0:
76,260,2237,1,0,0:0:0:0:
68,233,2238,1,0,0:0:0:0:
64,205,2240,1,0,0:0:0:0:
64,177,2241,1,0,0:0:0:0:
68,150,2243,1,0,0:0:0:0:
76,123,2244,1,0,0:0:0:0:
88,98,2246,1,0,0:0:0:0:
104,74,2247,1,0,0:0:0:0:
122,53,2249,1,0,0:0:0:0:
144,36,2250,1,0,0:0:0:0:
168,21,2252,1,0,0:0:0:0:
194,10,2253,1,0,0:0:0:0:
221,3,2255,1,0,0:0:0:0:
248,0,2256,1,0,0:0:0:0:
276,1,2258,1,0,0:0:0:0:
304,6,2259,1,0,0:0:0:0:
331,15,2261,1,0,0:0:0:0:
355,28,2262,1,0,0:0:0:0:
378,44,2264,1,0,0:0:0:0:
398,64,2265,1,0,0:0:0:0:
415,86,2267,1,0,0:0:0:0:
429,110,2268,1,0,0:0:0:0:
439,136,2270,1,0,0:0:0:0:
445,164,2271,1,0,0:0:0:0:
447,192,2273,1,0,0:0:0:0:
445,219,2274,1,0,0:0:0:0:
439,247,2276,1,0,0:0:0:0:
429,273,2277,1,0,0:0:0:0:
415,297,2279,1,0,0:0:0:0:
398,319,2280,1,0,0:0:0:0:
378,339,2282,1,0,0:0:0:0:
355,355,2283,1,0,0:0:0:0:
331,368,2285,1,0,0:0:0:0:
304,377,2286,1,0,0:0:0:0:
276,382,2288,1,0,0:0:0:0:
248,383,2289,1,0,0:0:0:0:
221,380,2291,1,0,0:0:0:0:
194,373,2292,1,0,0:0:0:0:
168,362,2294,1,0,0:0:0:0:
144,347,2295,1,0,0:0:0:0:
122,330,2297,1,0,0:0:0:0:
104,309,2298,1,0,0:0:0:0:
88,285,2300,1,0,0:0:0:0:
76,260,2301,1,0,0:0:0:0:
68,233,2303,1,0,0:0:0:0:
64,205,2304,1,0,0:0:0:0:
64,177,2306,1,0,0:0:0:0:
68,150,2307,1,0,0:0:0:0:
76,123,2309,1,0,0:0:0:0:
88,98,2310,1,0,0:0:0:0:
104,74,2312,1,0,0:0:0:0:
122,53,2313,1,0,0:0:0:0:
144,36,2315,1,0,0:0:0:0:
168,21,2316,1,0,0:0:0:0:
194,10,2318,1,0,0:0:0:0:
221,3,2319,1,0,0:0:0:0:
248,0,2321,1,0,0:0:0:0:
276,1,2322,1,0,0:0:0:0:
304,6,2324,1,0,0:0:0:0:
331,15,2325,1,0,0:0:0:0:
355,28,2327,1,0,0:0:0:0:
378,44,2328,1,0,0:0:0:0:
398,64,2330,1,0,0:0:0:0:
415,86,2331,1,0,0:0:0:0:
429,110,2333,1,0,0:0:0:0:
439,136,2334,1,0,0:0:0:0:
445,164,2336,1,0,0:0:0:0:
447,192,2337,1,0,0:0:0:0:
445,219,2339,1,0,0:0:0:0:
439,247,2340,1,0,0:0:0:0:
429,273,2342,1,0,0:0:0:0:
415,297,2343,1,0,0:0:0:0:
398,319,2345,1,0,0:0:0:0:
378,339,2346,1,0,0:0:0:0:
355,355,2348,1,0,0:0:0:0:
331,368,2349,1,0,0:0:0:0:
304,377,2351,1,0,0:0:0:0:
276,382,2352,1,0,0:0:0:0:
248,383,2354,1,0,0:0:0:0:
221,380,2355,1,0,0:0:0:0:
194,373,2357,1,0,0:0:0:0:
168,362,2358,1,0,0:0:0:0:
144,347,2360,1,0,0:0:0:0:
122,330,2361,1,0,0:0:0:0:
104,309,2363,1,0,0:0:0:0:
88,285,2364,1,0,0:0:0:0:
76,260,2366,1,0,0:0:0:0:
68,233,2367,1,0,0:0:0:0:
64,205,2369,1,0,0:0:0:0:
64,177,2370,1,0,0:0:0:0:
68,150,2372,1,0,0:0:0:0:
76,123,2373,1,0,0:0:0:0:
88,98,2375,1,0,0:0:0:0:
104,74,2376,1,0,0:0:0:0:
122,53,2378,1,0,0:0:0:0:
144,36,2379,1,0,0:0:0:0:
168,21,2381,1,0,0:0:0:0:
194,10,2382,1,0,0:0:0:0:
221,3,2384,1,0,0:0:0:0:
248,0,2385,1,0,0:0:0:0:
276,1,2387,1,0,0:0:0:0:
304,6,2388,1,0,0:0:0:0:
331,15,2390,1,0,0:0:0:0:
355,28,2391,1,0,0:0:0:0:
378,44,2393,1,0,0:0:0:0:
398,64,2394,1,0,0:0:0:0:
415,86,2396,1,0,0:0:0:0:
429,110,2397,1,0,0:0:0:0:
439,136,2399,1,0,0:0:0:0:
445,164,2400,1,0,0:0:0:0:
447,192,2402,1,0,0:0:0:0:
445,219,2403,1,0,0:0:0:0:
439,247,2405,1,0,0:0:0:0:
429,273,2406,1,0,0:0:0:0:
415,297,2408,1,0,0:0:0:0:
398,319,2409,1,0,0:0:0:0:
378,339,2411,1,0,0:0:0:0:
355,355,2412,1,0,0:0:0:0:
331,368,2414,1,0,0:0:0:0:
304,377,2415,1,0,0:0:0:0:
276,382,2417,1,0,0:0:0:0:
248,383,2418,1,0,0:0:0:0:
221,380,2420,1,0,0:0:0:0:
194,373,2421,1,0,0:0:0:0:
168,362,2423,1,0,0:0:0:0:
144,347,2424,1,0,0:0:0:0:
122,330,2426,1,0,0:0:0:0:
104,309,2427,1,0,0:0:0:0:
88,285,2429,1,0,0:0:0:0:
76,260,2430,1,0,0:0:0:0:
68,233,2432,1,0,0:0:0:0:
64,205,2433,1,0,0:0:0:0:
64,177,2435,1,0,0:0:0:0:
68,150,2436,1,0,0:0:0:0:
76,123,2438,1,0,0:0:0:0:
88,98,2439,1,0,0:0:0:0:
104,74,2441,1,0,0:0:0:0:
122,53,2442,1,0,0:0:0:0:
144,36,2444,1,0,0:0:0:0:
168,21,2445,1,0,0:0:0:0:
194,10,2447,1,0,0:0:0:0:
221,3,2448,1,0,0:0:0:0:
248,0,2450,1,0,0:0:0:0:
276,1,2451,1,0,0:0:0:0:
304,6,2453,1,0,0:0:0:0:
331,15,2454,1,0,0:0:0:0:
355,28,2456,1,0,0:0:0:0:
378,44,2457,1,0,0:0:0:0:
398,64,2459,1,0,0:0:0:0:
415,86,2460,1,0,0:0:0:0:
429,110,2462,1,0,0:0:0:0:
439,136,2463,1,0,0:0:0:0:
445,164,2465,1,0,0:0:0:0:
447,192,2466,1,0,0:0:0:0:
445,219,2468,1,0,0:0:0:0:
439,247,2469,1,0,0:0:0:0:
429,273,2471,1,0,0:0:0:0:
415,297,2472,1,0,0:0:0:0:
398,319,2474,1,0,0:0:0:0:
378,339,2475,1,0,0:0:0:0:
355,355,2477,1,0,0:0:0:0:
331,368,2478,1,0,0:0:0:0:
304,377,2480,1,0,0:0:0:0:
276,382,2481,1,0,0:0:0:0:
248,383,2483,1,0,0:0:0:0:
221,380,2484,1,0,0:0:0:0:
194,373,2486,1,0,0:0:0:0:
168,362,2487,1,0,0:0:0:0:
144,347,2489,1,0,0:0:0:0:
122,330,2490,1,0,0:0:0:0:
104,309,2492,1,0,0:0:0:0:
88,285,2493,1,0,0:0:0:0:
76,260,2495,1,0,0:0:0:0:
68,233,2496,1,0,0:0:0:0:
64,205,2498,1,0,0:0:0:0:
64,177,2499,1,0,0:0:0:0:
68,150,2501,1,0,0:0:0:0:
76,123,2502,1,0,0:0:0:0:
88,98,2504,1,0,0:0:0:0:
104,74,2505,1,0,0:0:0:0:
122,53,2507,1,0,0:0:0:0:
144,36,2508,1,0,0:0:0:0:
168,21,2510,1,0,0:0:0:0:
194,10,2511,1,0,0:0:0:0:
221,3,2513,1,0,0:0:0:0:
248,0,2514,1,0,0:0:0:0:
276,1,2516,1,0,0:0:0:0:
304,6,2517,1,0,0:0:0:0:
331,15,2519,1,0,0:0:0:0:
355,28,2520,1,0,0:0:0:0:
378,44,2522,1,0,0:0:0:0:
398,64,2523,1,0,0:0:0:0:
415,86,2525,1,0,0:0:0:0:
429,110,2526,1,0,0:0:0:0:
439,136,2528,1,0,0:0:0:0:
445,164,2529,1,0,0:0:0:0:
447,192,2531,1,0,0:0:0:0:
445,219,2532,1,0,0:0:0:0:
439,247,2534,1,0,0:0:0:0:
429,273,2535,1,0,0:0:0:0:
415,297,2537,1,0,0:0:0:0:
398,319,2538,1,0,0:0:0:0:
378,339,2540,1,0,0:0:0:0:
355,355,2541,1,0,0:0:0:0:
331,368,2543,1,0,0:0:0:0:
304,377,2544,1,0,0:0:0:0:
276,382,2546,1,0,0:0:0:0:
248,383,2547,1,0,0:0:0:0:
221,380,2549,1,0,0:0:0:0:
194,373,2550,1,0,0:0:0:0:
168,362,2552,1,0,0:0:0:0:
144,347,2553,1,0,0:0:0:0:
122,330,2555,1,0,0:0:0:0:
104,309,2556,1,0,0:0:0:0:
88,285,2558,1,0,0:0:0:0:
76,260,2559,1,0,0:0:0:0:
68,233,2561,1,0,0:0:0:0:
64,205,2562,1,0,0:0:0:0:
64,177,2564,1,0,0:0:0:0:
68,150,2565,1,0,0:0:0:0:
76,123,2567,1,0,0:0:0:0:
88,98,2568,1,0,0:0:0:0:
104,74,2570,1,0,0:0:0:0:
122,53,2571,1,0,0:0:0:0:
144,36,2573,1,0,0:0:0:0:
168,21,2574,1,0,0:0:0:0:
194,10,2576,1,0,0:0:0:0:
221,3,2577,1,0,0:0:0:0:
248,0,2579,1,0,0:0:0:0:
276,1,2580,1,0,0:0:0:0:
304,6,2582,1,0,0:0:0:0:
331,15,2583,1,0,0:0:0:0:
355,28,2585,1,0,0:0:0:0:
378,44,2586,1,0,0:0:0:0:
398,64,2588,1,0,0:0:0:0:
415,86,2589,1,0,0:0:0:0:
429,110,2591,1,0,0:0:0:0:
439,136,2592,1,0,0:0:0:0:
445,164,2594,1,0,0:0:0:0:
447,192,2595,1,0,0:0:0:0:
445,219,2602,1,0,0:0:0:0:
439,247,2603,1,0,0:0:0:0:
429,273,2605,1,0,0:0:0:0:
415,297,2606,1,0,0:0:0:0:
398,319,2608,1,0,0:0:0:0:
378,339,2609,1,0,0:0:0:0:
355,355,2611,1,0,0:0:0:0:
331,368,2612,1,0,0:0:0:0:
304,377,2614,1,0,0:0:0:0:
276,382,2615,1,0,0:0:0:0:
248,383,2617,1,0,0:0:0:0:
221,380,2618,1,0,0:0:0:0:
194,373,2620,1,0,0:0:0:0:
168,362,2621,1,0,0:0:0:0:
144,347,2623,1,0,0:0:0:0:
122,330,2624,1,0,0:0:0:0:
104,309,2626,1,0,0:0:0:0:
88,285,2627,1,0,0:0:0:0:
76,260,2629,1,0,0:0:0:0:
68,233,2630,1,0,0:0:0:0:
64,205,2632,1,0,0:0:0:0:
64,177,2633,1,0,0:0:0:0:
68,150,2635,1,0,0:0:0:0:
76,123,2636,1,0,0:0:0:0:
88,98,2638,1,0,0:0:0:0:
104,74,2639,1,0,0:0:0:0:
122,53,2641,1,0,0:0:0:0:
144,36,2642,1,0,0:0:0:0:
168,21,2644,1,0,0:0:0:0:
194,10,2645,1,0,0:0:0:0:
221,3,2647,1,0,0:0:0:0:
248,0,2648,1,0,0:0:0:0:
276,1,2650,1,0,0:0:0:0:
304,6,2651,1,0,0:0:0:0:
331,15,2653,1,0,0:0:0:0:
355,28,2654,1,0,0:0:0:0:
378,44,2656,1,0,0:0:0:0:
398,64,2657,1,0,0:0:0:0:
415,86,2659,1,0,0:0:0:0:
429,110,2660,1,0,0:0:0:0:
439,136,2662,1,0,0:0:0:0:
445,164,2663,1,0,0:0:0:0:
447,192,2665,1,0,0:0:0:0:
445,219,2666,1,0,0:0:0:0:
439,247,2668,1,0,0:0:0:0:
429,273,2669,1,0,0:0:0:0:
415,297,2671,1,0,0:0:0:0:
398,319,2672,1,0,0:0:0:0:
378,339,2674,1,0,0:0:0:0:
355,355,2675,1,0,0:0:0:0:
331,368,2677,1,0,0:0:0:0:
304,377,2678,1,0,0:0:0:0:
276,382,2680,1,0,0:0:0:0:
248,383,2681,1,0,0:0:0:0:
221,380,2683,1,0,0:0:0:0:
194,373,2684,1,0,0:0:0:0:
168,362,2686,1,0,0:0:0:0:
144,347,2687,1,0,0:0:0:0:
122,330,2689,1,0,0:0:0:0:
104,309,2690,1,0,0:0:0:0:
88,285,2692,1,0,0:0:0:0:
76,260,2693,1,0,0:0:0:0:
68,233,2695,1,0,0:0:0:0:
64,205,2696,1,0,0:0:0:0:
64,177,2698,1,0,0:0:0:0:
68,150,2699,1,0,0:0:0:0:
76,123,2701,1,0,0:0:0:0:
88,98,2703,1,0,0:0:0:0:
104,74,2705,1,0,0:0:0:0:
122,53,2706,1,0,0:0:0:0:
144,36,2708,1,0,0:0:0:0:
168,21,2709,1,0,0:0:0:0:
194,10,2711,1,0,0:0:0:0:
221,3,2712,1,0,0:0:0:0:
248,0,2714,1,0,0:0:0:0:
276,1,2715,1,0,0:0:0:0:
304,6,2717,1,0,0:0:0:0:
331,15,2718,1,0,0:0:0:0:
355,28,2720,1,0,0:0:0:0:
378,44,2721,1,0,0:0:0:0:
398,64,2723,1,0,0:0:0:0:
415,86,2724,1,0,0:0:0:0:
429,110,2726,1,0,0:0:0:0:
439,136,2727,1,0,0:0:0:0:
445,164,2729,1,0,0:0:0:0:
447,192,2730,1,0,0:0:0:0:
445,219,2732,1,0,0:0:0:0:
439,247,2733,1,0,0:0:0:0:
429,273,2735,1,0,0:0:0:0:
415,297,2736,1,0,0:0:0:0:
398,319,2738,1,0,0:0:0:0:
378,339,2739,1,0,0:0:0:0:
355,355,2741,1,0,0:0:0:0:
331,368,2742,1,0,0:0:0:0:
304,377,2744,1,0,0:0:0:0:
276,382,2745,1,0,0:0:0:0:
248,383,2747,1,0,0:0:0:0:
221,380,2748,1,0,0:0:0:0:
194,373,2750,1,0,0:0:0:0:
168,362,2751,1,0,0:0:0:0:
144,347,2753,1,0,0:0:0:0:
122,330,2754,1,0,0:0:0:0:
104,309,2756,1,0,0:0:0:0:
88,285,2757,1,0,0:0:0:0:
76,260,2759,1,0,0:0:0:0:
68,233,2760,1,0,0:0:0:0:
64,205,2762,1,0,0:0:0:0:
64,177,2763,1,0,0:0:0:0:
68,150,2765,1,0,0:0:0:0:
76,123,2766,1,0,0:0:0:0:
88,98,2768,1,0,0:0:0:0:
104,74,2769,1,0,0:0:0:0:
122,53,2771,1,0,0:0:0:0:
144,36,2772,1,0,0:0:0:0:
168,21,2774,1,0,0:0:0:0:
194,10,2775,1,0,0:0:0:0:
221,3,2777,1,0,0:0:0:0:
248,0,2778,1,0,0:0:0:0:
276,1,2780,1,0,0:0:0:0:
304,6,2781,1,0,0:0:0:0:
331,15,2783,1,0,0:0:0:0:
355,28,2784,1,0,0:0:0:0:
378,44,2786,1,0,0:0:0:0:
398,64,2787,1,0,0:0:0:0:
415,86,2789,1,0,0:0:0:0:
429,110,2790,1,0,0:0:0:0:
439,136,2792,1,0,0:0:0:0:
445,164,2793,1,0,0:0:0:0:
447,192,2795,1,0,0:0:0:0:
445,219,2796,1,0,0:0:0:0:
439,247,2798,1,0,0:0:0:0:
429,273,2799,1,0,0:0:0:0:
415,297,2801,1,0,0:0:0:0:
398,319,2802,1,0,0:0:0:0:
378,339,2804,1,0,0:0:0:0:
355,355,2805,1,0,0:0:0:0:
331,368,2807,1,0,0:0:0:0:
304,377,2808,1,0,0:0:0:0:
276,382,2810,1,0,0:0:0:0:
248,383,2811,1,0,0:0:0:0:
221,380,2813,1,0,0:0:0:0:
194,373,2814,1,0,0:0:0:0:
168,362,2816,1,0,0:0:0:0:
144,347,2817,1,0,0:0:0:0:
122,330,2819,1,0,0:0:0:0:
104,309,2820,1,0,0:0:0:0:
88,285,2822,1,0,0:0:0:0:
76,260,2823,1,0,0:0:0:0:
68,233,2825,1,0,0:0:0:0:
64,205,2826,1,0,0:0:0:0:
64,177,2828,1,0,0:0:0:0:
68,150,2829,1,0,0:0:0:0:
76,123,2831,1,0,0:0:0:0:
88,98,2832,1,0,0:0:0:0:
104,74,2834,1,0,0:0:0:0:
122,53,2835,1,0,0:0:0:0:
144,36,2837,1,0,0:0:0:0:
168,21,2838,1,0,0:0:0:0:
194,10,2840,1,0,0:0:0:0:
221,3,2841,1,0,0:0:0:0:
248,0,2843,1,0,0:0:0:0:
276,1,2844,1,0,0:0:0:0:
304,6,2846,1,0,0:0:0:0:
331,15,2847,1,0,0:0:0:0:
355,28,2849,1,0,0:0:0:0:
378,44,2850,1,0,0:0:0:0:
398,64,2852,1,0,0:0:0:0:
415,86,2853,1,0,0:0:0:0:
429,110,2855,1,0,0:0:0:0:
439,136,2856,1,0,0:0:0:0:
445,164,2858,1,0,0:0:0:0:
447,192,2859,1,0,0:0:0:0:
445,219,2861,1,0,0:0:0:0:
439,247,2862,1,0,0:0:0:0:
429,273,2864,1,0,0:0:0:0:
415,297,2865,1,0,0:0:0:0:
398,319,2867,1,0,0:0:0:0:
378,339,2868,1,0,0:0:0:0:
355,355,2870,1,0,0:0:0:0:
331,368,2871,1,0,0:0:0:0:
304,377,2873,1,0,0:0:0:0:
276,382,2874,1,0,0:0:0:0:
248,383,2876,1,0,0:0:0:0:
221,380,2877,1,0,0:0:0:0:
194,373,2879,1,0,0:0:0:0:
168,362,2880,1,0,0:0:0:0:
144,347,2882,1,0,0:0:0:0:
122,330,2883,1,0,0:0:0:0:
104,309,2885,1,0,0:0:0:0:
88,285,2886,1,0,0:0:0:0:
76,260,2888,1,0,0:0:0:0:
68,233,2889,1,0,0:0:0:0:
64,205,2891,1,0,0:0:0:0:
64,177,2892,1,0,0:0:0:0:
68,150,2894,1,0,0:0:0:0:
76,123,2895,1,0,0:0:0:0:
88,98,2897,1,0,0:0:0:0:
104,74,2898,1,0,0:0:0:0:
122,53,2900,1,0,0:0:0:0:
144,36,2901,1,0,0:0:0:0:
168,21,2903,1,0,0:0:0:0:
194,10,2904,1,0,0:0:0:0:
221,3,2906,1,0,0:0:0:0:
248,0,2907,1,0,0:0:0:0:
276,1,2909,1,0,0:0:0:0:
304,6,2910,1,0,0:0:0:0:
331,15,2912,1,0,0:0:0:0:
355,28,2913,1,0,0:0:0:0:
378,44,2915,1,0,0:0:0:0:
398,64,2916,1,0,0:0:0:0:
415,86,2918,1,0,0:0:0:0:
429,110,2919,1,0,0:0:0:0:
439,136,2921,1,0,0:0:0:0:
445,164,2922,1,0,0:0:0:0:
447,192,2924,1,0,0:0:0:0:
445,219,2925,1,0,0:0:0:0:
439,247,2927,1,0,0:0:0:0:
429,273,2928,1,0,0:0:0:0:
415,297,2930,1,0,0:0:0:0:
398,319,2931,1,0,0:0:0:0:
378,339,2933,1,0,0:0:0:0:
355,355,2934,1,0,0:0:0:0:
331,368,2936,1,0,0:0:0:0:
304,377,2937,1,0,0:0:0:0:
276,382,2939,1,0,0:0:0:0:
248,383,2940,1,0,0:0:0:0:
221,380,2942,1,0,0:0:0:0:
194,373,2943,1,0,0:0:0:0:
168,362,2945,1,0,0:0:0:0:
144,347,2946,1,0,0:0:0:0:
122,330,2948,1,0,0:0:0:0:
104,309,2949,1,0,0:0:0:0:
88,285,2951,1,0,0:0:0:0:
76,260,2952,1,0,0:0:0:0:
68,233,2954,1,0,0:0:0:0:
64,205,2955,1,0,0:0:0:0:
64,177,2957,1,0,0:0:0:0:
68,150,2958,1,0,0:0:0:0:
76,123,2960,1,0,0:0:0:0:
88,98,2961,1,0,0:0:0:0:
104,74,2963,1,0,0:0:0:0:
122,53,2964,1,0,0:0:0:0:
144,36,2966,1,0,0:0:0:0:
168,21,2967,1,0,0:0:0:0:
194,10,2969,1,0,0:0:0:0:
221,3,2970,1,0,0:0:0:0:
248,0,2972,1,0,0:0:0:0:
276,1,2973,1,0,0:0:0:0:
304,6,2975,1,0,0:0:0:0:
331,15,2976,1,0,0:0:0:0:
355,28,2978,1,0,0:0:0:0:
378,44,2979,1,0,0:0:0:0:
398,64,2981,1,0,0:0:0:0:
415,86,2982,1,0,0:0:0:0:
429,110,2984,1,0,0:0:0:0:
439,136,2985,1,0,0:0:0:0:
445,164,2987,1,0,0:0:0:0:
447,192,2988,1,0,0:0:0:0:
445,219,2990,1,0,0:0:0:0:
439,247,2991,1,0,0:0:0:0:
429,273,2993,1,0,0:0:0:0:
415,297,2994,1,0,0:0:0:0:
398,319,2996,1,0,0:0:0:0:
378,339,2997,1,0,0:0:0:0:
355,355,2999,1,0,0:0:0:0:
331,368,3000,1,0,0:0:0:0:
304,377,3002,1,0,0:0:0:0:
276,382,3003,1,0,0:0:0:0:
248,383,3005,1,0,0:0:0:0:
221,380,3006,1,0,0:0:0:0:
194,373,3008,1,0,0:0:0:0:
168,362,3009,1,0,0:0:0:0:
144,347,3011,1,0,0:0:0:0:
122,330,3012,1,0,0:0:0:0:
104,309,3014,1,0,0:0:0:0:
88,285,3015,1,0,0:0:0:0:
76,260,3017,1,0,0:0:0:0:
68,233,3018,1,0,0:0:0:0:
64,205,3020,1,0,0:0:0:0:
64,177,3021,1,0,0:0:0:0:
68,150,3023,1,0,0:0:0:0:
76,123,3024,1,0,0:0:0:0:
88,98,3026,1,0,0:0:0:0:
104,74,3027,1,0,0:0:0:0:
122,53,3029,1,0,0:0:0:0:
144,36,3030,1,0,0:0:0:0:
168,21,3032,1,0,0:0:0:0:
194,10,3033,1,0,0:0:0:0:
221,3,3035,1,0,0:0:0:0:
248,0,3036,1,0,0:0:0:0:
276,1,3038,1,0,0:0:0:0:
304,6,3039,1,0,0:0:0:0:
331,15,3041,1,0,0:0:0:0:
355,28,3042,1,0,0:0:0:0:
378,44,3044,1,0,0:0:0:0:
398,64,3045,1,0,0:0:0:0:
415,86,3047,1,0,0:0:0:0:
429,110,3048,1,0,0:0:0:0:
439,136,3050,1,0,0:0:0:0:
445,164,3051,1,0,0:0:0:0:
447,192,3053,1,0,0:0:0:0:
445,219,3054,1,0,0:0:0:0:
439,247,3056,1,0,0:0:0:0:
429,273,3057,1,0,0:0:0:0:
415,297,3059,1,0,0:0:0:0:
398,319,3060,1,0,0:0:0:0:
378,339,3062,1,0,0:0:0:0:
355,355,3063,1,0,0:0:0:0:
331,368,3065,1,0,0:0:0:0:
304,377,3066,1,0,0:0:0:0:
276,382,3068,1,0,0:0:0:0:
248,383,3069,1,0,0:0:0:0:
221,380,3071,1,0,0:0:0:0:
194,373,3072,1,0,0:0:0:0:
168,362,3074,1,0,0:0:0:0:
144,347,3075,1,0,0:0:0:0:
122,330,3077,1,0,0:0:0:0:
104,309,3078,1,0,0:0:0:0:
88,285,3080,1,0,0:0:0:0:
76,260,3081,1,0,0:0:0:0:
68,233,3083,1,0,0:0:0:0:
64,205,3084,1,0,0:0:0:0:
64,177,3086,1,0,0:0:0:0:
68,150,3087,1,0,0:0:0:0:
76,123,3089,1,0,0:0:0:0:
88,98,3090,1,0,0:0:0:0:
104,74,3092,1,0,0:0:0:0:
122,53,3093,1,0,0:0:0:0:
144,36,3095,1,0,0:0:0:0:
168,21,3096,1,0,0:0:0:0:
194,10,3098,1,0,0:0:0:0:
221,3,3099,1,0,0:0:0:0:
248,0,3101,1,0,0:0:0:0:
276,1,3102,1,0,0:0:0:0:
304,6,3104,1,0,0:0:0:0:
331,15,3105,1,0,0:0:0:0:
355,28,3107,1,0,0:0:0:0:
378,44,3108,1,0,0:0:0:0:
398,64,3110,1,0,0:0:0:0:
415,86,3111,1,0,0:0:0:0:
429,110,3113,1,0,0:0:0:0:
439,136,3114,1,0,0:0:0:0:
445,164,3116,1,0,0:0:0:0:
447,192,3117,1,0,0:0:0:0:
445,219,3119,1,0,0:0:0:0:
439,247,3120,1,0,0:0:0:0:
429,273,3122,1,0,0:0:0:0:
415,297,3123,1,0,0:0:0:0:
398,319,3125,1,0,0:0:0:0:
378,339,3126,1,0,0:0:0:0:
355,355,3128,1,0,0:0:0:0:
331,368,3129,1,0,0:0:0:0:
304,377,3131,1,0,0:0:0:0:
276,382,3132,1,0,0:0:0:0:
248,383,3134,1,0,0:0:0:0:
221,380,3135,1,0,0:0:0:0:
194,373,3137,1,0,0:0:0:0:
168,362,3138,1,0,0:0:0:0:
144,347,3140,1,0,0:0:0:0:
122,330,3141,1,0,0:0:0:0:
104,309,3143,1,0,0:0:0:0:
88,285,3144,1,0,0:0:0:0:
76,260,3146,1,0,0:0:0:0:
68,233,3147,1,0,0:0:0:0:
64,205,3149,1,0,0:0:0:0:
64,177,3150,1,0,0:0:0:0:
68,150,3152,1,0,0:0:0:0:
76,123,3153,1,0,0:0:0:0:
88,98,3155,1,0,0:0:0:0:
104,74,3156,1,0,0:0:0:0:
122,53,3158,1,0,0:0:0:0:
144,36,3159,1,0,0:0:0:0:
168,21,3161,1,0,0:0:0:0:
194,10,3162,1,0,0:0:0:0:
221,3,3164,1,0,0:0:0:0:
248,0,3165,1,0,0:0:0:0:
276,1,3167,1,0,0:0:0:0:
304,6,3168,1,0,0:0:0:0:
331,15,3170,1,0,0:0:0:0:
355,28,3171,1,0,0:0:0:0:
378,44,3173,1,0,0:0:0:0:
398,64,3174,1,0,0:0:0:0:
415,86,3176,1,0,0:0:0:0:
429,110,3177,1,0,0:0:0:0:
439,136,3179,1,0,0:0:0:0:
445,164,3180,1,0,0:0:0:0:
447,192,3182,1,0,0:0:0:0:
445,219,3183,1,0,0:0:0:0:
439,247,3185,1,0,0:0:0:0:
429,273,3186,1,0,0:0:0:0:
415,297,3188,1,0,0:0:0:0:
398,319,3189,1,0,0:0:0:0:
378,339,3191,1,0,0:0:0:0:
355,355,3192,1,0,0:0:0:0:
331,368,3194,1,0,0:0:0:0:
304,377,3195,1,0,0:0:0:0:
276,382,3197,1,0,0:0:0:0:
248,383,3198,1,0,0:0:0:0:
221,380,3200,1,0,0:0:0:0:
194,373,3201,1,0,0:0:0:0:
168,362,3203,1,0,0:0:0:0:
144,347,3204,1,0,0:0:0:0:
122,330,3206,1,0,0:0:0:0:
104,309,3207,1,0,0:0:0:0:
88,285,3209,1,0,0:0:0:0:
76,260,3210,1,0,0:0:0:0:
68,233,3212,1,0,0:0:0:0:
64,205,3213,1,0,0:0:0:0:
64,177,3215,1,0,0:0:0:0:
68,150,3216,1,0,0:0:0:0:
76,123,3218,1,0,0:0:0:0:
88,98,3219,1,0,0:0:0:0:
104,74,3221,1,0,0:0:0:0:
122,53,3222,1,0,0:0:0:0:
144,36,3224,1,0,0:0:0:0:
168,21,3225,1,0,0:0:0:0:
194,10,3227,1,0,0:0:0:0:
221,3,3228,1,0,0:0:0:0:
248,0,3230,1,0,0:0:0:0:
276,1,3231,1,0,0:0:0:0:
304,6,3233,1,0,0:0:0:0:
331,15,3234,1,0,0:0:0:0:
355,28,3236,1,0,0:0:0:0:
378,44,3237,1,0,0:0:0:0:
398,64,3239,1,0,0:0:0:0:
415,86,3240,1,0,0:0:0:0:
429,110,3242,1,0,0:0:0:0:
439,136,3243,1,0,0:0:0:0:
445,164,3245,1,0,0:0:0:0:
447,192,3246,1,0,0:0:0:0:
224,115,3733,1,0,0:0:0:0:
224,115,3736,1,0,0:0:0:0:
224,115,3738,1,0,0:0:0:0:
224,115,3739,1,0,0:0:0:0:
224,115,3741,1,0,0:0:0:0:
202,136,4836,5,0,0:0:0:0:
199,187,4837,1,0,0:0:0:0:
197,218,4840,1,0,0:0:0:0:
195,233,4842,1,0,0:0:0:0:
182,242,4843,1,0,0:0:0:0:
135,219,4845,1,0,0:0:0:0:
115,177,4846,1,0,0:0:0:0:
114,144,4848,1,0,0:0:0:0:
168,101,4851,1,0,0:0:0:0:
227,118,4852,1,0,0:0:0:0:
247,155,4854,1,0,0:0:0:0:
202,245,4855,1,0,0:0:0:0:
