osu file format v14

[General]
AudioFilename: audio.mp3
AudioLeadIn: 0
PreviewTime: 21949
Countdown: 1
SampleSet: None
StackLeniency: 0.7
Mode: 0
LetterboxInBreaks: 0
WidescreenStoryboard: 0

[Editor]
Bookmarks: 8648,11219,17505,18362,27282,27532,27699,27949,28116,28366,28616,28782,29532,29949,30616,32282,32616,34616,37282,40282,40616,42616,48616,49282,50949
DistanceSpacing: 1
BeatDivisor: 8
GridSize: 4
TimelineZoom: 1

[Metadata]
Title:nyangosutagayattekita
TitleUnicode:にゃんごすたーがやってきた
Artist:
ArtistUnicode:
Creator:nobbele
Version:TOO SLOW
Source:
Tags:
BeatmapID:1808850
BeatmapSetID:865019

[Difficulty]
HPDrainRate:8
CircleSize:3.8
OverallDifficulty:10
ApproachRate:9.8
SliderMultiplier:3.59999990463257
SliderTickRate:1

[Events]
//Background and Video events
//Break Periods
2,13419,21470
//Storyboard Layer 0 (Background)
//Storyboard Layer 1 (Fail)
//Storyboard Layer 2 (Pass)
//Storyboard Layer 3 (Foreground)
//Storyboard Sound Samples

[TimingPoints]
4648,571.428571428571,4,1,0,100,1,0
16076,-100,4,1,0,100,0,0
21949.4628623188,666.666666666667,4,1,0,100,1,0
54199,666.666666666667,4,1,0,100,1,0

[HitObjects]
204,65,4648,6,0,P|317:99|376:166,1,179.999995231629
178,315,5219,1,0,0:0:0:0:
61,91,5505,1,0,0:0:0:0:
255,249,5790,2,0,P|332:192|351:100,1,179.999995231629
102,153,6362,1,0,0:0:0:0:
341,72,6648,2,0,P|419:162|424:231,1,179.999995231629
203,98,7219,5,0,0:0:0:0:
390,266,7505,1,0,0:0:0:0:
138,273,7790,1,0,0:0:0:0:
338,120,8076,1,0,0:0:0:0:
338,120,8362,1,0,0:0:0:0:
332,62,8648,2,0,P|402:136|398:224,1,179.999995231629
180,91,9219,1,0,0:0:0:0:
291,317,9505,1,0,0:0:0:0:
404,92,9790,1,0,0:0:0:0:
171,188,10076,1,0,0:0:0:0:
423,178,10362,1,0,0:0:0:0:
180,109,10648,1,0,0:0:0:0:
180,109,10933,1,0,0:0:0:0:
229,58,11219,2,0,B|121:116|98:188|99:188,1,179.999995231629
322,302,11790,1,0,0:0:0:0:
387,58,12076,1,0,0:0:0:0:
161,171,12362,1,0,0:0:0:0:
413,167,12648,1,0,0:0:0:0:
171,96,12933,1,0,0:0:0:0:
171,96,13219,1,0,0:0:0:0:
93,89,21949,5,0,0:0:0:0:
462,213,22616,1,0,0:0:0:0:
199,277,23116,1,0,0:0:0:0:
321,303,23282,1,0,0:0:0:0:
472,42,23949,1,0,0:0:0:0:
133,164,24616,5,0,0:0:0:0:
455,324,25282,1,0,0:0:0:0:
227,177,25782,1,0,0:0:0:0:
134,90,25949,1,0,0:0:0:0:
439,81,26616,1,0,0:0:0:0:
231,65,27282,5,0,0:0:0:0:
268,90,27366,1,0,0:0:0:0:
247,129,27449,1,0,0:0:0:0:
234,171,27532,1,0,0:0:0:0:
218,213,27616,1,0,0:0:0:0:
200,254,27699,1,0,0:0:0:0:
223,291,27782,1,0,0:0:0:0:
177,294,27866,1,0,0:0:0:0:
207,326,27949,1,0,0:0:0:0:
162,326,28032,1,0,0:0:0:0:
118,314,28116,1,0,0:0:0:0:
130,271,28199,1,0,0:0:0:0:
85,275,28282,1,0,0:0:0:0:
109,237,28366,1,0,0:0:0:0:
68,216,28449,1,0,0:0:0:0:
56,172,28532,1,0,0:0:0:0:
66,127,28616,1,0,0:0:0:0:
107,109,28699,1,0,0:0:0:0:
71,82,28782,1,0,0:0:0:0:
115,71,28866,1,0,0:0:0:0:
159,69,28949,1,0,0:0:0:0:
203,73,29032,1,0,0:0:0:0:
243,93,29116,1,0,0:0:0:0:
277,121,29199,1,0,0:0:0:0:
309,151,29282,1,0,0:0:0:0:
338,185,29366,1,0,0:0:0:0:
359,224,29449,1,0,0:0:0:0:
402,302,29532,2,0,L|377:348,1,44.9999988079071
266,273,29866,5,0,0:0:0:0:
221,255,29949,1,0,0:0:0:0:
181,234,30032,1,0,0:0:0:0:
145,205,30116,1,0,0:0:0:0:
122,166,30199,1,0,0:0:0:0:
106,123,30282,1,0,0:0:0:0:
121,80,30366,1,0,0:0:0:0:
159,57,30449,1,0,0:0:0:0:
203,55,30532,1,0,0:0:0:0:
244,72,30616,5,0,0:0:0:0:
211,103,30699,1,0,0:0:0:0:
185,139,30782,1,0,0:0:0:0:
160,177,30866,1,0,0:0:0:0:
151,221,30949,1,0,0:0:0:0:
154,265,31032,1,0,0:0:0:0:
176,304,31116,1,0,0:0:0:0:
209,333,31199,1,0,0:0:0:0:
253,340,31282,1,0,0:0:0:0:
298,342,31366,1,0,0:0:0:0:
340,328,31449,1,0,0:0:0:0:
371,295,31532,1,0,0:0:0:0:
394,256,31616,1,0,0:0:0:0:
405,212,31699,1,0,0:0:0:0:
398,167,31782,1,0,0:0:0:0:
371,130,31866,1,0,0:0:0:0:
332,107,31949,1,0,0:0:0:0:
288,94,32032,1,0,0:0:0:0:
243,85,32116,1,0,0:0:0:0:
202,90,32199,1,0,0:0:0:0:
157,95,32282,5,0,0:0:0:0:
116,73,32366,1,0,0:0:0:0:
108,117,32449,1,0,0:0:0:0:
70,92,32532,1,0,0:0:0:0:
72,137,32616,5,0,0:0:0:0:
81,180,32699,1,0,0:0:0:0:
109,214,32782,1,0,0:0:0:0:
144,242,32866,1,0,0:0:0:0:
182,264,32949,1,0,0:0:0:0:
222,282,33032,1,0,0:0:0:0:
265,295,33116,1,0,0:0:0:0:
309,296,33199,1,0,0:0:0:0:
351,282,33282,1,0,0:0:0:0:
389,258,33366,1,0,0:0:0:0:
415,222,33449,1,0,0:0:0:0:
430,179,33532,1,0,0:0:0:0:
439,134,33616,1,0,0:0:0:0:
422,92,33699,1,0,0:0:0:0:
384,67,33782,1,0,0:0:0:0:
339,59,33866,1,0,0:0:0:0:
294,56,33949,1,0,0:0:0:0:
249,60,34032,1,0,0:0:0:0:
205,73,34116,1,0,0:0:0:0:
169,100,34199,1,0,0:0:0:0:
146,138,34282,1,0,0:0:0:0:
128,179,34366,1,0,0:0:0:0:
120,223,34449,1,0,0:0:0:0:
128,267,34532,1,0,0:0:0:0:
161,297,34616,5,0,0:0:0:0:
203,311,34699,1,0,0:0:0:0:
245,297,34782,1,0,0:0:0:0:
238,252,34866,1,0,0:0:0:0:
193,258,34949,1,0,0:0:0:0:
161,297,35032,1,0,0:0:0:0:
199,320,35116,1,0,0:0:0:0:
243,315,35199,1,0,0:0:0:0:
273,282,35282,1,0,0:0:0:0:
285,238,35366,1,0,0:0:0:0:
285,193,35449,1,0,0:0:0:0:
255,158,35532,1,0,0:0:0:0:
215,135,35616,1,0,0:0:0:0:
172,119,35699,1,0,0:0:0:0:
127,111,35782,1,0,0:0:0:0:
84,125,35866,5,0,0:0:0:0:
116,155,35949,1,0,0:0:0:0:
158,169,36032,1,0,0:0:0:0:
202,175,36116,1,0,0:0:0:0:
245,164,36199,1,0,0:0:0:0:
283,141,36282,1,0,0:0:0:0:
316,109,36366,1,0,0:0:0:0:
356,90,36449,1,0,0:0:0:0:
400,96,36532,1,0,0:0:0:0:
439,118,36616,1,0,0:0:0:0:
464,155,36699,1,0,0:0:0:0:
471,199,36782,1,0,0:0:0:0:
461,243,36866,1,0,0:0:0:0:
432,277,36949,1,0,0:0:0:0:
392,297,37032,1,0,0:0:0:0:
346,302,37116,1,0,0:0:0:0:
302,289,37199,1,0,0:0:0:0:
263,265,37282,5,0,0:0:0:0:
220,249,37366,1,0,0:0:0:0:
237,207,37449,1,0,0:0:0:0:
193,196,37532,1,0,0:0:0:0:
212,155,37616,1,0,0:0:0:0:
168,143,37699,1,0,0:0:0:0:
172,98,37782,1,0,0:0:0:0:
130,116,37866,1,0,0:0:0:0:
106,77,37949,1,0,0:0:0:0:
101,121,38032,1,0,0:0:0:0:
56,114,38116,1,0,0:0:0:0:
87,146,38199,1,0,0:0:0:0:
43,158,38282,1,0,0:0:0:0:
79,184,38366,1,0,0:0:0:0:
37,201,38449,1,0,0:0:0:0:
76,222,38532,1,0,0:0:0:0:
36,245,38616,1,0,0:0:0:0:
80,250,38699,1,0,0:0:0:0:
57,288,38782,1,0,0:0:0:0:
101,282,38866,1,0,0:0:0:0:
104,326,38949,1,0,0:0:0:0:
140,300,39032,1,0,0:0:0:0:
168,334,39116,1,0,0:0:0:0:
182,291,39199,1,0,0:0:0:0:
216,320,39282,1,0,0:0:0:0:
214,274,39366,1,0,0:0:0:0:
258,273,39449,1,0,0:0:0:0:
228,239,39532,1,0,0:0:0:0:
267,216,39616,1,0,0:0:0:0:
230,190,39699,1,0,0:0:0:0:
264,161,39782,1,0,0:0:0:0:
212,150,39866,1,0,0:0:0:0:
242,117,39949,1,0,0:0:0:0:
197,112,40032,1,0,0:0:0:0:
211,72,40116,1,0,0:0:0:0:
170,90,40199,1,0,0:0:0:0:
166,45,40282,6,0,P|115:38|56:133,1,134.999996423721
53,136,40616,5,0,0:0:0:0:
70,200,40699,1,0,0:0:0:0:
119,154,40782,1,0,0:0:0:0:
123,221,40866,1,0,0:0:0:0:
175,178,40949,1,0,0:0:0:0:
187,244,41032,1,0,0:0:0:0:
234,194,41116,1,0,0:0:0:0:
257,257,41199,1,0,0:0:0:0:
293,200,41282,1,0,0:0:0:0:
356,176,41366,1,0,0:0:0:0:
299,139,41449,1,0,0:0:0:0:
365,127,41532,1,0,0:0:0:0:
312,84,41616,1,0,0:0:0:0:
378,73,41699,1,0,0:0:0:0:
318,41,41782,1,0,0:0:0:0:
385,32,41866,1,0,0:0:0:0:
318,41,41949,1,0,0:0:0:0:
378,73,42032,1,0,0:0:0:0:
312,84,42116,1,0,0:0:0:0:
365,127,42199,1,0,0:0:0:0:
299,139,42282,1,0,0:0:0:0:
356,176,42366,1,0,0:0:0:0:
289,185,42449,1,0,0:0:0:0:
341,226,42532,1,0,0:0:0:0:
273,237,42616,1,0,0:0:0:0:
318,286,42699,1,0,0:0:0:0:
265,327,42782,1,0,0:0:0:0:
196,325,42866,1,0,0:0:0:0:
140,286,42949,1,0,0:0:0:0:
106,227,43032,1,0,0:0:0:0:
89,161,43116,1,0,0:0:0:0:
107,96,43199,5,0,0:0:0:0:
162,58,43282,1,0,0:0:0:0:
163,126,43366,1,0,0:0:0:0:
213,81,43449,1,0,0:0:0:0:
215,148,43532,1,0,0:0:0:0:
270,107,43616,1,0,0:0:0:0:
266,174,43699,1,0,0:0:0:0:
321,135,43782,1,0,0:0:0:0:
305,201,43866,1,0,0:0:0:0:
371,192,43949,1,0,0:0:0:0:
376,259,44032,1,0,0:0:0:0:
313,231,44116,1,0,0:0:0:0:
339,292,44199,1,0,0:0:0:0:
288,247,44282,1,0,0:0:0:0:
285,314,44366,1,0,0:0:0:0:
259,251,44449,1,0,0:0:0:0:
223,307,44532,1,0,0:0:0:0:
229,239,44616,5,0,0:0:0:0:
166,264,44699,1,0,0:0:0:0:
229,239,44782,1,0,0:0:0:0:
172,201,44866,1,0,0:0:0:0:
229,239,44949,1,0,0:0:0:0:
227,171,45032,1,0,0:0:0:0:
229,239,45116,1,0,0:0:0:0:
290,210,45199,1,0,0:0:0:0:
229,239,45282,1,0,0:0:0:0:
283,279,45366,1,0,0:0:0:0:
229,239,45449,1,0,0:0:0:0:
223,307,45532,1,0,0:0:0:0:
229,239,45616,1,0,0:0:0:0:
166,264,45699,1,0,0:0:0:0:
229,239,45782,1,0,0:0:0:0:
172,201,45866,1,0,0:0:0:0:
102,122,45949,5,0,0:0:0:0:
142,68,46032,1,0,0:0:0:0:
160,133,46116,1,0,0:0:0:0:
204,82,46199,1,0,0:0:0:0:
221,147,46282,1,0,0:0:0:0:
271,101,46366,1,0,0:0:0:0:
257,166,46449,1,0,0:0:0:0:
321,147,46532,1,0,0:0:0:0:
283,203,46616,1,0,0:0:0:0:
347,223,46699,1,0,0:0:0:0:
281,239,46782,1,0,0:0:0:0:
320,294,46866,1,0,0:0:0:0:
264,256,46949,1,0,0:0:0:0:
264,323,47032,1,0,0:0:0:0:
240,259,47116,1,0,0:0:0:0:
200,313,47199,1,0,0:0:0:0:
214,247,47282,1,0,0:0:0:0:
152,275,47366,1,0,0:0:0:0:
197,225,47449,1,0,0:0:0:0:
130,213,47532,1,0,0:0:0:0:
195,195,47616,1,0,0:0:0:0:
138,157,47699,1,0,0:0:0:0:
203,171,47782,1,0,0:0:0:0:
154,123,47866,1,0,0:0:0:0:
220,135,47949,1,0,0:0:0:0:
185,77,48032,1,0,0:0:0:0:
239,118,48116,1,0,0:0:0:0:
253,52,48199,1,0,0:0:0:0:
271,116,48282,1,0,0:0:0:0:
315,64,48366,1,0,0:0:0:0:
301,129,48449,1,0,0:0:0:0:
363,105,48532,1,0,0:0:0:0:
260,203,48616,5,0,0:0:0:0:
228,262,48699,1,0,0:0:0:0:
229,194,48782,1,0,0:0:0:0:
196,254,48866,1,0,0:0:0:0:
207,187,48949,1,0,0:0:0:0:
164,239,49032,1,0,0:0:0:0:
185,174,49116,1,0,0:0:0:0:
138,222,49199,1,0,0:0:0:0:
211,45,49282,5,0,0:0:0:0:
251,99,49366,1,0,0:0:0:0:
279,38,49449,1,0,0:0:0:0:
301,101,49532,1,0,0:0:0:0:
337,43,49616,1,0,0:0:0:0:
354,107,49699,1,0,0:0:0:0:
398,56,49782,1,0,0:0:0:0:
411,122,49866,1,0,0:0:0:0:
458,73,49949,1,0,0:0:0:0:
471,138,50032,5,0,0:0:0:0:
432,193,50116,1,0,0:0:0:0:
364,188,50199,1,0,0:0:0:0:
323,134,50282,1,0,0:0:0:0:
343,69,50366,1,0,0:0:0:0:
398,56,50449,1,0,0:0:0:0:
458,73,50532,1,0,0:0:0:0:
471,138,50616,1,0,0:0:0:0:
432,193,50699,1,0,0:0:0:0:
364,188,50782,1,0,0:0:0:0:
323,134,50866,1,0,0:0:0:0:
343,69,50949,2,0,L|442:47,1,89.9999976158142
202,196,51282,5,0,0:0:0:0:
187,106,54199,5,0,0:0:0:0:
407,220,54782,1,0,0:0:0:0:
98,215,55365,1,0,0:0:0:0:
292,85,55907,1,0,0:0:0:0:
112,180,56490,5,0,0:0:0:0:
342,278,57074,1,0,0:0:0:0:
115,72,57615,1,0,0:0:0:0:
374,126,58157,1,0,0:0:0:0:
141,245,58740,5,0,0:0:0:0:
411,274,59324,1,0,0:0:0:0:
