osu file format v14

[General]
AudioFilename: audio.mp3
AudioLeadIn: 0
PreviewTime: -1
Countdown: 0
SampleSet: Normal
StackLeniency: 0.7
Mode: 0
LetterboxInBreaks: 0
WidescreenStoryboard: 0

[Editor]
Bookmarks: 44,16947,20697,50582,57736,67197,80409
DistanceSpacing: 0.8
BeatDivisor: 8
GridSize: 8
TimelineZoom: 1.1

[Metadata]
Title:Robocop 3 NES Theme remix
TitleUnicode:Robocop 3 NES Theme remix
Artist:
ArtistUnicode:
Creator:indubitablement
Version:Insane
Source:Robocop
Tags:Robocop
BeatmapID:1135524
BeatmapSetID:536155

[Difficulty]
HPDrainRate:6
CircleSize:4
OverallDifficulty:7
ApproachRate:9
SliderMultiplier:2.49999990463257
SliderTickRate:1

[Events]
//Background and Video events
0,0,"33716989_m.jpg",0,0
//Break Periods
2,39533,42136
2,43282,45770
2,71032,79809
//Storyboard Layer 0 (Background)
//Storyboard Layer 1 (Fail)
//Storyboard Layer 2 (Pass)
//Storyboard Layer 3 (Foreground)
//Storyboard Sound Samples

[TimingPoints]
88890.2053052326,461.538461538462,3,1,0,50,1,0

[HitObjects]
256,192,16947,12,0,20467,0:0:0:0:
256,192,20697,5,0,0:0:0:0:
208,176,20813,1,0,0:0:0:0:
240,144,20928,1,0,0:0:0:0:
288,64,21159,1,0,0:0:0:0:
144,112,21505,1,0,0:0:0:0:
272,192,21851,1,0,0:0:0:0:
256,64,22197,1,2,0:0:0:0:
320,224,22601,5,0,0:0:0:0:
368,240,22717,1,0,0:0:0:0:
355,191,22832,1,0,0:0:0:0:
352,96,23063,1,0,0:0:0:0:
208,96,23409,1,0,0:0:0:0:
288,224,23755,1,0,0:0:0:0:
368,96,24101,2,0,L|304:112,1,62.4999976158143
256,192,24447,5,0,0:0:0:0:
208,176,24563,1,0,0:0:0:0:
244,142,24678,1,0,0:0:0:0:
302,60,24909,1,0,0:0:0:0:
158,102,25255,1,0,0:0:0:0:
271,200,25601,1,0,0:0:0:0:
254,50,25947,1,2,0:0:0:0:
304,217,26351,5,0,0:0:0:0:
350,235,26467,1,0,0:0:0:0:
340,186,26582,1,0,0:0:0:0:
360,88,26813,1,0,0:0:0:0:
210,81,27159,1,0,0:0:0:0:
277,214,27505,1,0,0:0:0:0:
130,245,27851,1,2,0:0:0:0:
297,149,28197,5,0,0:0:0:0:
247,158,28313,1,0,0:0:0:0:
264,111,28428,1,0,0:0:0:0:
359,80,28659,1,0,0:0:0:0:
435,208,29005,1,0,0:0:0:0:
285,216,29351,1,0,0:0:0:0:
318,70,29697,1,2,0:0:0:0:
333,185,30043,5,0,0:0:0:0:
369,219,30159,1,0,0:0:0:0:
404,253,30274,1,0,0:0:0:0:
378,156,30505,1,0,0:0:0:0:
278,43,30851,1,0,0:0:0:0:
194,167,31197,1,0,0:0:0:0:
103,287,31544,1,2,0:0:0:0:
107,137,31890,5,0,0:0:0:0:
151,161,32006,1,0,0:0:0:0:
193,187,32121,1,0,0:0:0:0:
290,165,32352,1,0,0:0:0:0:
162,86,32698,1,0,0:0:0:0:
275,183,33044,1,0,0:0:0:0:
141,114,33391,1,2,0:0:0:0:
243,222,33736,5,0,0:0:0:0:
292,232,33852,1,0,0:0:0:0:
341,229,33967,1,0,0:0:0:0:
243,222,34198,1,0,0:0:0:0:
110,152,34544,1,0,0:0:0:0:
256,183,34890,1,0,0:0:0:0:
145,125,35178,1,2,0:0:0:0:
298,253,35640,5,0,0:0:0:0:
340,226,35756,1,0,0:0:0:0:
361,181,35871,1,0,0:0:0:0:
273,131,36102,1,0,0:0:0:0:
133,74,36448,1,0,0:0:0:0:
280,102,36794,1,0,0:0:0:0:
140,44,37141,1,2,0:0:0:0:
232,161,37486,5,0,0:0:0:0:
196,196,37602,1,0,0:0:0:0:
151,218,37717,1,0,0:0:0:0:
190,309,37948,1,0,0:0:0:0:
326,247,38294,1,0,0:0:0:0:
176,263,38640,1,0,0:0:0:0:
312,200,38987,1,2,0:0:0:0:
175,138,39333,1,2,0:0:0:0:
184,136,42736,5,2,0:0:0:0:
336,152,43082,1,2,0:0:0:0:
144,128,46370,5,0,0:0:0:0:
352,128,46832,1,0,0:0:0:0:
303,114,46947,1,0,0:0:0:0:
253,105,47063,1,0,0:0:0:0:
153,93,47294,1,2,0:0:0:0:
153,93,47640,1,2,0:0:0:0:
153,93,47986,1,2,0:0:0:0:
153,93,48332,1,2,0:0:0:0:
352,128,48678,5,0,0:0:0:0:
303,114,48793,1,0,0:0:0:0:
253,105,48909,1,0,0:0:0:0:
153,93,49140,1,2,0:0:0:0:
153,93,49486,1,2,0:0:0:0:
153,93,49832,5,2,0:0:0:0:
153,93,50178,1,2,0:0:0:0:
312,288,50582,2,0,L|192:224,1,124.999995231629
304,248,51044,2,0,L|200:168,1,124.999995231629
288,208,51505,2,0,L|184:128,1,124.999995231629
272,168,51967,2,0,L|176:88,1,124.999995231629
93,144,52428,5,0,0:0:0:0:
133,235,52659,1,0,0:0:0:0:
218,286,52890,1,0,0:0:0:0:
308,244,53120,1,0,0:0:0:0:
348,152,53351,1,0,0:0:0:0:
294,67,53582,1,0,0:0:0:0:
196,44,53813,1,0,0:0:0:0:
100,75,54044,1,0,0:0:0:0:
59,165,54274,6,0,P|125:175|187:156,1,124.999995231629
180,159,54736,1,0,0:0:0:0:
374,112,54967,1,0,0:0:0:0:
374,112,55197,1,0,0:0:0:0:
282,289,55428,1,0,0:0:0:0:
282,289,55659,1,0,0:0:0:0:
109,188,55890,1,0,0:0:0:0:
109,188,56120,1,0,0:0:0:0:
171,109,56351,6,0,L|238:224,1,124.999995231629
146,167,56813,2,0,L|205:279,1,124.999995231629
119,224,57274,2,0,L|148:354,1,124.999995231629
138,245,57736,2,0,P|109:258|192:310,1,218.74999165535
261,226,58486,5,0,0:0:0:0:
355,192,58717,1,0,0:0:0:0:
355,192,58832,1,0,0:0:0:0:
396,164,58947,1,0,0:0:0:0:
84,300,59178,1,0,0:0:0:0:
453,78,59524,1,0,0:0:0:0:
315,136,59870,5,0,0:0:0:0:
220,168,60101,1,0,0:0:0:0:
220,168,60216,1,0,0:0:0:0:
264,145,60331,1,0,0:0:0:0:
96,302,60678,1,0,0:0:0:0:
438,66,61024,1,0,0:0:0:0:
90,310,61486,1,0,0:0:0:0:
114,101,61774,5,0,0:0:0:0:
105,150,61890,1,0,0:0:0:0:
89,197,62005,1,0,0:0:0:0:
61,293,62236,2,0,P|197:297|236:249,1,187.499992847443
117,163,62928,1,0,0:0:0:0:
397,268,63620,5,0,0:0:0:0:
346,271,63736,1,0,0:0:0:0:
296,270,63851,1,0,0:0:0:0:
111,93,64082,1,0,0:0:0:0:
258,66,64428,2,0,P|381:69|402:166,1,218.74999165535
158,264,65467,2,0,P|248:226|305:154,1,187.499992847443
91,110,66332,1,0,0:0:0:0:
398,290,66678,1,0,0:0:0:0:
166,46,67024,1,0,0:0:0:0:
198,113,67255,5,0,0:0:0:0:
355,192,67486,1,0,0:0:0:0:
355,192,67601,1,0,0:0:0:0:
396,164,67716,1,0,0:0:0:0:
306,343,68178,1,0,0:0:0:0:
176,268,68524,1,0,0:0:0:0:
163,118,68870,1,0,0:0:0:0:
198,113,69217,5,0,0:0:0:0:
355,192,69448,1,0,0:0:0:0:
355,192,69563,1,0,0:0:0:0:
396,164,69678,1,0,0:0:0:0:
306,343,70140,1,0,0:0:0:0:
176,268,70486,1,0,0:0:0:0:
163,118,70832,1,0,0:0:0:0:
368,240,80409,5,0,0:0:0:0:
344,120,80697,1,0,0:0:0:0:
248,128,80928,1,0,0:0:0:0:
176,200,81159,2,0,L|448:256,1,249.999990463257
152,224,81851,1,0,0:0:0:0:
248,248,82082,1,0,0:0:0:0:
88,128,82544,1,0,0:0:0:0:
248,248,83005,2,0,L|368:192,1,124.999995231629
240,256,83467,1,0,0:0:0:0:
336,264,83697,1,0,0:0:0:0:
304,152,83928,1,0,0:0:0:0:
208,160,84159,1,0,0:0:0:0:
128,224,84390,1,0,0:0:0:0:
224,208,84620,1,0,0:0:0:0:
392,96,85082,1,0,0:0:0:0:
336,288,85544,1,0,0:0:0:0:
240,280,85774,2,0,B|-32:16|384:32|568:48,1,624.999976158143
496,128,87159,1,0,0:0:0:0:
408,168,87390,1,0,0:0:0:0:
312,200,87620,1,0,0:0:0:0:
216,192,87851,1,0,0:0:0:0:
32,112,88313,1,0,0:0:0:0:
120,160,88544,1,0,0:0:0:0:
280,48,89005,1,0,0:0:0:0:
328,136,89236,1,0,0:0:0:0:
272,216,89467,1,0,0:0:0:0:
176,184,89697,2,0,P|248:72|352:136,1,281.249989271164
352,208,90447,1,0,0:0:0:0:
160,256,90909,1,0,0:0:0:0:
160,152,91140,1,0,0:0:0:0:
256,120,91370,1,0,0:0:0:0:
344,80,91601,1,0,0:0:0:0:
384,168,91832,1,0,0:0:0:0:
384,272,92063,2,0,P|256:296|144:240,1,249.999990463257
208,168,92755,1,0,0:0:0:0:
296,128,92986,1,0,0:0:0:0:
392,88,93217,1,0,0:0:0:0:
296,64,93447,1,0,0:0:0:0:
200,56,93678,1,0,0:0:0:0:
72,64,93967,1,0,0:0:0:0:
