osu file format v14

[General]
AudioFilename: audio.mp3
AudioLeadIn: 0
PreviewTime: -1
Countdown: 1
SampleSet: Soft
StackLeniency: 0.7
Mode: 3
LetterboxInBreaks: 0
SkinPreference:Default
SpecialStyle: 0
WidescreenStoryboard: 1

[Editor]
DistanceSpacing: 1
BeatDivisor: 3
GridSize: 4
TimelineZoom: 1

[Metadata]
Title:Dont let you down
TitleUnicode:Don’t let you down
Artist:
ArtistUnicode:東方ボーカル
Creator:dannyand8
Version:Normal
Source:東方ボーカル
Tags:東方ボーカルDon’t let you down
BeatmapID:1393695
BeatmapSetID:629321

[Difficulty]
HPDrainRate:5
CircleSize:4
OverallDifficulty:5
ApproachRate:5
SliderMultiplier:1.4
SliderTickRate:1

[Events]
//Background and Video events
0,0,"maxresdefault.jpg",0,0
//Break Periods
//Storyboard Layer 0 (Background)
//Storyboard Layer 1 (Fail)
//Storyboard Layer 2 (Pass)
//Storyboard Layer 3 (Foreground)
//Storyboard Sound Samples

[TimingPoints]
1230.36363636364,340.909090909091,4,2,0,100,1,0

[HitObjects]
64,192,1344,5,0,0:0:0:0:
320,192,1344,128,0,1798:0:0:0:0:
192,192,1798,1,0,0:0:0:0:
64,192,1798,128,0,2253:0:0:0:0:
320,192,2253,1,0,0:0:0:0:
448,192,2253,128,0,2707:0:0:0:0:
192,192,2707,1,0,0:0:0:0:
64,192,2821,1,0,0:0:0:0:
448,192,3105,1,0,0:0:0:0:
320,192,3275,1,0,0:0:0:0:
192,192,3275,128,0,3616:0:0:0:0:
64,192,3616,1,0,0:0:0:0:
192,192,3787,1,0,0:0:0:0:
320,192,3957,128,0,4128:0:0:0:0:
448,192,4128,128,0,4298:0:0:0:0:
64,192,4469,1,0,0:0:0:0:
320,192,4639,1,0,0:0:0:0:
192,192,4866,1,0,0:0:0:0:
320,192,4980,1,0,0:0:0:0:
448,192,5094,1,0,0:0:0:0:
192,192,5321,128,0,5548:0:0:0:0:
320,192,5548,128,0,5775:0:0:0:0:
192,192,5775,128,0,6003:0:0:0:0:
320,192,6003,128,0,6230:0:0:0:0:
64,192,6230,128,0,6344:0:0:0:0:
192,192,6344,128,0,6457:0:0:0:0:
320,192,6457,128,0,6571:0:0:0:0:
448,192,6571,128,0,6798:0:0:0:0:
320,192,6798,128,0,7025:0:0:0:0:
192,192,7025,128,0,7253:0:0:0:0:
64,192,7253,128,0,7480:0:0:0:0:
448,192,7480,1,0,0:0:0:0:
320,192,7594,1,0,0:0:0:0:
192,192,7707,1,0,0:0:0:0:
448,192,7821,1,0,0:0:0:0:
64,192,8048,1,0,0:0:0:0:
320,192,8048,1,0,0:0:0:0:
192,192,8162,1,0,0:0:0:0:
448,192,8389,1,0,0:0:0:0:
192,192,8389,1,0,0:0:0:0:
64,192,8730,1,0,0:0:0:0:
320,192,8730,1,0,0:0:0:0:
448,192,9298,1,0,0:0:0:0:
192,192,9298,1,0,0:0:0:0:
64,192,9753,1,0,0:0:0:0:
192,192,9866,1,0,0:0:0:0:
64,192,9980,1,0,0:0:0:0:
448,192,10207,1,0,0:0:0:0:
320,192,10321,1,0,0:0:0:0:
448,192,10434,1,0,0:0:0:0:
64,192,10662,1,0,0:0:0:0:
320,192,10662,1,0,0:0:0:0:
320,192,11003,1,0,0:0:0:0:
192,192,11003,1,0,0:0:0:0:
64,192,11571,1,0,0:0:0:0:
448,192,11571,1,0,0:0:0:0:
192,192,12025,1,0,0:0:0:0:
320,192,12025,1,0,0:0:0:0:
320,192,12480,1,0,0:0:0:0:
448,192,12594,1,0,0:0:0:0:
192,192,12934,1,0,0:0:0:0:
64,192,13048,1,0,0:0:0:0:
448,192,13275,1,0,0:0:0:0:
320,192,13389,1,0,0:0:0:0:
192,192,13730,1,0,0:0:0:0:
64,192,13844,1,0,0:0:0:0:
320,192,14071,1,0,0:0:0:0:
448,192,14184,1,0,0:0:0:0:
192,192,14412,1,0,0:0:0:0:
64,192,14525,1,0,0:0:0:0:
320,192,14753,1,0,0:0:0:0:
448,192,14866,1,0,0:0:0:0:
320,192,14980,1,0,0:0:0:0:
192,192,15094,1,0,0:0:0:0:
64,192,15207,1,0,0:0:0:0:
192,192,15321,1,0,0:0:0:0:
64,192,15548,1,8,0:0:0:0:
448,192,15548,1,0,0:0:0:0:
320,192,15548,1,0,0:0:0:0:
320,192,16003,1,0,0:0:0:0:
192,192,16003,1,8,0:0:0:0:
192,192,16457,1,8,0:0:0:0:
320,192,16457,1,0,0:0:0:0:
448,192,16457,1,0,0:0:0:0:
448,192,16798,1,0,0:0:0:0:
192,192,16798,1,8,0:0:0:0:
64,192,16798,1,0,0:0:0:0:
192,192,17366,1,0,0:0:0:0:
64,192,17366,1,0,0:0:0:0:
320,192,17366,1,8,0:0:0:0:
448,192,17821,1,8,0:0:0:0:
320,192,17821,1,0,0:0:0:0:
192,192,17821,1,0,0:0:0:0:
64,192,18162,1,0,0:0:0:0:
192,192,18162,1,0,0:0:0:0:
448,192,18162,1,8,0:0:0:0:
448,192,18616,1,0,0:0:0:0:
320,192,18616,1,0,0:0:0:0:
192,192,18616,1,8,0:0:0:0:
320,192,19071,1,0,0:0:0:0:
64,192,19071,1,0,0:0:0:0:
448,192,19071,1,8,0:0:0:0:
448,192,19525,1,0,0:0:0:0:
192,192,19525,1,8,0:0:0:0:
320,192,19525,1,0,0:0:0:0:
64,192,19980,1,0,0:0:0:0:
192,192,19980,1,8,0:0:0:0:
448,192,19980,1,0,0:0:0:0:
320,192,20434,1,8,0:0:0:0:
64,192,20434,1,0,0:0:0:0:
192,192,20434,1,0,0:0:0:0:
320,192,20889,1,8,0:0:0:0:
192,192,20889,1,0,0:0:0:0:
64,192,20889,1,0,0:0:0:0:
448,192,21344,1,8,0:0:0:0:
192,192,21344,1,0,0:0:0:0:
320,192,21344,1,0,0:0:0:0:
64,192,21798,1,0,0:0:0:0:
192,192,21798,1,0,0:0:0:0:
448,192,21798,1,8,0:0:0:0:
448,192,22253,1,0,0:0:0:0:
320,192,22253,1,0,0:0:0:0:
192,192,22253,1,8,0:0:0:0:
192,192,22594,1,8,0:0:0:0:
448,192,22594,1,0,0:0:0:0:
64,192,22594,1,0,0:0:0:0:
192,192,23048,1,8,0:0:0:0:
448,192,23048,1,0,0:0:0:0:
192,192,23503,1,8,0:0:0:0:
448,192,23503,1,0,0:0:0:0:
320,192,23503,1,0,0:0:0:0:
320,192,23844,1,0,0:0:0:0:
64,192,23957,1,0,0:0:0:0:
192,192,23957,1,8,0:0:0:0:
448,192,23957,1,0,0:0:0:0:
64,192,24184,1,0,0:0:0:0:
192,192,24298,1,0,0:0:0:0:
320,192,24298,1,0,0:0:0:0:
448,192,24525,1,0,0:0:0:0:
192,192,24525,1,0,0:0:0:0:
320,192,24525,1,0,0:0:0:0:
64,192,24866,1,0,0:0:0:0:
320,192,24866,1,8,0:0:0:0:
448,192,25321,1,0,0:0:0:0:
192,192,25321,1,8,0:0:0:0:
64,192,25321,1,0,0:0:0:0:
448,192,25662,1,0,0:0:0:0:
192,192,25775,1,0,0:0:0:0:
320,192,25775,1,8,0:0:0:0:
64,192,25775,1,0,0:0:0:0:
448,192,26230,1,0,0:0:0:0:
192,192,26230,1,0,0:0:0:0:
64,192,26344,1,0,0:0:0:0:
192,192,26457,1,0,0:0:0:0:
320,192,26571,1,0,0:0:0:0:
448,192,26684,1,0,0:0:0:0:
320,192,26798,1,0,0:0:0:0:
192,192,26912,1,0,0:0:0:0:
64,192,27025,1,0,0:0:0:0:
192,192,27139,1,0,0:0:0:0:
320,192,27253,1,0,0:0:0:0:
448,192,27366,1,0,0:0:0:0:
320,192,27480,1,0,0:0:0:0:
192,192,27594,1,0,0:0:0:0:
64,192,27707,1,0,0:0:0:0:
192,192,27821,1,0,0:0:0:0:
320,192,27934,1,0,0:0:0:0:
448,192,28048,1,0,0:0:0:0:
320,192,28162,1,0,0:0:0:0:
192,192,28275,1,0,0:0:0:0:
64,192,28389,1,0,0:0:0:0:
192,192,28503,1,0,0:0:0:0:
320,192,28616,1,0,0:0:0:0:
448,192,28730,1,0,0:0:0:0:
320,192,28844,1,0,0:0:0:0:
192,192,28957,1,0,0:0:0:0:
64,192,29071,1,0,0:0:0:0:
192,192,29184,1,0,0:0:0:0:
64,192,29298,1,0,0:0:0:0:
448,192,29298,1,0,0:0:0:0:
448,192,29753,1,0,0:0:0:0:
192,192,29753,1,0,0:0:0:0:
192,192,30207,1,0,0:0:0:0:
320,192,30207,1,0,0:0:0:0:
64,192,30662,1,0,0:0:0:0:
320,192,30662,1,0,0:0:0:0:
192,192,30775,1,0,0:0:0:0:
448,192,31003,1,0,0:0:0:0:
192,192,31003,1,0,0:0:0:0:
448,192,31344,1,0,0:0:0:0:
192,192,31344,1,0,0:0:0:0:
64,192,31457,1,0,0:0:0:0:
192,192,31457,1,0,0:0:0:0:
320,192,31684,1,0,0:0:0:0:
448,192,31684,1,0,0:0:0:0:
64,192,32025,1,0,0:0:0:0:
192,192,32025,1,0,0:0:0:0:
448,192,32253,1,0,0:0:0:0:
192,192,32480,1,0,0:0:0:0:
448,192,32707,1,0,0:0:0:0:
192,192,33048,1,0,0:0:0:0:
448,192,33048,128,0,33503:0:0:0:0:
320,192,33503,1,0,0:0:0:0:
192,192,33730,1,0,0:0:0:0:
320,192,33730,128,0,34184:0:0:0:0:
448,192,34184,1,0,0:0:0:0:
192,192,34639,1,0,0:0:0:0:
448,192,34866,1,0,0:0:0:0:
64,192,35094,1,0,0:0:0:0:
320,192,35321,1,0,0:0:0:0:
448,192,35321,128,0,35662:0:0:0:0:
320,192,35662,1,0,0:0:0:0:
64,192,36003,1,0,0:0:0:0:
192,192,36003,128,0,36344:0:0:0:0:
448,192,36344,1,0,0:0:0:0:
320,192,36344,128,0,36798:0:0:0:0:
64,192,36798,1,0,0:0:0:0:
448,192,36798,128,0,37707:0:0:0:0:
320,192,37366,1,0,0:0:0:0:
64,192,37366,1,0,0:0:0:0:
192,192,37707,1,0,0:0:0:0:
192,192,38048,1,0,0:0:0:0:
320,192,38162,1,0,0:0:0:0:
448,192,38389,1,0,0:0:0:0:
64,192,38730,1,0,0:0:0:0:
192,192,39184,1,0,0:0:0:0:
320,192,39639,1,0,0:0:0:0:
64,192,39639,128,0,39866:0:0:0:0:
448,192,39866,1,0,0:0:0:0:
192,192,39866,128,0,40207:0:0:0:0:
320,192,40207,1,0,0:0:0:0:
448,192,40207,128,0,41116:0:0:0:0:
64,192,40889,1,0,0:0:0:0:
320,192,40889,1,0,0:0:0:0:
64,192,41344,1,0,0:0:0:0:
192,192,41457,1,0,0:0:0:0:
448,192,41571,1,0,0:0:0:0:
320,192,41684,1,0,0:0:0:0:
320,192,41912,1,0,0:0:0:0:
448,192,41912,1,0,0:0:0:0:
64,192,41912,1,0,0:0:0:0:
64,192,42366,1,0,0:0:0:0:
320,192,42366,1,0,0:0:0:0:
192,192,42366,1,0,0:0:0:0:
320,192,42821,1,0,0:0:0:0:
64,192,42821,1,0,0:0:0:0:
448,192,42821,1,0,0:0:0:0:
64,192,43844,1,0,0:0:0:0:
192,192,43957,1,0,0:0:0:0:
320,192,44071,1,0,0:0:0:0:
64,192,44071,1,0,0:0:0:0:
192,192,44412,1,0,0:0:0:0:
320,192,44412,1,0,0:0:0:0:
64,192,44866,1,0,0:0:0:0:
192,192,44866,1,0,0:0:0:0:
448,192,44866,1,0,0:0:0:0:
320,192,45207,1,0,0:0:0:0:
192,192,45207,1,0,0:0:0:0:
64,192,45207,1,0,0:0:0:0:
192,192,45548,1,0,0:0:0:0:
448,192,45548,1,0,0:0:0:0:
320,192,45548,128,0,46003:0:0:0:0:
192,192,46003,1,0,0:0:0:0:
448,192,46230,1,0,0:0:0:0:
320,192,46230,1,0,0:0:0:0:
64,192,46457,1,0,0:0:0:0:
192,192,46571,1,0,0:0:0:0:
320,192,46571,128,0,46912:0:0:0:0:
448,192,46912,1,0,0:0:0:0:
64,192,47253,1,0,0:0:0:0:
192,192,47253,128,0,47707:0:0:0:0:
320,192,47707,1,0,0:0:0:0:
64,192,47934,1,0,0:0:0:0:
320,192,48162,1,0,0:0:0:0:
64,192,48389,1,0,0:0:0:0:
448,192,48389,128,0,48730:0:0:0:0:
320,192,48730,1,0,0:0:0:0:
448,192,49071,1,0,0:0:0:0:
320,192,49071,128,0,49298:0:0:0:0:
192,192,49298,1,0,0:0:0:0:
64,192,49298,128,0,49753:0:0:0:0:
448,192,49753,1,0,0:0:0:0:
320,192,50207,1,0,0:0:0:0:
64,192,50207,1,0,0:0:0:0:
192,192,50207,1,0,0:0:0:0:
448,192,50548,1,0,0:0:0:0:
320,192,50548,1,0,0:0:0:0:
64,192,51003,1,0,0:0:0:0:
192,192,51003,128,0,52025:0:0:0:0:
448,192,52025,1,0,0:0:0:0:
64,192,52253,1,0,0:0:0:0:
448,192,52366,1,0,0:0:0:0:
192,192,52594,1,0,0:0:0:0:
320,192,52594,128,0,53048:0:0:0:0:
192,192,53048,1,0,0:0:0:0:
64,192,53048,128,0,53503:0:0:0:0:
448,192,53503,1,0,0:0:0:0:
192,192,53957,1,0,0:0:0:0:
64,192,54298,1,0,0:0:0:0:
192,192,54298,128,0,54525:0:0:0:0:
448,192,54525,1,0,0:0:0:0:
64,192,54866,1,0,0:0:0:0:
192,192,54866,128,0,55321:0:0:0:0:
448,192,55321,128,0,55775:0:0:0:0:
192,192,55775,1,0,0:0:0:0:
448,192,56003,1,0,0:0:0:0:
64,192,56230,1,0,0:0:0:0:
192,192,56230,128,0,56684:0:0:0:0:
320,192,56684,128,0,57594:0:0:0:0:
64,192,57139,128,0,57594:0:0:0:0:
448,192,58275,1,4,0:0:0:0:
192,192,58275,1,0,0:0:0:0:
64,192,58616,1,0,0:0:0:0:
192,192,58616,1,0,0:0:0:0:
320,192,58616,1,4,0:0:0:0:
448,192,59071,1,0,0:0:0:0:
320,192,59071,1,4,0:0:0:0:
64,192,59071,1,0,0:0:0:0:
192,192,59525,1,4,0:0:0:0:
320,192,59525,1,0,0:0:0:0:
448,192,59525,1,0,0:0:0:0:
64,192,59980,1,0,0:0:0:0:
192,192,59980,1,4,0:0:0:0:
448,192,59980,1,0,0:0:0:0:
64,192,60434,1,0,0:0:0:0:
320,192,60434,1,4,0:0:0:0:
448,192,60434,1,0,0:0:0:0:
320,192,60889,1,4,0:0:0:0:
192,192,60889,1,0,0:0:0:0:
448,192,60889,1,0,0:0:0:0:
192,192,61344,1,4,0:0:0:0:
64,192,61344,1,0,0:0:0:0:
320,192,61798,1,0,0:0:0:0:
64,192,61798,128,0,63616:0:0:0:0:
320,192,63616,128,0,64525:0:0:0:0:
192,192,64866,1,0,0:0:0:0:
448,192,65094,1,0,0:0:0:0:
320,192,65207,1,0,0:0:0:0:
64,192,65321,1,0,0:0:0:0:
448,192,65321,1,0,0:0:0:0:
192,192,65662,1,8,0:0:0:0:
448,192,65662,1,0,0:0:0:0:
320,192,65662,1,0,0:0:0:0:
64,192,66230,1,0,0:0:0:0:
192,192,66230,1,8,0:0:0:0:
448,192,66230,1,0,0:0:0:0:
192,192,66571,1,0,0:0:0:0:
320,192,66571,1,8,0:0:0:0:
448,192,66571,1,0,0:0:0:0:
64,192,67025,1,0,0:0:0:0:
320,192,67025,1,8,0:0:0:0:
448,192,67025,1,0,0:0:0:0:
192,192,67480,1,0,0:0:0:0:
320,192,67480,1,8,0:0:0:0:
448,192,67480,1,0,0:0:0:0:
64,192,67934,1,0,0:0:0:0:
192,192,67934,1,8,0:0:0:0:
448,192,67934,1,0,0:0:0:0:
192,192,68389,1,0,0:0:0:0:
448,192,68389,1,0,0:0:0:0:
320,192,68389,1,8,0:0:0:0:
64,192,68844,1,0,0:0:0:0:
320,192,68844,128,0,70775:0:0:0:0:
192,192,68957,1,0,0:0:0:0:
64,192,69184,1,0,0:0:0:0:
192,192,69298,1,0,0:0:0:0:
64,192,69525,1,0,0:0:0:0:
192,192,69639,1,0,0:0:0:0:
64,192,69866,1,0,0:0:0:0:
192,192,69980,1,0,0:0:0:0:
64,192,70207,1,0,0:0:0:0:
192,192,70321,1,0,0:0:0:0:
64,192,70548,1,0,0:0:0:0:
192,192,70662,1,0,0:0:0:0:
64,192,71684,1,0,0:0:0:0:
320,192,71684,1,0,0:0:0:0:
448,192,71798,1,0,0:0:0:0:
192,192,71798,1,0,0:0:0:0:
320,192,71912,1,0,0:0:0:0:
64,192,72025,1,0,0:0:0:0:
320,192,72139,1,0,0:0:0:0:
448,192,72253,1,0,0:0:0:0:
192,192,72253,1,0,0:0:0:0:
64,192,72366,1,4,0:0:0:0:
448,192,72821,1,0,0:0:0:0:
192,192,72821,1,0,0:0:0:0:
192,192,73048,1,0,0:0:0:0:
320,192,73048,1,0,0:0:0:0:
448,192,73275,1,0,0:0:0:0:
192,192,73275,1,0,0:0:0:0:
64,192,73275,1,0,0:0:0:0:
320,192,73503,1,0,0:0:0:0:
64,192,73730,1,0,0:0:0:0:
448,192,73730,1,0,0:0:0:0:
192,192,73730,1,0,0:0:0:0:
320,192,73844,1,0,0:0:0:0:
192,192,74071,1,0,0:0:0:0:
448,192,74071,1,0,0:0:0:0:
64,192,74184,1,0,0:0:0:0:
448,192,74298,1,0,0:0:0:0:
192,192,74298,1,0,0:0:0:0:
64,192,74525,1,0,0:0:0:0:
320,192,74525,1,0,0:0:0:0:
448,192,74639,1,0,0:0:0:0:
64,192,74753,1,0,0:0:0:0:
192,192,74753,1,0,0:0:0:0:
320,192,74753,1,0,0:0:0:0:
192,192,75321,1,0,0:0:0:0:
320,192,75321,1,0,0:0:0:0:
448,192,75321,1,0,0:0:0:0:
64,192,75548,1,0,0:0:0:0:
192,192,75548,1,0,0:0:0:0:
448,192,75548,1,0,0:0:0:0:
320,192,75662,1,0,0:0:0:0:
448,192,75775,1,0,0:0:0:0:
192,192,75775,1,0,0:0:0:0:
320,192,75775,1,0,0:0:0:0:
64,192,76003,1,0,0:0:0:0:
320,192,76003,1,4,0:0:0:0:
192,192,76003,1,0,0:0:0:0:
448,192,76344,1,0,0:0:0:0:
192,192,76344,1,0,0:0:0:0:
64,192,76344,1,0,0:0:0:0:
192,192,76571,1,4,0:0:0:0:
320,192,76571,1,0,0:0:0:0:
448,192,76571,1,0,0:0:0:0:
64,192,76912,1,0,0:0:0:0:
192,192,76912,1,0,0:0:0:0:
320,192,77139,128,0,78162:0:0:0:0:
448,192,78844,1,0,0:0:0:0:
320,192,78844,1,0,0:0:0:0:
192,192,78957,1,0,0:0:0:0:
320,192,79071,1,0,0:0:0:0:
64,192,79071,1,0,0:0:0:0:
448,192,79298,1,0,0:0:0:0:
192,192,79298,1,4,0:0:0:0:
64,192,79298,1,0,0:0:0:0:
320,192,79525,1,0,0:0:0:0:
448,192,79753,1,0,0:0:0:0:
64,192,79753,1,0,0:0:0:0:
192,192,79866,1,4,0:0:0:0:
320,192,79866,1,0,0:0:0:0:
448,192,80094,1,0,0:0:0:0:
192,192,80094,1,0,0:0:0:0:
64,192,80207,1,0,0:0:0:0:
320,192,80207,1,0,0:0:0:0:
320,192,80434,1,0,0:0:0:0:
448,192,80434,1,0,0:0:0:0:
192,192,80548,1,4,0:0:0:0:
64,192,80548,1,0,0:0:0:0:
448,192,80775,1,0,0:0:0:0:
192,192,80775,1,0,0:0:0:0:
64,192,80889,1,0,0:0:0:0:
320,192,80889,1,0,0:0:0:0:
320,192,81003,1,0,0:0:0:0:
192,192,81003,1,0,0:0:0:0:
448,192,81116,1,0,0:0:0:0:
64,192,81116,1,0,0:0:0:0:
192,192,81344,1,4,0:0:0:0:
448,192,81344,1,0,0:0:0:0:
320,192,81344,1,0,0:0:0:0:
320,192,81571,1,0,0:0:0:0:
192,192,81571,1,0,0:0:0:0:
64,192,81684,1,0,0:0:0:0:
448,192,81684,1,0,0:0:0:0:
448,192,81912,1,0,0:0:0:0:
192,192,81912,1,0,0:0:0:0:
320,192,82366,1,0,0:0:0:0:
192,192,82366,1,4,0:0:0:0:
448,192,82366,1,0,0:0:0:0:
192,192,82707,1,0,0:0:0:0:
64,192,82707,1,0,0:0:0:0:
320,192,82707,1,4,0:0:0:0:
448,192,82821,1,0,0:0:0:0:
192,192,82934,1,0,0:0:0:0:
320,192,82934,1,0,0:0:0:0:
448,192,83048,1,0,0:0:0:0:
64,192,83048,1,0,0:0:0:0:
320,192,83162,1,4,0:0:0:0:
192,192,83162,1,0,0:0:0:0:
320,192,83389,1,0,0:0:0:0:
320,192,83503,1,0,0:0:0:0:
64,192,83503,1,0,0:0:0:0:
448,192,83730,1,0,0:0:0:0:
320,192,83730,1,0,0:0:0:0:
192,192,83730,1,4,0:0:0:0:
192,192,84184,1,0,0:0:0:0:
64,192,84184,1,0,0:0:0:0:
320,192,84184,1,4,0:0:0:0:
448,192,84412,1,0,0:0:0:0:
320,192,84412,128,0,85094:0:0:0:0:
448,192,85094,1,0,0:0:0:0:
64,192,85207,1,0,0:0:0:0:
192,192,85321,1,0,0:0:0:0:
448,192,85434,1,0,0:0:0:0:
64,192,85775,1,0,0:0:0:0:
320,192,85775,128,0,86230:0:0:0:0:
448,192,86230,1,0,0:0:0:0:
192,192,86230,128,0,86684:0:0:0:0:
320,192,86684,128,0,87139:0:0:0:0:
64,192,87594,1,0,0:0:0:0:
448,192,87934,1,0,0:0:0:0:
192,192,88275,1,0,0:0:0:0:
320,192,88389,128,0,88957:0:0:0:0:
192,192,89298,1,0,0:0:0:0:
448,192,89298,1,0,0:0:0:0:
64,192,89753,1,0,0:0:0:0:
320,192,89753,1,0,0:0:0:0:
320,192,89980,1,0,0:0:0:0:
448,192,89980,1,0,0:0:0:0:
448,192,90207,128,0,92025:0:0:0:0:
320,192,90775,1,0,0:0:0:0:
64,192,90775,1,0,0:0:0:0:
320,192,91116,1,0,0:0:0:0:
64,192,91116,1,0,0:0:0:0:
320,192,91571,1,0,0:0:0:0:
64,192,91571,1,0,0:0:0:0:
320,192,91912,1,0,0:0:0:0:
64,192,91912,1,0,0:0:0:0:
192,192,92480,1,0,0:0:0:0:
320,192,92480,128,0,92934:0:0:0:0:
448,192,92934,128,0,93275:0:0:0:0:
192,192,93275,128,0,93730:0:0:0:0:
448,192,93730,128,0,94639:0:0:0:0:
192,192,94639,1,0,0:0:0:0:
320,192,94866,1,0,0:0:0:0:
64,192,95094,1,0,0:0:0:0:
320,192,95434,128,0,96003:0:0:0:0:
448,192,96457,1,0,0:0:0:0:
320,192,96457,128,0,96798:0:0:0:0:
192,192,96798,128,0,97025:0:0:0:0:
448,192,97253,1,0,0:0:0:0:
448,192,97480,1,0,0:0:0:0:
320,192,97594,1,0,0:0:0:0:
192,192,97707,1,0,0:0:0:0:
64,192,97821,1,0,0:0:0:0:
192,192,97934,1,0,0:0:0:0:
320,192,98048,1,0,0:0:0:0:
448,192,98162,1,0,0:0:0:0:
320,192,98275,1,0,0:0:0:0:
192,192,98389,1,0,0:0:0:0:
64,192,98503,1,0,0:0:0:0:
192,192,98616,1,0,0:0:0:0:
320,192,98730,1,0,0:0:0:0:
448,192,98844,1,0,0:0:0:0:
320,192,98957,1,0,0:0:0:0:
192,192,99071,1,0,0:0:0:0:
64,192,99184,1,0,0:0:0:0:
192,192,99298,1,0,0:0:0:0:
320,192,99412,1,0,0:0:0:0:
448,192,99525,1,0,0:0:0:0:
320,192,99639,1,0,0:0:0:0:
192,192,99753,1,0,0:0:0:0:
64,192,99866,1,0,0:0:0:0:
192,192,99980,1,0,0:0:0:0:
320,192,100094,1,0,0:0:0:0:
448,192,100207,1,0,0:0:0:0:
320,192,100548,1,0,0:0:0:0:
448,192,100889,1,0,0:0:0:0:
192,192,100889,1,0,0:0:0:0:
64,192,100889,1,0,0:0:0:0:
448,192,101344,1,0,0:0:0:0:
320,192,101344,1,0,0:0:0:0:
192,192,101344,1,0,0:0:0:0:
64,192,101798,1,0,0:0:0:0:
192,192,101798,1,0,0:0:0:0:
320,192,101798,1,0,0:0:0:0:
448,192,102139,1,0,0:0:0:0:
320,192,102139,1,0,0:0:0:0:
192,192,102139,1,0,0:0:0:0:
448,192,102594,1,0,0:0:0:0:
64,192,102707,1,0,0:0:0:0:
192,192,102707,1,0,0:0:0:0:
320,192,102707,1,0,0:0:0:0:
448,192,103048,1,0,0:0:0:0:
320,192,103048,1,0,0:0:0:0:
64,192,103048,1,0,0:0:0:0:
64,192,103503,1,0,0:0:0:0:
192,192,103503,1,0,0:0:0:0:
448,192,103503,1,0,0:0:0:0:
64,192,103957,1,0,0:0:0:0:
320,192,103957,1,0,0:0:0:0:
448,192,103957,1,0,0:0:0:0:
192,192,104184,1,0,0:0:0:0:
64,192,104184,1,0,0:0:0:0:
448,192,104412,1,0,0:0:0:0:
320,192,104412,1,0,0:0:0:0:
64,192,104412,1,0,0:0:0:0:
192,192,104866,1,0,0:0:0:0:
320,192,104866,1,0,0:0:0:0:
448,192,104866,1,0,0:0:0:0:
320,192,105321,1,0,0:0:0:0:
192,192,105321,1,0,0:0:0:0:
320,192,105662,1,0,0:0:0:0:
448,192,105775,1,0,0:0:0:0:
192,192,105775,1,0,0:0:0:0:
64,192,105775,1,0,0:0:0:0:
320,192,105889,1,0,0:0:0:0:
448,192,106003,1,0,0:0:0:0:
192,192,106230,1,0,0:0:0:0:
64,192,106230,1,0,0:0:0:0:
192,192,106571,1,0,0:0:0:0:
64,192,106571,1,0,0:0:0:0:
320,192,106571,1,0,0:0:0:0:
448,192,107025,1,0,0:0:0:0:
192,192,107025,1,0,0:0:0:0:
320,192,107025,1,0,0:0:0:0:
64,192,107480,1,0,0:0:0:0:
192,192,107480,1,0,0:0:0:0:
448,192,107594,1,0,0:0:0:0:
320,192,107594,1,0,0:0:0:0:
64,192,108048,1,0,0:0:0:0:
320,192,108048,1,0,0:0:0:0:
448,192,108048,1,0,0:0:0:0:
64,192,108389,1,0,0:0:0:0:
192,192,108389,1,0,0:0:0:0:
320,192,108389,1,0,0:0:0:0:
448,192,108844,1,0,0:0:0:0:
320,192,108844,1,0,0:0:0:0:
192,192,108844,1,0,0:0:0:0:
64,192,109298,1,0,0:0:0:0:
192,192,109298,1,0,0:0:0:0:
448,192,109298,1,0,0:0:0:0:
320,192,109412,1,0,0:0:0:0:
64,192,109639,1,0,0:0:0:0:
192,192,109753,1,0,0:0:0:0:
64,192,109866,1,0,0:0:0:0:
448,192,109980,1,0,0:0:0:0:
320,192,110094,1,0,0:0:0:0:
448,192,110207,1,0,0:0:0:0:
64,192,110321,1,0,0:0:0:0:
320,192,110321,1,0,0:0:0:0:
448,192,110662,1,0,0:0:0:0:
320,192,110662,1,0,0:0:0:0:
192,192,111003,1,0,0:0:0:0:
64,192,111116,1,0,0:0:0:0:
320,192,111116,1,0,0:0:0:0:
448,192,111571,1,0,0:0:0:0:
320,192,111571,1,0,0:0:0:0:
192,192,111571,1,0,0:0:0:0:
64,192,112025,1,0,0:0:0:0:
320,192,112025,1,0,0:0:0:0:
448,192,112025,1,0,0:0:0:0:
320,192,112366,1,0,0:0:0:0:
448,192,112366,1,0,0:0:0:0:
192,192,112366,1,0,0:0:0:0:
448,192,112821,1,0,0:0:0:0:
320,192,112821,1,0,0:0:0:0:
320,192,113162,1,0,0:0:0:0:
192,192,113162,1,0,0:0:0:0:
192,192,113389,128,0,113616:0:0:0:0:
320,192,113616,128,0,113844:0:0:0:0:
192,192,113844,128,0,114071:0:0:0:0:
320,192,114071,128,0,114298:0:0:0:0:
192,192,114298,128,0,114525:0:0:0:0:
320,192,114639,1,0,0:0:0:0:
64,192,114639,1,0,0:0:0:0:
448,192,114753,1,0,0:0:0:0:
192,192,115094,1,0,0:0:0:0:
320,192,115094,1,0,0:0:0:0:
64,192,115094,1,0,0:0:0:0:
192,192,115321,1,0,0:0:0:0:
448,192,115548,1,0,0:0:0:0:
64,192,115775,1,0,0:0:0:0:
448,192,115889,128,0,116230:0:0:0:0:
192,192,116230,1,0,0:0:0:0:
320,192,116457,1,0,0:0:0:0:
64,192,116684,1,0,0:0:0:0:
320,192,116684,128,0,117025:0:0:0:0:
320,192,117366,1,0,0:0:0:0:
192,192,117480,1,0,0:0:0:0:
448,192,117707,1,0,0:0:0:0:
192,192,117934,1,0,0:0:0:0:
64,192,117934,128,0,118275:0:0:0:0:
192,192,118389,128,0,118730:0:0:0:0:
320,192,118844,1,0,0:0:0:0:
448,192,118957,1,0,0:0:0:0:
192,192,119071,1,0,0:0:0:0:
320,192,119298,1,0,0:0:0:0:
64,192,119525,1,0,0:0:0:0:
448,192,119866,128,0,120094:0:0:0:0:
64,192,120094,128,0,120434:0:0:0:0:
320,192,120434,128,0,120775:0:0:0:0:
448,192,120775,128,0,121230:0:0:0:0:
192,192,121230,128,0,121684:0:0:0:0:
320,192,121684,128,0,122139:0:0:0:0:
64,192,122139,1,0,0:0:0:0:
64,192,122594,1,0,0:0:0:0:
320,192,122594,1,0,0:0:0:0:
448,192,122594,1,0,0:0:0:0:
64,192,123048,1,0,0:0:0:0:
320,192,123048,1,0,0:0:0:0:
320,192,123389,1,0,0:0:0:0:
192,192,123503,1,0,0:0:0:0:
64,192,123730,1,0,0:0:0:0:
448,192,123730,1,0,0:0:0:0:
320,192,123730,1,0,0:0:0:0:
448,192,124184,1,0,0:0:0:0:
192,192,124184,1,0,0:0:0:0:
64,192,124639,1,0,0:0:0:0:
320,192,124639,1,0,0:0:0:0:
192,192,124980,1,0,0:0:0:0:
64,192,124980,1,0,0:0:0:0:
448,192,125207,1,0,0:0:0:0:
192,192,125207,1,0,0:0:0:0:
320,192,125548,1,0,0:0:0:0:
192,192,125548,128,0,126230:0:0:0:0:
320,192,126230,1,0,0:0:0:0:
448,192,126457,1,0,0:0:0:0:
192,192,126457,1,0,0:0:0:0:
64,192,126912,1,0,0:0:0:0:
192,192,127025,1,0,0:0:0:0:
448,192,127253,1,0,0:0:0:0:
192,192,127253,1,0,0:0:0:0:
448,192,127707,128,0,128162:0:0:0:0:
64,192,127707,1,0,0:0:0:0:
320,192,128162,128,0,128844:0:0:0:0:
192,192,128844,1,0,0:0:0:0:
64,192,128844,1,0,0:0:0:0:
192,192,129298,1,0,0:0:0:0:
448,192,129298,1,0,0:0:0:0:
64,192,129639,1,0,0:0:0:0:
448,192,129639,1,0,0:0:0:0:
192,192,129866,1,0,0:0:0:0:
448,192,129866,1,0,0:0:0:0:
448,192,130207,1,0,0:0:0:0:
320,192,130207,1,0,0:0:0:0:
192,192,130434,1,0,0:0:0:0:
64,192,130434,1,0,0:0:0:0:
320,192,130775,128,0,131230:0:0:0:0:
64,192,131230,1,0,0:0:0:0:
448,192,131457,1,0,0:0:0:0:
192,192,131457,1,0,0:0:0:0:
320,192,131684,1,0,0:0:0:0:
448,192,131684,1,0,0:0:0:0:
64,192,131912,1,0,0:0:0:0:
192,192,132253,1,0,0:0:0:0:
320,192,132253,1,0,0:0:0:0:
320,192,132594,1,0,0:0:0:0:
64,192,132594,1,0,0:0:0:0:
192,192,132934,1,0,0:0:0:0:
448,192,132934,1,0,0:0:0:0:
448,192,133162,1,0,0:0:0:0:
320,192,133162,1,0,0:0:0:0:
64,192,133389,1,0,0:0:0:0:
192,192,133389,1,0,0:0:0:0:
320,192,133616,1,0,0:0:0:0:
192,192,133616,1,0,0:0:0:0:
192,192,133957,1,0,0:0:0:0:
448,192,133957,1,0,0:0:0:0:
448,192,134298,1,0,0:0:0:0:
192,192,134525,1,0,0:0:0:0:
64,192,134525,128,0,134980:0:0:0:0:
320,192,134980,1,0,0:0:0:0:
448,192,134980,128,0,135548:0:0:0:0:
192,192,135548,1,0,0:0:0:0:
192,192,136003,1,0,0:0:0:0:
320,192,136003,1,0,0:0:0:0:
448,192,136003,1,0,0:0:0:0:
320,192,136344,128,0,137366:0:0:0:0:
64,192,137480,1,0,0:0:0:0:
192,192,137480,1,0,0:0:0:0:
448,192,137480,1,0,0:0:0:0:
320,192,137594,1,0,0:0:0:0:
192,192,137934,1,0,0:0:0:0:
448,192,137934,1,0,0:0:0:0:
320,192,137934,1,0,0:0:0:0:
64,192,138275,1,0,0:0:0:0:
192,192,138275,1,0,0:0:0:0:
320,192,138275,1,0,0:0:0:0:
448,192,138730,1,0,0:0:0:0:
320,192,138730,1,0,0:0:0:0:
64,192,138730,1,0,0:0:0:0:
192,192,139184,1,0,0:0:0:0:
320,192,139184,1,0,0:0:0:0:
448,192,139184,1,0,0:0:0:0:
64,192,139525,1,0,0:0:0:0:
192,192,139525,1,0,0:0:0:0:
448,192,139525,128,0,139753:0:0:0:0:
64,192,140207,1,0,0:0:0:0:
192,192,140207,1,0,0:0:0:0:
192,192,140662,1,0,0:0:0:0:
448,192,140662,1,0,0:0:0:0:
192,192,141003,1,0,0:0:0:0:
64,192,141003,1,0,0:0:0:0:
320,192,141003,1,0,0:0:0:0:
448,192,141344,1,0,0:0:0:0:
192,192,141684,1,0,0:0:0:0:
64,192,141684,1,0,0:0:0:0:
320,192,141912,1,0,0:0:0:0:
448,192,141912,1,0,0:0:0:0:
192,192,142139,1,0,0:0:0:0:
64,192,142139,1,0,0:0:0:0:
448,192,142366,128,0,143048:0:0:0:0:
192,192,143503,1,8,0:0:0:0:
320,192,143503,1,0,0:0:0:0:
448,192,143503,1,0,0:0:0:0:
64,192,143957,1,0,0:0:0:0:
192,192,143957,1,8,0:0:0:0:
448,192,143957,1,0,0:0:0:0:
192,192,144412,1,8,0:0:0:0:
320,192,144412,1,0,0:0:0:0:
448,192,144412,1,0,0:0:0:0:
64,192,144866,1,0,0:0:0:0:
192,192,144866,1,0,0:0:0:0:
320,192,144866,1,8,0:0:0:0:
64,192,145207,1,0,0:0:0:0:
320,192,145207,1,8,0:0:0:0:
448,192,145207,1,0,0:0:0:0:
64,192,145662,1,0,0:0:0:0:
192,192,145662,1,8,0:0:0:0:
448,192,145662,1,0,0:0:0:0:
192,192,146116,1,0,0:0:0:0:
320,192,146116,1,8,0:0:0:0:
448,192,146116,1,0,0:0:0:0:
64,192,146571,1,0,0:0:0:0:
192,192,146571,1,8,0:0:0:0:
448,192,146571,1,0,0:0:0:0:
64,192,147025,1,0,0:0:0:0:
192,192,147025,1,8,0:0:0:0:
448,192,147025,1,0,0:0:0:0:
192,192,147480,1,0,0:0:0:0:
320,192,147480,1,8,0:0:0:0:
64,192,147934,1,0,0:0:0:0:
320,192,147934,1,8,0:0:0:0:
192,192,148389,1,0,0:0:0:0:
448,192,148389,1,8,0:0:0:0:
64,192,148730,1,0,0:0:0:0:
320,192,148730,1,0,0:0:0:0:
192,192,148844,1,0,0:0:0:0:
448,192,148844,1,0,0:0:0:0:
192,192,149298,1,8,0:0:0:0:
448,192,149298,1,0,0:0:0:0:
64,192,149753,1,0,0:0:0:0:
192,192,149753,1,0,0:0:0:0:
320,192,149753,1,8,0:0:0:0:
320,192,150207,1,8,0:0:0:0:
448,192,150207,1,0,0:0:0:0:
192,192,150207,1,0,0:0:0:0:
64,192,150434,1,0,0:0:0:0:
192,192,150548,1,0,0:0:0:0:
64,192,150662,1,0,0:0:0:0:
320,192,150662,1,0,0:0:0:0:
192,192,151116,1,4,0:0:0:0:
448,192,151116,1,0,0:0:0:0:
64,192,151457,1,0,0:0:0:0:
320,192,151457,1,4,0:0:0:0:
448,192,151798,1,0,0:0:0:0:
320,192,151798,1,0,0:0:0:0:
192,192,151912,1,0,0:0:0:0:
64,192,151912,1,0,0:0:0:0:
448,192,152253,1,0,0:0:0:0:
320,192,152253,1,4,0:0:0:0:
64,192,152253,1,0,0:0:0:0:
64,192,152821,1,0,0:0:0:0:
192,192,152821,1,4,0:0:0:0:
448,192,152821,1,0,0:0:0:0:
192,192,153275,1,4,0:0:0:0:
320,192,153275,1,0,0:0:0:0:
448,192,153275,1,0,0:0:0:0:
64,192,153730,1,0,0:0:0:0:
192,192,153730,1,4,0:0:0:0:
448,192,153730,1,0,0:0:0:0:
192,192,154184,1,0,0:0:0:0:
320,192,154298,1,0,0:0:0:0:
448,192,154412,1,0,0:0:0:0:
320,192,154525,1,0,0:0:0:0:
192,192,154639,1,0,0:0:0:0:
64,192,154753,1,0,0:0:0:0:
192,192,154866,1,0,0:0:0:0:
320,192,154980,1,0,0:0:0:0:
448,192,155094,1,0,0:0:0:0:
320,192,155207,1,0,0:0:0:0:
192,192,155321,1,0,0:0:0:0:
64,192,155434,1,0,0:0:0:0:
192,192,155548,1,0,0:0:0:0:
320,192,155662,1,0,0:0:0:0:
448,192,155775,1,0,0:0:0:0:
320,192,155889,1,0,0:0:0:0:
192,192,156003,128,0,156912:0:0:0:0:
64,192,157025,1,0,0:0:0:0:
320,192,157025,1,0,0:0:0:0:
448,192,157025,1,0,0:0:0:0:
192,192,157366,1,4,0:0:0:0:
320,192,157366,1,0,0:0:0:0:
448,192,157366,1,0,0:0:0:0:
64,192,157707,1,0,0:0:0:0:
192,192,157707,1,0,0:0:0:0:
448,192,157707,1,0,0:0:0:0:
192,192,158162,1,4,0:0:0:0:
448,192,158162,1,0,0:0:0:0:
320,192,158162,1,0,0:0:0:0:
64,192,158503,1,0,0:0:0:0:
192,192,158503,1,0,0:0:0:0:
448,192,158844,1,0,0:0:0:0:
320,192,158844,1,0,0:0:0:0:
192,192,159071,1,0,0:0:0:0:
320,192,159298,1,0,0:0:0:0:
64,192,159525,1,0,0:0:0:0:
448,192,159639,1,0,0:0:0:0:
320,192,159753,1,0,0:0:0:0:
192,192,159866,1,0,0:0:0:0:
64,192,159980,1,0,0:0:0:0:
448,192,159980,1,0,0:0:0:0:
192,192,160207,1,0,0:0:0:0:
448,192,160548,1,0,0:0:0:0:
320,192,160548,1,0,0:0:0:0:
64,192,160548,1,0,0:0:0:0:
192,192,160889,1,0,0:0:0:0:
320,192,160889,1,0,0:0:0:0:
448,192,161116,1,0,0:0:0:0:
64,192,161230,1,0,0:0:0:0:
192,192,161230,1,0,0:0:0:0:
320,192,161230,1,4,0:0:0:0:
448,192,161684,1,0,0:0:0:0:
320,192,161684,1,0,0:0:0:0:
192,192,161684,1,4,0:0:0:0:
64,192,161912,1,0,0:0:0:0:
192,192,161912,1,0,0:0:0:0:
320,192,161912,1,0,0:0:0:0:
448,192,162253,1,0,0:0:0:0:
320,192,162253,1,0,0:0:0:0:
192,192,162253,1,4,0:0:0:0:
64,192,162480,128,0,163162:0:0:0:0:
64,192,163389,1,0,0:0:0:0:
320,192,163389,1,0,0:0:0:0:
448,192,163844,1,0,0:0:0:0:
320,192,163844,1,0,0:0:0:0:
192,192,163844,1,4,0:0:0:0:
320,192,164184,1,0,0:0:0:0:
192,192,164184,1,0,0:0:0:0:
64,192,164412,1,0,0:0:0:0:
448,192,164639,128,0,164866:0:0:0:0:
192,192,164866,1,0,0:0:0:0:
448,192,165094,1,0,0:0:0:0:
320,192,165321,1,0,0:0:0:0:
192,192,165321,1,0,0:0:0:0:
64,192,165662,1,0,0:0:0:0:
320,192,165662,1,0,0:0:0:0:
448,192,165889,1,0,0:0:0:0:
192,192,165889,1,0,0:0:0:0:
192,192,166230,1,0,0:0:0:0:
320,192,166344,1,0,0:0:0:0:
448,192,166571,1,0,0:0:0:0:
192,192,166571,1,0,0:0:0:0:
64,192,166798,1,0,0:0:0:0:
320,192,166798,1,0,0:0:0:0:
320,192,167025,1,0,0:0:0:0:
192,192,167025,1,0,0:0:0:0:
64,192,167253,1,0,0:0:0:0:
448,192,167253,1,0,0:0:0:0:
192,192,167594,1,0,0:0:0:0:
448,192,167821,1,0,0:0:0:0:
320,192,168048,1,0,0:0:0:0:
64,192,168275,1,0,0:0:0:0:
192,192,168275,128,0,168844:0:0:0:0:
320,192,168844,1,0,0:0:0:0:
192,192,169071,1,0,0:0:0:0:
448,192,169071,128,0,169525:0:0:0:0:
320,192,169525,1,0,0:0:0:0:
192,192,169525,128,0,170321:0:0:0:0:
448,192,170321,1,0,0:0:0:0:
64,192,170775,128,0,171116:0:0:0:0:
192,192,171116,128,0,171344:0:0:0:0:
448,192,171344,128,0,171912:0:0:0:0:
192,192,171912,128,0,172707:0:0:0:0:
448,192,172934,1,0,0:0:0:0:
64,192,172934,1,0,0:0:0:0:
192,192,173162,1,0,0:0:0:0:
320,192,173162,1,0,0:0:0:0:
64,192,173503,1,0,0:0:0:0:
448,192,173616,128,0,174298:0:0:0:0:
192,192,174639,1,0,0:0:0:0:
320,192,174753,1,0,0:0:0:0:
64,192,174980,1,0,0:0:0:0:
448,192,175094,1,0,0:0:0:0:
192,192,175207,1,0,0:0:0:0:
448,192,175434,128,0,177139:0:0:0:0:
320,192,175662,1,0,0:0:0:0:
192,192,176003,1,0,0:0:0:0:
64,192,176003,1,0,0:0:0:0:
320,192,176457,1,0,0:0:0:0:
192,192,176457,1,0,0:0:0:0:
64,192,176912,1,0,0:0:0:0:
192,192,176912,1,0,0:0:0:0:
192,192,177366,1,0,0:0:0:0:
320,192,177366,1,0,0:0:0:0:
64,192,177821,128,0,178162:0:0:0:0:
192,192,178162,128,0,178389:0:0:0:0:
320,192,178616,128,0,178957:0:0:0:0:
448,192,178957,128,0,179525:0:0:0:0:
192,192,179980,1,0,0:0:0:0:
320,192,180207,1,0,0:0:0:0:
64,192,180548,1,0,0:0:0:0:
448,192,180775,128,0,181571:0:0:0:0:
192,192,181798,1,0,0:0:0:0:
448,192,181798,1,0,0:0:0:0:
64,192,182139,1,0,0:0:0:0:
192,192,182139,1,0,0:0:0:0:
448,192,182480,1,0,0:0:0:0:
320,192,182480,1,0,0:0:0:0:
64,192,182707,128,0,183957:0:0:0:0:
192,192,183957,1,0,0:0:0:0:
320,192,184071,1,0,0:0:0:0:
448,192,184184,1,0,0:0:0:0:
320,192,184298,1,0,0:0:0:0:
192,192,184412,1,0,0:0:0:0:
64,192,184525,1,0,0:0:0:0:
192,192,184639,1,0,0:0:0:0:
320,192,184753,1,0,0:0:0:0:
448,192,184866,1,0,0:0:0:0:
320,192,184980,1,0,0:0:0:0:
192,192,185094,1,0,0:0:0:0:
64,192,185207,1,0,0:0:0:0:
192,192,185321,1,0,0:0:0:0:
320,192,185434,1,0,0:0:0:0:
448,192,185548,1,0,0:0:0:0:
320,192,185662,1,0,0:0:0:0:
192,192,185775,1,0,0:0:0:0:
64,192,185889,1,0,0:0:0:0:
192,192,186003,1,0,0:0:0:0:
320,192,186116,1,0,0:0:0:0:
448,192,186230,1,0,0:0:0:0:
192,192,186230,1,0,0:0:0:0:
64,192,187139,1,0,0:0:0:0:
320,192,187139,1,0,0:0:0:0:
192,192,187139,1,0,0:0:0:0:
448,192,188048,1,0,0:0:0:0:
320,192,188048,1,0,0:0:0:0:
64,192,188503,1,0,0:0:0:0:
320,192,188503,1,0,0:0:0:0:
192,192,188957,1,0,0:0:0:0:
448,192,188957,1,0,0:0:0:0:
320,192,188957,1,0,0:0:0:0:
64,192,189753,1,0,0:0:0:0:
192,192,189753,1,0,0:0:0:0:
320,192,189753,1,0,0:0:0:0:
448,192,190662,1,0,0:0:0:0:
320,192,190662,1,0,0:0:0:0:
64,192,190662,1,0,0:0:0:0:
64,192,191116,1,0,0:0:0:0:
192,192,191116,1,0,0:0:0:0:
320,192,191116,1,0,0:0:0:0:
448,192,191571,1,0,0:0:0:0:
192,192,191571,1,0,0:0:0:0:
320,192,191571,1,0,0:0:0:0:
64,192,191912,1,0,0:0:0:0:
448,192,192139,1,0,0:0:0:0:
64,192,192366,1,0,0:0:0:0:
192,192,192480,1,0,0:0:0:0:
320,192,192480,1,0,0:0:0:0:
64,192,192821,1,0,0:0:0:0:
320,192,192821,1,0,0:0:0:0:
448,192,192821,1,0,0:0:0:0:
192,192,193275,1,0,0:0:0:0:
320,192,193275,1,0,0:0:0:0:
448,192,193275,1,0,0:0:0:0:
192,192,193730,1,0,0:0:0:0:
64,192,193730,1,0,0:0:0:0:
448,192,194071,1,0,0:0:0:0:
64,192,194184,1,0,0:0:0:0:
192,192,194184,1,0,0:0:0:0:
192,192,194639,1,0,0:0:0:0:
448,192,194639,1,0,0:0:0:0:
320,192,194639,1,0,0:0:0:0:
64,192,195094,1,0,0:0:0:0:
320,192,195094,1,0,0:0:0:0:
192,192,195094,1,0,0:0:0:0:
64,192,195548,1,0,0:0:0:0:
320,192,195548,1,0,0:0:0:0:
448,192,195548,1,0,0:0:0:0:
64,192,196003,1,0,0:0:0:0:
192,192,196003,1,0,0:0:0:0:
320,192,196003,1,0,0:0:0:0:
448,192,196457,1,0,0:0:0:0:
320,192,196457,1,0,0:0:0:0:
64,192,196912,1,0,0:0:0:0:
192,192,196912,1,0,0:0:0:0:
320,192,197139,1,0,0:0:0:0:
448,192,197253,1,0,0:0:0:0:
320,192,197366,1,0,0:0:0:0:
192,192,197480,1,0,0:0:0:0:
64,192,197594,1,0,0:0:0:0:
192,192,197707,1,0,0:0:0:0:
320,192,197821,1,0,0:0:0:0:
448,192,197934,1,0,0:0:0:0:
320,192,198048,1,0,0:0:0:0:
192,192,198162,1,0,0:0:0:0:
64,192,198275,1,0,0:0:0:0:
192,192,198389,1,0,0:0:0:0:
320,192,198503,1,0,0:0:0:0:
448,192,198616,1,0,0:0:0:0:
320,192,198730,1,0,0:0:0:0:
192,192,198844,1,0,0:0:0:0:
64,192,198957,1,0,0:0:0:0:
192,192,199071,1,0,0:0:0:0:
320,192,199184,1,0,0:0:0:0:
448,192,199298,1,0,0:0:0:0:
320,192,199412,1,0,0:0:0:0:
192,192,199525,1,0,0:0:0:0:
64,192,199639,1,0,0:0:0:0:
192,192,199753,1,0,0:0:0:0:
320,192,199866,1,0,0:0:0:0:
448,192,199980,1,0,0:0:0:0:
64,192,200434,1,0,0:0:0:0:
448,192,200434,1,0,0:0:0:0:
320,192,200434,1,4,0:0:0:0:
448,192,201344,1,0,0:0:0:0:
320,192,201344,1,0,0:0:0:0:
64,192,201457,1,0,0:0:0:0:
192,192,201571,1,0,0:0:0:0:
448,192,201571,1,0,0:0:0:0:
64,192,201912,1,0,0:0:0:0:
192,192,201912,1,0,0:0:0:0:
320,192,201912,1,0,0:0:0:0:
192,192,202253,1,0,0:0:0:0:
448,192,202253,1,0,0:0:0:0:
320,192,202253,1,0,0:0:0:0:
64,192,202594,1,0,0:0:0:0:
448,192,202821,1,0,0:0:0:0:
192,192,203048,1,0,0:0:0:0:
448,192,203275,1,0,0:0:0:0:
64,192,203503,1,0,0:0:0:0:
320,192,203730,1,0,0:0:0:0:
192,192,203957,1,0,0:0:0:0:
448,192,204184,1,0,0:0:0:0:
64,192,204412,1,0,0:0:0:0:
320,192,204525,1,0,0:0:0:0:
192,192,204753,1,0,0:0:0:0:
448,192,204866,1,0,0:0:0:0:
64,192,205094,1,0,0:0:0:0:
448,192,205321,1,0,0:0:0:0:
192,192,205548,1,0,0:0:0:0:
320,192,205775,1,0,0:0:0:0:
64,192,206003,1,0,0:0:0:0:
448,192,206116,1,0,0:0:0:0:
192,192,206344,1,0,0:0:0:0:
320,192,206457,1,0,0:0:0:0:
64,192,206684,1,0,0:0:0:0:
448,192,206912,1,0,0:0:0:0:
192,192,207025,1,0,0:0:0:0:
320,192,207253,1,0,0:0:0:0:
192,192,207480,1,0,0:0:0:0:
448,192,207707,1,0,0:0:0:0:
64,192,207934,1,0,0:0:0:0:
320,192,208048,1,0,0:0:0:0:
192,192,208275,1,0,0:0:0:0:
320,192,208389,1,0,0:0:0:0:
64,192,208616,1,0,0:0:0:0:
192,192,208730,1,0,0:0:0:0:
448,192,208844,1,0,0:0:0:0:
320,192,208957,1,0,0:0:0:0:
64,192,209184,1,0,0:0:0:0:
320,192,209298,1,0,0:0:0:0:
448,192,209412,1,0,0:0:0:0:
64,192,209753,1,0,0:0:0:0:
192,192,209753,1,0,0:0:0:0:
320,192,210094,1,0,0:0:0:0:
448,192,210094,1,0,0:0:0:0:
64,192,210548,1,0,0:0:0:0:
192,192,210548,1,0,0:0:0:0:
320,192,210662,1,0,0:0:0:0:
448,192,210662,1,0,0:0:0:0:
64,192,211116,1,0,0:0:0:0:
192,192,211116,1,0,0:0:0:0:
320,192,211116,1,0,0:0:0:0:
320,192,211457,1,0,0:0:0:0:
448,192,211457,1,0,0:0:0:0:
192,192,211457,1,0,0:0:0:0:
64,192,211912,1,0,0:0:0:0:
192,192,211912,1,0,0:0:0:0:
320,192,211912,1,0,0:0:0:0:
448,192,212366,1,0,0:0:0:0:
192,192,212366,1,0,0:0:0:0:
64,192,212366,1,0,0:0:0:0:
448,192,212821,1,0,0:0:0:0:
192,192,212821,1,0,0:0:0:0:
320,192,212821,1,0,0:0:0:0:
64,192,213275,1,0,0:0:0:0:
192,192,213275,1,0,0:0:0:0:
320,192,213275,1,0,0:0:0:0:
448,192,213503,1,0,0:0:0:0:
320,192,213503,1,0,0:0:0:0:
192,192,213730,1,0,0:0:0:0:
64,192,213730,1,0,0:0:0:0:
448,192,213957,1,0,0:0:0:0:
320,192,213957,1,0,0:0:0:0:
192,192,214184,1,0,0:0:0:0:
320,192,214412,1,0,0:0:0:0:
64,192,214639,1,0,0:0:0:0:
448,192,214866,1,0,0:0:0:0:
192,192,214980,1,0,0:0:0:0:
320,192,215094,1,0,0:0:0:0:
64,192,215321,1,0,0:0:0:0:
448,192,215548,1,0,0:0:0:0:
192,192,215775,1,0,0:0:0:0:
64,192,215775,1,0,0:0:0:0:
320,192,216003,1,0,0:0:0:0:
64,192,216230,1,0,0:0:0:0:
320,192,216457,1,8,0:0:0:0:
448,192,216457,1,0,0:0:0:0:
64,192,216457,1,0,0:0:0:0:
64,192,216912,1,0,0:0:0:0:
192,192,216912,1,0,0:0:0:0:
320,192,216912,1,8,0:0:0:0:
448,192,217366,1,0,0:0:0:0:
320,192,217366,1,8,0:0:0:0:
64,192,217366,1,0,0:0:0:0:
192,192,217707,1,8,0:0:0:0:
64,192,217707,1,0,0:0:0:0:
448,192,218162,1,0,0:0:0:0:
320,192,218162,1,8,0:0:0:0:
192,192,218162,1,0,0:0:0:0:
64,192,218616,1,0,0:0:0:0:
192,192,218616,1,0,0:0:0:0:
448,192,218616,1,8,0:0:0:0:
320,192,219071,1,8,0:0:0:0:
192,192,219071,1,0,0:0:0:0:
64,192,219071,1,0,0:0:0:0:
448,192,219525,1,0,0:0:0:0:
192,192,219525,1,8,0:0:0:0:
320,192,219525,1,0,0:0:0:0:
64,192,219980,1,0,0:0:0:0:
192,192,219980,1,0,0:0:0:0:
320,192,219980,1,8,0:0:0:0:
448,192,220434,1,0,0:0:0:0:
320,192,220434,1,8,0:0:0:0:
192,192,220434,1,0,0:0:0:0:
64,192,220889,1,0,0:0:0:0:
192,192,220889,1,8,0:0:0:0:
448,192,220889,1,0,0:0:0:0:
64,192,221344,1,0,0:0:0:0:
192,192,221344,1,8,0:0:0:0:
448,192,221344,1,0,0:0:0:0:
192,192,221798,1,8,0:0:0:0:
320,192,221798,1,0,0:0:0:0:
448,192,221798,1,0,0:0:0:0:
64,192,222253,1,0,0:0:0:0:
192,192,222253,1,8,0:0:0:0:
448,192,222253,1,0,0:0:0:0:
192,192,222707,1,0,0:0:0:0:
320,192,222707,1,8,0:0:0:0:
192,192,223162,1,8,0:0:0:0:
320,192,223162,1,0,0:0:0:0:
448,192,223162,1,0,0:0:0:0:
192,192,223389,1,0,0:0:0:0:
64,192,223503,1,0,0:0:0:0:
192,192,223616,1,0,0:0:0:0:
448,192,223616,1,0,0:0:0:0:
64,192,223957,1,0,0:0:0:0:
192,192,223957,1,4,0:0:0:0:
448,192,224412,1,0,0:0:0:0:
320,192,224412,1,0,0:0:0:0:
192,192,224412,1,4,0:0:0:0:
64,192,224753,1,0,0:0:0:0:
320,192,224753,1,0,0:0:0:0:
192,192,224866,1,0,0:0:0:0:
448,192,224866,1,0,0:0:0:0:
64,192,225207,1,0,0:0:0:0:
320,192,225207,1,4,0:0:0:0:
64,192,225662,1,0,0:0:0:0:
192,192,225662,1,4,0:0:0:0:
448,192,225662,1,0,0:0:0:0:
320,192,225889,1,0,0:0:0:0:
192,192,225889,1,0,0:0:0:0:
64,192,226230,1,0,0:0:0:0:
192,192,226230,1,0,0:0:0:0:
320,192,226230,1,4,0:0:0:0:
192,192,226571,1,4,0:0:0:0:
448,192,226571,1,0,0:0:0:0:
320,192,226571,1,0,0:0:0:0:
64,192,226684,1,0,0:0:0:0:
192,192,227025,1,4,0:0:0:0:
448,192,227025,1,0,0:0:0:0:
320,192,227025,1,0,0:0:0:0:
64,192,227480,1,0,0:0:0:0:
192,192,227480,1,4,0:0:0:0:
320,192,227707,1,4,0:0:0:0:
448,192,227707,1,0,0:0:0:0:
192,192,228162,1,0,0:0:0:0:
64,192,228162,1,0,0:0:0:0:
448,192,228162,128,0,229980:0:0:0:0:
64,192,229980,1,0,0:0:0:0:
192,192,230321,1,4,0:0:0:0:
320,192,230321,1,0,0:0:0:0:
448,192,230321,1,0,0:0:0:0:
64,192,230662,1,0,0:0:0:0:
192,192,230662,1,0,0:0:0:0:
320,192,230662,1,4,0:0:0:0:
448,192,231116,1,0,0:0:0:0:
320,192,231116,1,0,0:0:0:0:
64,192,231571,1,0,0:0:0:0:
192,192,231571,1,0,0:0:0:0:
320,192,231798,1,0,0:0:0:0:
448,192,231912,1,0,0:0:0:0:
192,192,232025,1,0,0:0:0:0:
320,192,232139,1,0,0:0:0:0:
64,192,232366,1,0,0:0:0:0:
448,192,232594,1,0,0:0:0:0:
192,192,232821,1,0,0:0:0:0:
320,192,233048,1,0,0:0:0:0:
192,192,233162,1,0,0:0:0:0:
64,192,233389,1,0,0:0:0:0:
192,192,233389,1,0,0:0:0:0:
448,192,233389,1,0,0:0:0:0:
192,192,233730,1,0,0:0:0:0:
320,192,233730,1,0,0:0:0:0:
448,192,233730,1,0,0:0:0:0:
192,192,233957,1,0,0:0:0:0:
64,192,234184,1,0,0:0:0:0:
192,192,234184,1,0,0:0:0:0:
320,192,234184,1,0,0:0:0:0:
320,192,234639,1,0,0:0:0:0:
448,192,234639,1,0,0:0:0:0:
192,192,234639,1,0,0:0:0:0:
64,192,234980,1,0,0:0:0:0:
192,192,234980,1,0,0:0:0:0:
448,192,234980,1,0,0:0:0:0:
192,192,235321,1,0,0:0:0:0:
192,192,235548,1,0,0:0:0:0:
320,192,235548,1,0,0:0:0:0:
448,192,235548,1,0,0:0:0:0:
64,192,236003,1,0,0:0:0:0:
192,192,236003,1,0,0:0:0:0:
320,192,236003,1,0,0:0:0:0:
192,192,236457,1,0,0:0:0:0:
320,192,236457,1,0,0:0:0:0:
448,192,236457,1,0,0:0:0:0:
64,192,236912,1,0,0:0:0:0:
320,192,236912,1,0,0:0:0:0:
192,192,237253,1,0,0:0:0:0:
448,192,237253,1,0,0:0:0:0:
64,192,237707,1,0,0:0:0:0:
192,192,237707,1,0,0:0:0:0:
192,192,238048,1,0,0:0:0:0:
448,192,238162,1,0,0:0:0:0:
320,192,238162,1,0,0:0:0:0:
192,192,238389,1,0,0:0:0:0:
64,192,238389,1,0,0:0:0:0:
320,192,238616,1,0,0:0:0:0:
448,192,238616,1,0,0:0:0:0:
192,192,238844,1,0,0:0:0:0:
320,192,239071,1,0,0:0:0:0:
448,192,239071,1,0,0:0:0:0:
64,192,239298,1,0,0:0:0:0:
192,192,239412,1,0,0:0:0:0:
448,192,239639,1,0,0:0:0:0:
320,192,239753,1,0,0:0:0:0:
64,192,239753,1,0,0:0:0:0:
192,192,239980,1,0,0:0:0:0:
448,192,239980,1,0,0:0:0:0:
320,192,239980,1,0,0:0:0:0:
64,192,240207,1,0,0:0:0:0:
192,192,240207,1,0,0:0:0:0:
320,192,240548,1,0,0:0:0:0:
448,192,240548,1,0,0:0:0:0:
192,192,240889,1,0,0:0:0:0:
64,192,240889,1,0,0:0:0:0:
64,192,241116,128,0,241344:0:0:0:0:
192,192,241344,1,0,0:0:0:0:
448,192,241344,128,0,241684:0:0:0:0:
320,192,241684,1,0,0:0:0:0:
64,192,241684,128,0,241912:0:0:0:0:
192,192,241912,1,0,0:0:0:0:
448,192,241912,128,0,242253:0:0:0:0:
320,192,242253,1,0,0:0:0:0:
64,192,242480,128,0,243389:0:0:0:0:
320,192,243503,128,0,243844:0:0:0:0:
192,192,243957,128,0,244298:0:0:0:0:
320,192,244412,128,0,244753:0:0:0:0:
64,192,244866,128,0,245434:0:0:0:0:
448,192,245775,1,0,0:0:0:0:
192,192,245775,1,0,0:0:0:0:
192,192,246116,1,0,0:0:0:0:
320,192,246116,1,0,0:0:0:0:
64,192,246457,1,0,0:0:0:0:
192,192,246457,1,0,0:0:0:0:
320,192,246684,128,0,247253:0:0:0:0:
64,192,247594,1,0,0:0:0:0:
192,192,247707,1,0,0:0:0:0:
448,192,248162,1,0,0:0:0:0:
192,192,248503,128,0,250094:0:0:0:0:
320,192,248844,1,0,0:0:0:0:
448,192,248844,1,0,0:0:0:0:
320,192,249298,1,0,0:0:0:0:
448,192,249298,1,0,0:0:0:0:
320,192,249753,1,0,0:0:0:0:
448,192,249753,1,0,0:0:0:0:
192,192,250662,128,0,251116:0:0:0:0:
320,192,251116,128,0,251457:0:0:0:0:
64,192,251457,128,0,251912:0:0:0:0:
448,192,251912,128,0,252480:0:0:0:0:
64,192,252821,1,0,0:0:0:0:
320,192,252821,1,0,0:0:0:0:
448,192,252821,1,0,0:0:0:0:
192,192,253162,1,0,0:0:0:0:
320,192,253503,1,0,0:0:0:0:
320,192,253844,128,0,254298:0:0:0:0:
64,192,254639,1,0,0:0:0:0:
320,192,254639,1,0,0:0:0:0:
192,192,254980,1,0,0:0:0:0:
320,192,254980,1,0,0:0:0:0:
448,192,254980,1,0,0:0:0:0:
64,192,255321,1,0,0:0:0:0:
192,192,255321,1,0,0:0:0:0:
320,192,255434,1,0,0:0:0:0:
192,192,255548,1,0,0:0:0:0:
64,192,255775,1,0,0:0:0:0:
192,192,255889,1,0,0:0:0:0:
320,192,256003,1,0,0:0:0:0:
448,192,256116,1,0,0:0:0:0:
320,192,256230,1,0,0:0:0:0:
192,192,256344,1,0,0:0:0:0:
64,192,256457,1,0,0:0:0:0:
192,192,256571,1,0,0:0:0:0:
320,192,256684,1,0,0:0:0:0:
448,192,256798,1,0,0:0:0:0:
320,192,256912,1,0,0:0:0:0:
192,192,257025,1,0,0:0:0:0:
64,192,257139,1,0,0:0:0:0:
192,192,257253,1,0,0:0:0:0:
320,192,257366,1,0,0:0:0:0:
448,192,257480,1,0,0:0:0:0:
320,192,257594,1,0,0:0:0:0:
192,192,257707,1,0,0:0:0:0:
64,192,257821,1,0,0:0:0:0:
192,192,257934,1,0,0:0:0:0:
320,192,258048,1,0,0:0:0:0:
448,192,258162,1,0,0:0:0:0:
320,192,258275,1,0,0:0:0:0:
192,192,258389,1,0,0:0:0:0:
64,192,258503,1,0,0:0:0:0:
192,192,258616,1,0,0:0:0:0:
320,192,258730,1,0,0:0:0:0:
448,192,258844,1,0,0:0:0:0:
192,192,259071,1,0,0:0:0:0:
64,192,259071,1,0,0:0:0:0:
320,192,259071,1,4,0:0:0:0:
192,192,259525,1,4,0:0:0:0:
320,192,259525,1,0,0:0:0:0:
448,192,259525,1,0,0:0:0:0:
192,192,259980,1,0,0:0:0:0:
64,192,259980,1,0,0:0:0:0:
320,192,259980,1,4,0:0:0:0:
64,192,260321,1,0,0:0:0:0:
192,192,260434,1,4,0:0:0:0:
320,192,260434,1,0,0:0:0:0:
448,192,260434,1,0,0:0:0:0:
64,192,260889,1,0,0:0:0:0:
192,192,260889,1,0,0:0:0:0:
320,192,260889,1,4,0:0:0:0:
320,192,261344,1,0,0:0:0:0:
448,192,261344,1,0,0:0:0:0:
192,192,261344,1,4,0:0:0:0:
192,192,261684,1,4,0:0:0:0:
64,192,261684,1,0,0:0:0:0:
320,192,261684,1,0,0:0:0:0:
192,192,262139,1,0,0:0:0:0:
448,192,262139,1,0,0:0:0:0:
320,192,262253,1,0,0:0:0:0:
64,192,262366,1,0,0:0:0:0:
192,192,262594,1,4,0:0:0:0:
448,192,262594,1,0,0:0:0:0:
64,192,262594,1,0,0:0:0:0:
64,192,263048,1,0,0:0:0:0:
192,192,263048,1,4,0:0:0:0:
448,192,263048,1,0,0:0:0:0:
192,192,263503,1,0,0:0:0:0:
64,192,263503,1,0,0:0:0:0:
320,192,263503,1,4,0:0:0:0:
192,192,263957,1,0,0:0:0:0:
448,192,263957,1,0,0:0:0:0:
320,192,264184,1,0,0:0:0:0:
64,192,264184,1,0,0:0:0:0:
448,192,264412,1,0,0:0:0:0:
320,192,264412,1,0,0:0:0:0:
64,192,264639,1,0,0:0:0:0:
192,192,264866,1,0,0:0:0:0:
320,192,264866,1,0,0:0:0:0:
448,192,265094,1,0,0:0:0:0:
64,192,265321,1,0,0:0:0:0:
320,192,265548,1,0,0:0:0:0:
192,192,265775,1,0,0:0:0:0:
320,192,265889,1,0,0:0:0:0:
64,192,266230,1,0,0:0:0:0:
320,192,266571,1,0,0:0:0:0:
192,192,267025,1,0,0:0:0:0:
320,192,267480,1,0,0:0:0:0:
448,192,267594,1,0,0:0:0:0:
192,192,267821,1,0,0:0:0:0:
448,192,268048,1,0,0:0:0:0:
64,192,268275,1,0,0:0:0:0:
320,192,268503,1,0,0:0:0:0:
192,192,268730,1,0,0:0:0:0:
448,192,268957,1,0,0:0:0:0:
64,192,269184,1,0,0:0:0:0:
192,192,269412,1,0,0:0:0:0:
320,192,269525,1,0,0:0:0:0:
192,192,269866,1,0,0:0:0:0:
320,192,269980,1,0,0:0:0:0:
448,192,270094,1,0,0:0:0:0:
320,192,270207,1,0,0:0:0:0:
192,192,270321,1,0,0:0:0:0:
64,192,270434,1,0,0:0:0:0:
192,192,270548,1,0,0:0:0:0:
320,192,270662,1,0,0:0:0:0:
448,192,270775,1,0,0:0:0:0:
320,192,270889,1,0,0:0:0:0:
192,192,271003,1,0,0:0:0:0:
64,192,271116,1,0,0:0:0:0:
192,192,271230,1,0,0:0:0:0:
320,192,271344,1,0,0:0:0:0:
448,192,271457,1,0,0:0:0:0:
320,192,271571,1,0,0:0:0:0:
192,192,271684,1,0,0:0:0:0:
64,192,271798,1,0,0:0:0:0:
192,192,271912,1,0,0:0:0:0:
320,192,272025,1,0,0:0:0:0:
448,192,272139,1,0,0:0:0:0:
320,192,272253,1,0,0:0:0:0:
192,192,272366,1,0,0:0:0:0:
64,192,272480,1,0,0:0:0:0:
192,192,272594,1,0,0:0:0:0:
320,192,272707,1,0,0:0:0:0:
448,192,272821,1,0,0:0:0:0:
320,192,272934,1,0,0:0:0:0:
192,192,272934,1,0,0:0:0:0:
64,192,272934,1,0,0:0:0:0:
448,192,272934,1,0,0:0:0:0:
