osu file format v14

[General]
AudioFilename: audio.mp3
AudioLeadIn: 0
PreviewTime: -1
Countdown: 0
SampleSet: None
StackLeniency: 0.7
Mode: 1
LetterboxInBreaks: 0
WidescreenStoryboard: 1

[Editor]
DistanceSpacing: 0.8
BeatDivisor: 4
GridSize: 32
TimelineZoom: 0.8000001

[Metadata]
Title:Gengaozo
TitleUnicode:Gengaozo
Artist:
ArtistUnicode:
Creator:aEoNNzR-
Version:dkdkk
Source:
Tags:
BeatmapID:1252987
BeatmapSetID:592145

[Difficulty]
HPDrainRate:5
CircleSize:5
OverallDifficulty:5
ApproachRate:5
SliderMultiplier:1.4
SliderTickRate:1

[Events]
//Background and Video events
//Break Periods
//Storyboard Layer 0 (Background)
//Storyboard Layer 1 (Fail)
//Storyboard Layer 2 (Pass)
//Storyboard Layer 3 (Foreground)
//Storyboard Sound Samples

[TimingPoints]
2401,392.156862745098,4,1,0,100,1,0
52597,392.156862745098,4,1,0,100,1,0
90244,392.156862745098,4,1,0,100,1,0

[HitObjects]
256,192,52597,1,0,0:0:0:0:
256,192,52695,1,8,0:0:0:0:
256,192,52793,1,0,0:0:0:0:
256,192,52891,1,8,0:0:0:0:
256,192,52989,1,8,0:0:0:0:
256,192,53185,1,0,0:0:0:0:
256,192,53283,1,8,0:0:0:0:
256,192,53381,1,0,0:0:0:0:
256,192,53479,1,8,0:0:0:0:
256,192,53577,1,8,0:0:0:0:
256,192,53773,1,0,0:0:0:0:
256,192,53871,1,8,0:0:0:0:
256,192,53969,1,0,0:0:0:0:
256,192,54067,1,8,0:0:0:0:
256,192,54165,1,8,0:0:0:0:
256,192,54361,1,0,0:0:0:0:
256,192,54459,1,8,0:0:0:0:
256,192,54557,1,0,0:0:0:0:
256,192,54655,1,8,0:0:0:0:
256,192,54753,1,8,0:0:0:0:
256,192,54949,1,0,0:0:0:0:
256,192,55047,1,8,0:0:0:0:
256,192,55145,1,0,0:0:0:0:
256,192,55243,1,8,0:0:0:0:
256,192,55341,1,8,0:0:0:0:
256,192,55537,1,0,0:0:0:0:
256,192,55635,1,8,0:0:0:0:
256,192,55733,1,0,0:0:0:0:
256,192,55831,1,8,0:0:0:0:
256,192,55929,1,8,0:0:0:0:
256,192,56125,1,0,0:0:0:0:
256,192,56223,1,8,0:0:0:0:
256,192,56321,1,0,0:0:0:0:
256,192,56419,1,8,0:0:0:0:
256,192,56517,1,8,0:0:0:0:
256,192,56713,1,0,0:0:0:0:
256,192,56811,1,8,0:0:0:0:
256,192,56909,1,0,0:0:0:0:
256,192,57007,1,8,0:0:0:0:
256,192,57105,1,8,0:0:0:0:
256,192,57302,1,0,0:0:0:0:
256,192,57400,1,8,0:0:0:0:
256,192,57498,1,0,0:0:0:0:
256,192,57596,1,8,0:0:0:0:
256,192,57694,1,8,0:0:0:0:
256,192,57890,1,0,0:0:0:0:
256,192,57988,1,8,0:0:0:0:
256,192,58086,1,0,0:0:0:0:
256,192,58184,1,8,0:0:0:0:
256,192,58282,1,8,0:0:0:0:
256,192,58478,1,0,0:0:0:0:
256,192,58576,1,8,0:0:0:0:
256,192,58674,1,0,0:0:0:0:
256,192,58772,1,8,0:0:0:0:
256,192,58870,1,8,0:0:0:0:
256,192,59066,1,0,0:0:0:0:
256,192,59164,1,8,0:0:0:0:
256,192,59262,1,0,0:0:0:0:
256,192,59360,1,8,0:0:0:0:
256,192,59458,1,8,0:0:0:0:
256,192,59654,1,0,0:0:0:0:
256,192,59752,1,8,0:0:0:0:
256,192,59850,1,0,0:0:0:0:
256,192,59948,1,8,0:0:0:0:
256,192,60046,1,8,0:0:0:0:
256,192,60242,1,0,0:0:0:0:
256,192,60340,1,8,0:0:0:0:
256,192,60438,1,0,0:0:0:0:
256,192,60536,1,8,0:0:0:0:
256,192,60634,1,8,0:0:0:0:
256,192,60830,1,0,0:0:0:0:
256,192,60928,1,8,0:0:0:0:
256,192,61026,1,0,0:0:0:0:
256,192,61124,1,8,0:0:0:0:
256,192,61222,1,8,0:0:0:0:
256,192,61418,1,0,0:0:0:0:
256,192,61516,1,8,0:0:0:0:
256,192,61614,1,0,0:0:0:0:
256,192,61712,1,8,0:0:0:0:
256,192,61810,1,8,0:0:0:0:
256,192,62008,1,0,0:0:0:0:
256,192,62106,1,8,0:0:0:0:
256,192,62204,1,0,0:0:0:0:
256,192,62302,1,8,0:0:0:0:
256,192,62400,1,8,0:0:0:0:
256,192,62596,1,0,0:0:0:0:
256,192,62694,1,8,0:0:0:0:
256,192,62792,1,0,0:0:0:0:
256,192,62890,1,8,0:0:0:0:
256,192,62988,1,8,0:0:0:0:
256,192,63184,1,0,0:0:0:0:
256,192,63282,1,8,0:0:0:0:
256,192,63380,1,0,0:0:0:0:
256,192,63478,1,8,0:0:0:0:
256,192,63576,1,8,0:0:0:0:
256,192,63772,1,0,0:0:0:0:
256,192,63870,1,8,0:0:0:0:
256,192,63968,1,0,0:0:0:0:
256,192,64066,1,8,0:0:0:0:
256,192,64164,1,8,0:0:0:0:
256,192,64360,1,0,0:0:0:0:
256,192,64458,1,8,0:0:0:0:
256,192,64556,1,0,0:0:0:0:
256,192,64654,1,8,0:0:0:0:
256,192,64752,1,8,0:0:0:0:
256,192,64948,1,0,0:0:0:0:
256,192,65046,1,8,0:0:0:0:
256,192,65144,1,0,0:0:0:0:
256,192,65242,1,8,0:0:0:0:
256,192,65340,1,8,0:0:0:0:
256,192,65536,1,0,0:0:0:0:
256,192,65634,1,8,0:0:0:0:
256,192,65732,1,0,0:0:0:0:
256,192,65830,1,8,0:0:0:0:
256,192,65928,1,8,0:0:0:0:
256,192,66124,1,0,0:0:0:0:
256,192,66222,1,8,0:0:0:0:
256,192,66320,1,0,0:0:0:0:
256,192,66418,1,8,0:0:0:0:
256,192,66516,1,8,0:0:0:0:
256,192,66713,1,0,0:0:0:0:
256,192,66811,1,8,0:0:0:0:
256,192,66909,1,0,0:0:0:0:
256,192,67007,1,8,0:0:0:0:
256,192,67105,1,8,0:0:0:0:
256,192,67301,1,0,0:0:0:0:
256,192,67399,1,8,0:0:0:0:
256,192,67497,1,0,0:0:0:0:
256,192,67595,1,8,0:0:0:0:
256,192,67693,1,8,0:0:0:0:
256,192,67889,1,0,0:0:0:0:
256,192,67987,1,8,0:0:0:0:
256,192,68085,1,0,0:0:0:0:
256,192,68183,1,8,0:0:0:0:
256,192,68281,1,8,0:0:0:0:
256,192,68477,1,0,0:0:0:0:
256,192,68575,1,8,0:0:0:0:
256,192,68673,1,0,0:0:0:0:
256,192,68771,1,8,0:0:0:0:
256,192,68869,1,8,0:0:0:0:
256,192,69065,1,0,0:0:0:0:
256,192,69163,1,8,0:0:0:0:
256,192,69261,1,0,0:0:0:0:
256,192,69359,1,8,0:0:0:0:
256,192,69457,1,8,0:0:0:0:
256,192,69653,1,0,0:0:0:0:
256,192,69751,1,8,0:0:0:0:
256,192,69849,1,0,0:0:0:0:
256,192,69947,1,8,0:0:0:0:
256,192,70045,1,8,0:0:0:0:
256,192,70241,1,0,0:0:0:0:
256,192,70339,1,8,0:0:0:0:
256,192,70437,1,0,0:0:0:0:
256,192,70535,1,8,0:0:0:0:
256,192,70633,1,8,0:0:0:0:
256,192,70829,1,0,0:0:0:0:
256,192,70927,1,8,0:0:0:0:
256,192,71025,1,0,0:0:0:0:
256,192,71123,1,8,0:0:0:0:
256,192,71221,1,8,0:0:0:0:
256,192,71420,1,0,0:0:0:0:
256,192,71518,1,8,0:0:0:0:
256,192,71616,1,0,0:0:0:0:
256,192,71714,1,8,0:0:0:0:
256,192,71812,1,8,0:0:0:0:
256,192,72008,1,0,0:0:0:0:
256,192,72106,1,8,0:0:0:0:
256,192,72204,1,0,0:0:0:0:
256,192,72302,1,8,0:0:0:0:
256,192,72400,1,8,0:0:0:0:
256,192,72596,1,0,0:0:0:0:
256,192,72694,1,8,0:0:0:0:
256,192,72792,1,0,0:0:0:0:
256,192,72890,1,8,0:0:0:0:
256,192,72988,1,8,0:0:0:0:
256,192,73184,1,0,0:0:0:0:
256,192,73282,1,8,0:0:0:0:
256,192,73380,1,0,0:0:0:0:
256,192,73478,1,8,0:0:0:0:
256,192,73576,1,8,0:0:0:0:
256,192,73772,1,0,0:0:0:0:
256,192,73870,1,8,0:0:0:0:
256,192,73968,1,0,0:0:0:0:
256,192,74066,1,8,0:0:0:0:
256,192,74164,1,8,0:0:0:0:
256,192,74360,1,0,0:0:0:0:
256,192,74458,1,8,0:0:0:0:
256,192,74556,1,0,0:0:0:0:
256,192,74654,1,8,0:0:0:0:
256,192,74752,1,8,0:0:0:0:
256,192,74948,1,0,0:0:0:0:
256,192,75046,1,8,0:0:0:0:
256,192,75144,1,0,0:0:0:0:
256,192,75242,1,8,0:0:0:0:
256,192,75340,1,8,0:0:0:0:
256,192,75536,1,0,0:0:0:0:
256,192,75634,1,8,0:0:0:0:
256,192,75732,1,0,0:0:0:0:
256,192,75830,1,8,0:0:0:0:
256,192,75928,1,8,0:0:0:0:
256,192,76125,1,0,0:0:0:0:
256,192,76223,1,8,0:0:0:0:
256,192,76321,1,0,0:0:0:0:
256,192,76419,1,8,0:0:0:0:
256,192,76517,1,8,0:0:0:0:
256,192,76713,1,0,0:0:0:0:
256,192,76811,1,8,0:0:0:0:
256,192,76909,1,0,0:0:0:0:
256,192,77007,1,8,0:0:0:0:
256,192,77105,1,8,0:0:0:0:
256,192,77301,1,0,0:0:0:0:
256,192,77399,1,8,0:0:0:0:
256,192,77497,1,0,0:0:0:0:
256,192,77595,1,8,0:0:0:0:
256,192,77693,1,8,0:0:0:0:
256,192,77889,1,0,0:0:0:0:
256,192,77987,1,8,0:0:0:0:
256,192,78085,1,0,0:0:0:0:
256,192,78183,1,8,0:0:0:0:
256,192,78281,1,8,0:0:0:0:
256,192,78477,1,0,0:0:0:0:
256,192,78575,1,8,0:0:0:0:
256,192,78673,1,0,0:0:0:0:
256,192,78771,1,8,0:0:0:0:
256,192,78869,1,8,0:0:0:0:
256,192,79065,1,0,0:0:0:0:
256,192,79163,1,8,0:0:0:0:
256,192,79261,1,0,0:0:0:0:
256,192,79359,1,8,0:0:0:0:
256,192,79457,1,8,0:0:0:0:
256,192,79653,1,0,0:0:0:0:
256,192,79751,1,8,0:0:0:0:
256,192,79849,1,0,0:0:0:0:
256,192,79947,1,8,0:0:0:0:
256,192,80045,1,8,0:0:0:0:
256,192,80241,1,0,0:0:0:0:
256,192,80339,1,8,0:0:0:0:
256,192,80437,1,0,0:0:0:0:
256,192,80535,1,8,0:0:0:0:
256,192,80633,1,8,0:0:0:0:
256,192,80831,1,0,0:0:0:0:
256,192,80929,1,8,0:0:0:0:
256,192,81027,1,0,0:0:0:0:
256,192,81125,1,8,0:0:0:0:
256,192,81223,1,8,0:0:0:0:
256,192,81419,1,0,0:0:0:0:
256,192,81517,1,8,0:0:0:0:
256,192,81615,1,0,0:0:0:0:
256,192,81713,1,8,0:0:0:0:
256,192,81811,1,8,0:0:0:0:
256,192,82007,1,0,0:0:0:0:
256,192,82105,1,8,0:0:0:0:
256,192,82203,1,0,0:0:0:0:
256,192,82301,1,8,0:0:0:0:
256,192,82399,1,8,0:0:0:0:
256,192,82595,1,0,0:0:0:0:
256,192,82693,1,8,0:0:0:0:
256,192,82791,1,0,0:0:0:0:
256,192,82889,1,8,0:0:0:0:
256,192,82987,1,8,0:0:0:0:
256,192,83183,1,0,0:0:0:0:
256,192,83281,1,8,0:0:0:0:
256,192,83379,1,0,0:0:0:0:
256,192,83477,1,8,0:0:0:0:
256,192,83575,1,8,0:0:0:0:
256,192,83771,1,0,0:0:0:0:
256,192,83869,1,8,0:0:0:0:
256,192,83967,1,0,0:0:0:0:
256,192,84065,1,8,0:0:0:0:
256,192,84163,1,8,0:0:0:0:
256,192,84359,1,0,0:0:0:0:
256,192,84457,1,8,0:0:0:0:
256,192,84555,1,0,0:0:0:0:
256,192,84653,1,8,0:0:0:0:
256,192,84751,1,8,0:0:0:0:
256,192,84947,1,0,0:0:0:0:
256,192,85045,1,8,0:0:0:0:
256,192,85143,1,0,0:0:0:0:
256,192,85241,1,8,0:0:0:0:
256,192,85339,1,8,0:0:0:0:
256,192,85536,1,0,0:0:0:0:
256,192,85634,1,8,0:0:0:0:
256,192,85732,1,0,0:0:0:0:
256,192,85830,1,8,0:0:0:0:
256,192,85928,1,8,0:0:0:0:
256,192,86124,1,0,0:0:0:0:
256,192,86222,1,8,0:0:0:0:
256,192,86320,1,0,0:0:0:0:
256,192,86418,1,8,0:0:0:0:
256,192,86516,1,8,0:0:0:0:
256,192,86712,1,0,0:0:0:0:
256,192,86810,1,8,0:0:0:0:
256,192,86908,1,0,0:0:0:0:
256,192,87006,1,8,0:0:0:0:
256,192,87104,1,8,0:0:0:0:
256,192,87300,1,0,0:0:0:0:
256,192,87398,1,8,0:0:0:0:
256,192,87496,1,0,0:0:0:0:
256,192,87594,1,8,0:0:0:0:
256,192,87692,1,8,0:0:0:0:
256,192,87888,1,0,0:0:0:0:
256,192,87986,1,8,0:0:0:0:
256,192,88084,1,0,0:0:0:0:
256,192,88182,1,8,0:0:0:0:
256,192,88280,1,8,0:0:0:0:
256,192,88476,1,0,0:0:0:0:
256,192,88574,1,8,0:0:0:0:
256,192,88672,1,0,0:0:0:0:
256,192,88770,1,8,0:0:0:0:
256,192,88868,1,8,0:0:0:0:
256,192,89064,1,0,0:0:0:0:
256,192,89162,1,8,0:0:0:0:
256,192,89260,1,0,0:0:0:0:
256,192,89358,1,8,0:0:0:0:
256,192,89456,1,8,0:0:0:0:
256,192,89652,1,0,0:0:0:0:
256,192,89750,1,8,0:0:0:0:
256,192,89848,1,0,0:0:0:0:
256,192,89946,1,8,0:0:0:0:
256,192,90044,1,8,0:0:0:0:
