osu file format v14

[General]
AudioFilename: audio.mp3
AudioLeadIn: 0
PreviewTime: -1
Countdown: 1
SampleSet: None
StackLeniency: 0.7
Mode: 1
LetterboxInBreaks: 0
WidescreenStoryboard: 1

[Editor]
DistanceSpacing: 0.6
BeatDivisor: 4
GridSize: 32
TimelineZoom: 1

[Metadata]
Title:Yamanoted Heaven
TitleUnicode:Yamanoted Heaven
Artist:
ArtistUnicode:山手線
Creator:Zoel
Version:train-drums
Source:
Tags:
BeatmapID:2106462
BeatmapSetID:1006518

[Difficulty]
HPDrainRate:6
CircleSize:4
OverallDifficulty:5
ApproachRate:4
SliderMultiplier:1.99999990463257
SliderTickRate:1

[Events]
//Background and Video events
0,0,"2019_01.jpg",0,0
//Break Periods
//Storyboard Layer 0 (Background)
//Storyboard Layer 1 (Fail)
//Storyboard Layer 2 (Pass)
//Storyboard Layer 3 (Foreground)
//Storyboard Sound Samples

[TimingPoints]
77,402.684563758389,4,1,0,100,1,0
6400,-100,4,1,0,100,0,0
20211,-66.6666666666667,4,1,0,100,0,0
23634,-76.9230769230769,4,1,0,100,0,0

[HitObjects]
182,160,178,5,0,0:0:0:0:
182,160,379,1,0,0:0:0:0:
182,160,580,1,0,0:0:0:0:
249,162,781,1,0,0:0:0:0:
271,160,882,1,8,0:0:0:0:
249,162,983,1,2,0:0:0:0:
251,162,1084,1,2,0:0:0:0:
256,161,1184,1,0,0:0:0:0:
249,164,1285,1,0,0:0:0:0:
249,164,1386,1,0,0:0:0:0:
254,164,1486,1,8,0:0:0:0:
206,164,1687,1,0,0:0:0:0:
206,164,1889,1,0,0:0:0:0:
206,164,2090,1,0,0:0:0:0:
285,175,2291,1,8,0:0:0:0:
285,175,2493,1,8,0:0:0:0:
285,175,2694,1,8,0:0:0:0:
218,176,2895,1,0,0:0:0:0:
285,175,3097,1,8,0:0:0:0:
218,176,3298,1,0,0:0:0:0:
285,175,3499,1,8,0:0:0:0:
218,176,3701,1,0,0:0:0:0:
285,175,3902,1,8,0:0:0:0:
218,176,4103,1,0,0:0:0:0:
285,175,4305,1,8,0:0:0:0:
218,176,4506,1,0,0:0:0:0:
240,162,4707,1,0,0:0:0:0:
258,176,4909,1,0,0:0:0:0:
254,177,5110,1,0,0:0:0:0:
254,176,5211,1,0,0:0:0:0:
258,180,5311,1,8,0:0:0:0:
258,176,5513,1,0,0:0:0:0:
254,176,5714,1,0,0:0:0:0:
245,177,5815,1,8,0:0:0:0:
246,182,5915,1,0,0:0:0:0:
258,176,6117,1,0,0:0:0:0:
228,173,6318,1,8,0:0:0:0:
233,174,6419,1,0,0:0:0:0:
166,212,6519,1,0,0:0:0:0:
149,154,6620,1,0,0:0:0:0:
149,154,6721,1,0,0:0:0:0:
149,154,6821,1,0,0:0:0:0:
253,164,6922,5,8,0:0:0:0:
296,162,7123,1,8,0:0:0:0:
185,154,7325,1,0,0:0:0:0:
185,154,7526,1,0,0:0:0:0:
185,154,7728,1,0,0:0:0:0:
185,154,7828,1,0,0:0:0:0:
185,154,7929,1,0,0:0:0:0:
256,192,8130,12,0,8734,0:0:0:0:
256,192,8936,12,0,9540,0:0:0:0:
268,168,9741,5,0,0:0:0:0:
268,168,9943,1,0,0:0:0:0:
268,168,10144,1,8,0:0:0:0:
268,168,10345,1,8,0:0:0:0:
268,168,10546,1,0,0:0:0:0:
268,168,10647,1,0,0:0:0:0:
274,168,10748,1,8,0:0:0:0:
273,168,10848,1,8,0:0:0:0:
273,168,10949,1,8,0:0:0:0:
268,168,11150,1,0,0:0:0:0:
268,168,11251,1,0,0:0:0:0:
268,168,11352,1,0,0:0:0:0:
277,170,11553,1,0,0:0:0:0:
274,168,11754,1,0,0:0:0:0:
271,174,11956,1,0,0:0:0:0:
273,168,12157,1,8,0:0:0:0:
274,169,12257,1,8,0:0:0:0:
268,168,12358,1,0,0:0:0:0:
270,170,12459,1,0,0:0:0:0:
266,175,12560,1,8,0:0:0:0:
256,192,12761,12,0,13566,0:0:0:0:
256,192,13768,12,0,14372,0:0:0:0:
256,192,14573,5,0,0:0:0:0:
256,192,14774,1,0,0:0:0:0:
256,192,14976,1,0,0:0:0:0:
256,192,15177,1,0,0:0:0:0:
256,192,15278,1,0,0:0:0:0:
256,192,15379,1,0,0:0:0:0:
256,192,15580,1,8,0:0:0:0:
256,192,15781,1,8,0:0:0:0:
256,192,15882,1,8,0:0:0:0:
256,192,15983,1,8,0:0:0:0:
256,192,16083,1,0,0:0:0:0:
256,192,16184,1,0,0:0:0:0:
256,192,16285,1,0,0:0:0:0:
256,192,16385,1,8,0:0:0:0:
256,192,16587,1,0,0:0:0:0:
256,192,16687,1,0,0:0:0:0:
256,192,16788,1,0,0:0:0:0:
256,192,16989,1,0,0:0:0:0:
256,192,17191,1,2,0:0:0:0:
256,192,17392,1,0,0:0:0:0:
256,192,17593,1,2,0:0:0:0:
256,192,17795,1,0,0:0:0:0:
269,193,17996,1,8,0:0:0:0:
258,205,18197,1,0,0:0:0:0:
266,198,18399,1,8,0:0:0:0:
264,200,18499,1,8,0:0:0:0:
258,196,18600,1,0,0:0:0:0:
258,196,18801,1,0,0:0:0:0:
269,193,19003,1,8,0:0:0:0:
275,203,19204,1,0,0:0:0:0:
275,204,19305,1,0,0:0:0:0:
266,198,19405,1,0,0:0:0:0:
266,195,19607,1,0,0:0:0:0:
266,195,19707,1,0,0:0:0:0:
266,195,19808,1,0,0:0:0:0:
269,193,20009,1,0,0:0:0:0:
266,196,20211,2,12,B|623:196|448:192,2,224.999997854233
264,200,20915,1,0,0:0:0:0:
263,202,21016,1,0,0:0:0:0:
264,200,21217,1,8,0:0:0:0:
264,200,21419,1,8,0:0:0:0:
272,195,21620,1,0,0:0:0:0:
264,200,21721,1,0,0:0:0:0:
264,200,21821,1,0,0:0:0:0:
270,197,22022,1,0,0:0:0:0:
270,197,22123,1,0,0:0:0:0:
268,204,22224,1,0,0:0:0:0:
268,204,22425,1,0,0:0:0:0:
259,200,22627,1,8,0:0:0:0:
264,200,22728,1,8,0:0:0:0:
264,200,22828,1,8,0:0:0:0:
270,197,23030,1,0,0:0:0:0:
269,197,23231,1,8,0:0:0:0:
268,196,23332,1,0,0:0:0:0:
268,197,23433,1,0,0:0:0:0:
271,193,23634,1,0,0:0:0:0:
267,188,23835,1,8,0:0:0:0:
267,188,23936,1,8,0:0:0:0:
262,182,24036,1,0,0:0:0:0:
264,184,24238,1,0,0:0:0:0:
264,185,24338,1,0,0:0:0:0:
263,192,24439,1,8,0:0:0:0:
262,187,24640,1,0,0:0:0:0:
267,188,24741,1,0,0:0:0:0:
259,186,24842,1,0,0:0:0:0:
264,186,25043,1,8,0:0:0:0:
262,182,25144,1,0,0:0:0:0:
264,184,25244,1,0,0:0:0:0:
264,185,25345,1,0,0:0:0:0:
263,192,25446,1,0,0:0:0:0:
262,187,25546,1,8,0:0:0:0:
262,187,25647,1,8,0:0:0:0:
258,188,25748,1,8,0:0:0:0:
259,186,25848,1,2,0:0:0:0:
261,191,25949,1,0,0:0:0:0:
262,192,26049,1,0,0:0:0:0:
264,184,26251,1,8,0:0:0:0:
261,184,26452,1,0,0:0:0:0:
256,182,26654,1,0,0:0:0:0:
259,179,26754,1,0,0:0:0:0:
256,182,26855,1,8,0:0:0:0:
257,179,26956,1,8,0:0:0:0:
256,183,27056,1,0,0:0:0:0:
253,179,27156,1,8,0:0:0:0:
264,184,27258,1,0,0:0:0:0:
256,192,27459,12,0,29070,0:0:0:0:
