osu file format v14

[General]
AudioFilename: audio.mp3
AudioLeadIn: 0
PreviewTime: -1
Countdown: 1
SampleSet: None
StackLeniency: 0.7
Mode: 0
LetterboxInBreaks: 0
WidescreenStoryboard: 0

[Editor]
DistanceSpacing: 0.8
BeatDivisor: 4
GridSize: 16
TimelineZoom: 1

[Metadata]
Title:Life Will Change -instrumental version-
TitleUnicode:Life Will Change -instrumental version-
Artist:
ArtistUnicode:目黒将司
Creator:Zethchi
Version:Normal
Source:Persona
Tags:Persona
BeatmapID:1276567
BeatmapSetID:604235

[Difficulty]
HPDrainRate:6
CircleSize:3
OverallDifficulty:6
ApproachRate:9
SliderMultiplier:2
SliderTickRate:1

[Events]
//Background and Video events
0,0,"Life Will Change.jpg",0,0
//Break Periods
2,72608,79613
//Storyboard Layer 0 (Background)
//Storyboard Layer 1 (Fail)
//Storyboard Layer 2 (Pass)
//Storyboard Layer 3 (Foreground)
//Storyboard Sound Samples

[TimingPoints]
819,454.53846153846,4,1,0,100,1,0

[HitObjects]
0,112,364,5,0,2:0:0:0:
96,208,819,1,0,2:0:0:0:
192,112,1273,1,0,2:0:0:0:
305,209,1728,1,0,0:0:0:0:
417,109,2182,5,0,2:0:0:0:
306,204,2637,1,0,2:0:0:0:
417,322,3091,1,0,2:0:0:0:
510,189,3546,1,0,1:0:0:0:
388,50,4000,5,0,2:0:0:0:
250,188,4455,1,0,2:0:0:0:
125,49,4909,1,0,2:0:0:0:
1,191,5364,1,0,1:0:0:0:
99,337,5818,5,0,2:0:0:0:
227,193,6273,1,0,2:0:0:0:
352,337,6727,1,0,2:0:0:0:
471,197,7182,1,0,1:0:0:0:
377,62,7637,5,0,2:0:0:0:
294,183,7864,1,0,2:0:0:0:
214,64,8091,5,0,2:0:0:0:
129,184,8318,1,0,2:0:0:0:
223,301,8546,5,0,2:0:0:0:
294,183,8773,1,0,2:0:0:0:
387,313,9000,5,0,2:0:0:0:
458,184,9227,1,0,2:0:0:0:
391,54,9455,5,0,2:0:0:0:
298,176,9682,1,0,2:0:0:0:
198,57,9909,5,0,2:0:0:0:
123,176,10137,1,0,2:0:0:0:
206,324,10364,5,0,2:0:0:0:
298,176,10591,1,0,2:0:0:0:
391,327,10818,5,0,2:0:0:0:
470,177,11046,1,0,2:0:0:0:
194,50,11273,5,0,2:0:0:0:
292,155,11500,1,0,2:0:0:0:
157,196,11727,1,0,2:0:0:0:
255,292,11955,1,0,2:0:0:0:
383,195,12182,2,0,P|430:161|469:177,1,100,0|0,2:0|2:0,2:0:0:0:
378,43,12636,2,0,P|325:45|299:88,1,100,0|0,2:0|2:0,2:0:0:0:
215,70,13091,5,0,2:0:0:0:
104,101,13318,1,0,2:0:0:0:
38,208,13546,1,0,2:0:0:0:
81,318,13773,1,0,2:0:0:0:
187,225,14000,2,0,P|176:173|217:145,1,100
308,237,14455,2,0,P|330:294|286:328,1,100
272,244,14796,1,0,2:0:0:0:
424,192,14909,5,0,1:0:0:0:
343,62,15136,1,0,2:0:0:0:
273,190,15364,1,8,1:0:0:0:
184,69,15591,1,0,2:3:0:0:
78,188,15818,5,0,1:0:0:0:
197,263,16046,1,0,2:0:0:0:
321,189,16273,1,8,1:0:0:0:
444,252,16500,1,0,2:0:0:0:
443,103,16727,5,0,1:0:0:0:
332,195,16955,1,0,2:0:0:0:
205,97,17182,1,8,1:0:0:0:
86,201,17409,1,0,2:0:0:0:
237,334,17636,5,0,1:0:0:0:
191,200,17864,1,0,2:0:0:0:
325,164,18091,1,8,1:0:0:0:
286,34,18318,1,0,2:0:0:0:
77,88,18545,5,0,1:0:0:0:
121,192,18773,1,0,2:0:0:0:
252,147,19000,1,8,1:0:0:0:
316,265,19227,1,0,2:0:0:0:
249,88,19455,5,0,1:0:0:0:
131,281,19682,1,0,2:0:0:0:
249,88,19909,1,8,1:0:0:0:
377,285,20136,1,0,2:0:0:0:
131,281,20364,5,0,1:0:0:0:
255,88,20591,1,0,2:0:0:0:
131,281,20818,1,8,1:0:0:0:
377,285,21045,1,0,2:0:0:0:
377,285,21273,5,0,1:0:0:0:
255,88,21500,1,0,2:0:0:0:
377,285,21727,1,8,1:0:0:0:
131,280,21955,1,0,2:0:0:0:
120,87,22182,5,0,1:0:0:0:
298,232,22409,1,0,2:0:0:0:
209,160,22636,1,8,1:0:0:0:
388,316,22864,1,0,2:0:0:0:
379,90,23091,5,0,1:0:0:0:
205,235,23318,1,0,2:0:0:0:
294,163,23545,1,8,1:0:0:0:
115,315,23773,1,0,2:0:0:0:
165,74,24000,5,0,1:0:0:0:
294,37,24227,1,0,2:0:0:0:
413,88,24454,1,8,1:0:0:0:
468,209,24682,1,0,2:0:0:0:
307,328,24909,5,0,1:0:0:0:
176,347,25136,1,0,2:0:0:0:
70,280,25364,1,8,1:0:0:0:
33,171,25591,1,0,2:0:0:0:
255,86,25818,5,0,1:0:0:0:
130,208,26045,1,0,2:0:0:0:
377,173,26273,1,8,1:0:0:0:
268,293,26500,1,0,2:0:0:0:
257,58,26727,5,8,3:0:0:0:
400,188,26954,1,8,0:0:0:0:
101,204,27182,1,0,1:0:0:0:
236,335,27409,1,0,0:0:0:0:
259,193,27636,1,4,0:0:0:0:
80,75,28318,5,0,2:0:0:0:
80,75,28432,1,0,2:0:0:0:
80,75,28545,2,0,P|81:136|118:136,3,100
212,140,29454,1,0,1:0:0:0:
433,60,30136,5,0,2:0:0:0:
433,60,30250,1,0,2:0:0:0:
433,60,30363,2,2,P|359:68|355:99,1,100,2|2,1:3|1:3,1:3:0:0:
408,202,30818,1,0,0:0:0:0:
248,168,31045,1,2,2:0:0:0:
248,168,31159,1,0,0:0:0:0:
248,168,31273,1,8,1:0:0:0:
307,305,31500,1,2,2:0:0:0:
307,305,31613,1,0,0:0:0:0:
307,305,31727,1,8,1:0:0:0:
128,282,31954,1,2,2:0:0:0:
128,282,32068,1,0,0:0:0:0:
128,282,32182,1,8,1:0:0:0:
65,133,32409,1,2,2:0:0:0:
65,133,32523,1,0,0:0:0:0:
65,133,32636,1,8,1:0:0:0:
221,57,32863,2,0,L|270:73,2,50,0|0|0,3:0|3:0|3:0,3:0:0:0:
288,189,33318,6,0,L|337:208,2,50,0|0|0,3:0|3:0|3:0,3:0:0:0:
335,340,33773,6,0,L|383:362,2,50,0|0|0,3:0|3:0|3:0,3:0:0:0:
157,310,34227,2,0,B|234:122|234:122|345:121|345:121|370:187|315:218|314:217|314:217|231:218|231:218|231:220,1,500
448,95,35591,5,0,0:0:0:0:
326,161,35818,2,0,B|360:267|360:267|360:268,1,100,0|0,1:0|1:0,1:0:0:0:
356,256,36159,1,4,2:0:0:0:
232,320,36500,2,0,L|183:197,1,100,0|0,1:0|1:0,1:0:0:0:
194,227,36954,1,8,1:0:0:0:
161,86,37409,5,0,2:0:0:0:
39,199,37636,2,0,L|117:270,1,100,0|0,1:0|1:0,1:0:0:0:
117,259,37977,1,4,0:0:0:0:
239,133,38318,2,0,L|322:189,1,100,0|0,1:0|1:0,1:0:0:0:
327,188,38772,1,8,0:0:0:0:
199,184,39227,5,0,0:0:0:0:
316,251,39454,1,0,0:0:0:0:
422,158,39682,1,0,0:0:0:0:
417,48,40079,2,2,B|265:47|265:47|242:106|242:106|243:107,1,200
248,92,40988,1,0,2:0:0:0:
319,110,41102,1,0,0:0:0:0:
374,154,41216,2,0,B|359:273|332:304|245:320|225:322|221:321|224:322|224:322|155:323,3,300,0|0|0|0,1:0|1:0|1:0|1:0,1:0:0:0:
201,98,43716,5,0,2:0:0:0:
157,98,43829,1,0,0:0:0:0:
117,100,43943,2,0,L|14:284,1,200,0|0,1:0|1:0,1:0:0:0:
19,274,44625,2,0,L|119:275,1,100
74,178,45079,2,0,L|182:178,1,100
269,80,45591,5,8,1:0:0:0:
275,82,45704,1,8,0:0:0:0:
408,263,45931,5,8,0:0:0:0:
408,263,46045,1,8,0:0:0:0:
246,129,46386,5,0,2:0:0:0:
194,170,46500,1,0,0:0:0:0:
176,232,46613,1,0,2:0:0:0:
185,301,46727,1,0,2:0:0:0:
377,318,47409,5,0,0:0:0:0:
334,260,47522,1,0,0:0:0:0:
247,200,47636,2,0,B|349:200|349:200|394:115|358:66|358:66|307:66|307:66|254:67,1,300,0|0,1:0|1:0,1:0:0:0:
232,68,48545,2,0,L|171:364,1,300,0|0,1:0|1:0,1:0:0:0:
54,169,49454,5,8,0:0:0:0:
54,169,49568,1,8,0:0:0:0:
352,233,49795,5,8,0:0:0:0:
352,233,49909,1,8,0:0:0:0:
189,52,50136,5,0,3:0:0:0:
230,108,50250,1,0,0:0:0:0:
201,170,50363,1,0,0:0:0:0:
251,215,50477,1,0,0:0:0:0:
215,272,50590,1,4,0:0:0:0:
414,164,50988,5,0,0:0:0:0:
379,101,51102,1,0,0:0:0:0:
311,80,51215,2,0,B|250:100|211:135|194:179|209:207|236:247|280:260|333:264|336:264|336:264,1,300
335,263,52125,2,0,B|383:290|407:334|366:358|301:374|246:371|148:371|148:371|151:371,1,300
42,273,53090,5,8,1:0:0:0:
42,273,53204,1,8,1:0:0:0:
345,339,53431,5,8,1:0:0:0:
345,339,53545,1,8,1:0:0:0:
66,86,53772,5,0,2:0:0:0:
130,49,53886,1,0,2:0:0:0:
195,36,53999,1,0,2:0:0:0:
265,33,54113,1,0,2:0:0:0:
332,38,54227,2,2,B|392:48|441:68|497:144,1,200
66,95,54909,2,0,B|264:34|264:34|176:120|176:120|153:337|153:337|100:359|61:328|61:328|25:286,1,700
230,273,56727,2,2,B|261:231|288:228|313:240|324:255|330:278|322:300|305:318|277:316|251:313|242:289|227:264|230:264,1,200
250,293,57409,5,0,2:0:0:0:
294,235,57522,1,0,0:0:0:0:
352,191,57636,1,0,2:0:0:0:
419,169,57749,1,0,2:0:0:0:
490,168,57863,1,0,0:0:0:0:
479,100,57977,1,0,0:0:0:0:
426,59,58090,1,0,2:0:0:0:
359,42,58204,1,0,2:0:0:0:
291,35,58318,2,0,B|204:49|162:69|125:106|112:142|108:176|121:210|155:248|174:257|174:257,1,300
146,229,59227,2,2,B|212:270|281:240|248:242|265:223,1,100
242,247,59682,5,0,0:0:0:0:
313,240,59795,1,0,0:0:0:0:
376,211,59909,1,0,0:0:0:0:
407,119,60136,5,8,0:0:0:0:
407,119,60250,1,8,0:0:0:0:
252,344,60477,5,8,0:0:0:0:
252,344,60591,1,8,0:0:0:0:
286,211,60931,5,0,0:0:0:0:
219,205,61045,1,0,0:0:0:0:
189,142,61158,1,0,0:0:0:0:
124,161,61272,1,0,0:0:0:0:
155,118,61386,1,0,0:0:0:0:
224,80,61499,1,0,0:0:0:0:
288,57,61613,1,0,0:0:0:0:
364,61,61727,1,0,0:0:0:0:
288,57,61840,1,0,0:0:0:0:
224,80,61954,5,0,0:0:0:0:
158,110,62068,1,0,0:0:0:0:
108,162,62181,2,2,B|81:220|79:263|96:272|96:272|96:256|96:256|144:208,1,200
192,160,62863,2,0,P|256:144|272:160,2,50
400,192,63318,5,8,0:0:0:0:
400,192,63432,1,8,0:0:0:0:
272,320,63658,5,8,0:0:0:0:
272,320,63772,1,8,0:0:0:0:
160,128,64568,5,0,0:0:0:0:
208,178,64682,1,0,0:0:0:0:
239,249,64795,1,0,0:0:0:0:
245,324,64909,1,0,0:0:0:0:
370,248,65136,1,0,1:0:0:0:
370,248,65249,1,4,0:0:0:0:
112,296,65477,1,0,2:0:0:0:
127,240,65590,1,0,2:0:0:0:
180,207,65704,6,2,B|238:226|253:271|244:291|194:298|164:305|227:318,1,150,2|2,1:0|1:0,1:0:0:0:
275,288,66272,2,0,L|303:238,4,50
453,151,66954,5,8,0:0:0:0:
453,151,67067,1,8,0:0:0:0:
225,81,67294,5,8,0:0:0:0:
225,81,67408,1,8,0:0:0:0:
116,187,67863,6,0,L|154:233,1,50
260,181,68090,2,0,L|297:144,1,50
402,185,68317,2,0,L|436:224,1,50
154,248,68544,2,0,L|125:202,1,50
117,172,68772,5,0,0:0:0:0:
129,140,68886,1,0,0:0:0:0:
158,114,68999,1,0,0:0:0:0:
202,94,69113,2,0,B|239:94|271:103|300:121|320:146|319:155|319:155|319:147,1,100
295,124,69454,2,0,B|221:351|221:351|484:93|484:93|506:188,1,700
110,83,71272,5,0,2:0:0:0:
92,124,71386,1,0,2:0:0:0:
95,176,71499,1,0,0:0:0:0:
122,220,71613,1,0,0:0:0:0:
171,238,71726,1,0,2:0:0:0:
227,217,71840,1,0,2:0:0:0:
278,197,71954,1,0,0:0:0:0:
330,204,72067,1,0,0:0:0:0:
384,238,72181,1,0,2:0:0:0:
420,293,72295,1,0,2:0:0:0:
395,360,72408,1,0,0:0:0:0:
123,85,80363,5,0,0:0:0:0:
219,192,80590,1,0,2:0:0:0:
320,86,80817,1,8,0:0:0:0:
219,192,81045,1,0,2:0:0:0:
320,86,81272,5,0,0:0:0:0:
428,197,81499,1,0,2:0:0:0:
501,86,81726,1,8,0:0:0:0:
428,197,81954,1,0,2:0:0:0:
506,331,82181,5,0,0:0:0:0:
428,197,82408,1,0,2:0:0:0:
321,326,82635,1,8,0:0:0:0:
428,197,82863,1,0,2:0:0:0:
199,188,83090,5,0,0:0:0:0:
321,326,83317,1,0,2:0:0:0:
199,188,83544,1,8,0:0:0:0:
96,322,83772,1,0,2:0:0:0:
62,71,83999,5,2,0:0:0:0:
206,101,84226,5,0,2:0:0:0:
206,101,84340,1,0,2:0:0:0:
206,101,84454,1,8,0:0:0:0:
116,212,84681,5,0,2:0:0:0:
116,212,84794,1,0,2:0:0:0:
116,212,84908,1,8,0:0:0:0:
210,322,85135,5,0,2:0:0:0:
210,322,85249,1,0,2:0:0:0:
210,322,85363,1,8,0:0:0:0:
299,166,85590,5,0,2:0:0:0:
299,166,85704,1,0,2:0:0:0:
299,166,85817,1,8,0:0:0:0:
114,86,86044,5,0,2:0:0:0:
141,73,86158,1,0,2:0:0:0:
192,66,86272,1,8,0:0:0:0:
228,69,86385,1,8,0:0:0:0:
274,83,86499,1,0,0:0:0:0:
297,111,86613,1,0,0:0:0:0:
313,151,86726,1,8,0:0:0:0:
297,193,86840,1,8,0:0:0:0:
267,218,86954,1,0,2:0:0:0:
227,232,87067,1,0,2:0:0:0:
183,230,87181,1,8,0:0:0:0:
152,202,87294,1,8,0:0:0:0:
132,169,87408,1,0,0:0:0:0:
124,124,87522,1,0,0:0:0:0:
137,86,87635,6,4,B|186:42|228:27|277:28,1,150
412,98,88317,5,0,0:0:0:0:
412,98,88430,1,0,0:0:0:0:
412,98,88544,1,0,0:0:0:0:
316,196,88772,6,8,L|288:246,1,50
169,192,89113,2,8,L|145:142,1,50
70,225,89681,5,0,0:0:0:0:
90,264,89794,1,0,0:0:0:0:
121,287,89908,1,0,0:0:0:0:
155,305,90022,1,0,0:0:0:0:
195,306,90135,1,0,0:0:0:0:
235,294,90249,1,0,0:0:0:0:
271,278,90363,1,0,0:0:0:0:
303,260,90476,1,0,0:0:0:0:
326,226,90590,1,0,0:0:0:0:
328,181,90703,1,0,0:0:0:0:
316,153,90817,1,0,0:0:0:0:
284,117,90931,1,0,0:0:0:0:
247,101,91044,1,0,0:0:0:0:
210,98,91158,1,0,0:0:0:0:
172,107,91272,6,0,B|118:118|76:137|56:196,1,150
125,298,91953,5,0,0:0:0:0:
125,298,92067,1,0,0:0:0:0:
125,298,92181,1,0,0:0:0:0:
251,203,92408,6,8,L|281:254,1,50
413,202,92749,2,8,L|444:247,1,50
181,61,93317,5,0,0:0:0:0:
227,78,93431,1,0,0:0:0:0:
252,95,93544,1,0,0:0:0:0:
288,128,93658,1,0,0:0:0:0:
312,155,93772,1,0,0:0:0:0:
323,196,93885,1,0,0:0:0:0:
325,231,93999,1,0,0:0:0:0:
302,269,94113,1,0,0:0:0:0:
276,295,94226,1,0,0:0:0:0:
239,319,94340,1,0,0:0:0:0:
202,336,94453,1,0,0:0:0:0:
161,336,94567,1,0,0:0:0:0:
121,322,94681,1,0,0:0:0:0:
86,305,94794,1,0,0:0:0:0:
57,273,94908,6,0,B|17:231|23:190|73:143,1,150
219,151,95590,5,0,0:0:0:0:
219,151,95703,1,0,0:0:0:0:
219,151,95817,1,0,0:0:0:0:
368,213,96271,5,0,0:0:0:0:
337,248,96385,1,0,0:0:0:0:
306,269,96499,1,0,0:0:0:0:
186,226,96726,5,0,0:0:0:0:
227,210,96840,1,0,0:0:0:0:
263,183,96953,1,0,0:0:0:0:
288,146,97067,1,0,0:0:0:0:
299,108,97181,1,0,0:0:0:0:
188,55,97408,5,0,0:0:0:0:
146,77,97522,1,0,0:0:0:0:
137,119,97635,1,0,0:0:0:0:
388,191,97862,5,0,0:0:0:0:
365,227,97976,1,0,0:0:0:0:
321,242,98090,1,0,0:0:0:0:
112,326,98317,6,0,L|302:60,1,300
286,81,99226,2,0,L|334:199,1,100
352,244,99681,2,0,L|386:344,1,100
338,203,100135,2,0,L|193:201,1,100
152,177,100590,5,0,0:0:0:0:
141,139,100703,1,0,0:0:0:0:
174,104,100817,1,0,0:0:0:0:
218,87,100931,1,0,0:0:0:0:
268,114,101044,1,0,0:0:0:0:
294,151,101158,1,0,0:0:0:0:
294,206,101271,1,0,0:0:0:0:
265,257,101385,1,0,0:0:0:0:
215,292,101499,1,0,0:0:0:0:
150,302,101612,1,0,0:0:0:0:
86,298,101726,1,0,0:0:0:0:
31,253,101840,1,0,0:0:0:0:
10,180,101953,1,0,0:0:0:0:
27,113,102067,1,0,0:0:0:0:
72,55,102181,6,0,B|109:12|154:-4|210:3,1,150
335,60,102862,5,0,0:0:0:0:
335,60,102976,1,0,0:0:0:0:
335,60,103090,1,0,0:0:0:0:
239,155,103317,5,8,0:0:0:0:
239,155,103431,1,8,0:0:0:0:
434,138,103658,5,8,0:0:0:0:
434,138,103771,1,8,0:0:0:0:
351,238,104226,5,0,0:0:0:0:
361,278,104340,1,0,0:0:0:0:
348,317,104453,1,0,0:0:0:0:
320,340,104567,1,0,0:0:0:0:
278,351,104681,1,0,0:0:0:0:
242,351,104794,1,0,0:0:0:0:
203,342,104908,1,0,0:0:0:0:
172,319,105021,1,0,0:0:0:0:
155,283,105135,1,0,0:0:0:0:
155,242,105249,1,0,0:0:0:0:
172,209,105362,1,0,0:0:0:0:
197,177,105476,1,0,0:0:0:0:
233,155,105590,1,0,0:0:0:0:
270,148,105703,1,0,0:0:0:0:
310,153,105817,6,0,B|388:169|419:200|430:240,1,150
443,90,106499,5,0,0:0:0:0:
443,90,106612,1,0,0:0:0:0:
443,90,106726,1,0,0:0:0:0:
252,96,106953,6,8,L|294:136,1,50
165,208,107294,2,8,L|125:171,1,50
181,48,107862,5,0,0:0:0:0:
171,97,107976,1,0,0:0:0:0:
214,118,108090,1,0,0:0:0:0:
246,122,108203,1,0,0:0:0:0:
295,140,108317,1,0,0:0:0:0:
315,169,108430,1,0,0:0:0:0:
314,212,108544,1,0,0:0:0:0:
296,242,108658,1,0,0:0:0:0:
265,267,108771,1,0,0:0:0:0:
234,297,108885,1,0,0:0:0:0:
233,335,108999,1,0,0:0:0:0:
264,366,109112,1,0,0:0:0:0:
301,379,109226,1,0,0:0:0:0:
346,371,109340,1,0,0:0:0:0:
374,353,109453,6,0,B|417:304|424:249|416:208,1,150
205,342,110135,5,0,0:0:0:0:
205,342,110249,1,0,0:0:0:0:
205,342,110362,1,0,0:0:0:0:
205,342,110476,1,0,0:0:0:0:
205,342,110590,1,0,0:0:0:0:
334,271,110817,6,0,P|379:242|366:198,1,100
366,161,111271,1,0,0:0:0:0:
337,129,111385,1,0,0:0:0:0:
305,109,111499,1,0,0:0:0:0:
257,97,111612,1,0,0:0:0:0:
222,98,111726,1,0,0:0:0:0:
135,158,111953,5,0,0:0:0:0:
110,190,112067,1,0,0:0:0:0:
98,225,112180,1,0,0:0:0:0:
230,282,112408,5,0,0:0:0:0:
234,237,112521,1,0,0:0:0:0:
265,197,112635,1,0,0:0:0:0:
434,255,112862,5,0,0:0:0:0:
404,286,112976,1,0,0:0:0:0:
410,328,113089,1,0,0:0:0:0:
256,331,113317,6,0,B|315:330|371:317|422:293|422:293|464:257|476:206|463:171|424:124|424:124|435:-15|435:-15|301:105|301:105|240:79|196:95|170:124|170:124|35:20|35:20|76:160|76:160|22:254|55:313|138:340|201:347|281:328,1,1500
