osu file format v14

[General]
AudioFilename: audio.mp3
AudioLeadIn: 0
PreviewTime: -1
Countdown: 1
SampleSet: Normal
StackLeniency: 0.7
Mode: 1
LetterboxInBreaks: 0
WidescreenStoryboard: 0

[Editor]
DistanceSpacing: 1.8
BeatDivisor: 4
GridSize: 4
TimelineZoom: 1

[Metadata]
Title:Meikazura
TitleUnicode:Meikazura
Artist:
ArtistUnicode:
Creator:Ward74
Version:Idk
Source:
Tags:
BeatmapID:1639159
BeatmapSetID:780280

[Difficulty]
HPDrainRate:5
CircleSize:6
OverallDifficulty:6
ApproachRate:9
SliderMultiplier:2
SliderTickRate:1

[Events]
//Background and Video events
0,0,"BG.jpg",0,0
//Break Periods
//Storyboard Layer 0 (Background)
//Storyboard Layer 1 (Fail)
//Storyboard Layer 2 (Pass)
//Storyboard Layer 3 (Foreground)
//Storyboard Sound Samples

[TimingPoints]
658.585365853658,400,4,1,0,44,1,0
13358,-100,4,1,0,71,0,1
24758,-86.9565217391304,4,1,0,71,0,1
24958,-76.9230769230769,4,1,0,71,0,1
25158,-68.9655172413793,4,1,0,71,0,1
25358,-62.5,4,1,0,71,0,1
25558,-57.1428571428571,4,1,0,71,0,1
25758,-52.6315789473684,4,1,0,71,0,1
25958,-50,4,1,0,71,0,1
26158,-100,4,1,0,71,0,1
37058,-100,4,1,0,71,0,0

[HitObjects]
256,192,658,5,4,0:0:0:0:
256,192,1058,1,0,0:0:0:0:
256,192,1258,1,8,0:0:0:0:
256,192,1358,1,8,0:0:0:0:
256,192,1458,1,0,0:0:0:0:
256,192,1658,1,8,0:0:0:0:
256,192,1758,1,8,0:0:0:0:
256,192,1858,1,0,0:0:0:0:
256,192,2058,1,8,0:0:0:0:
256,192,2158,1,8,0:0:0:0:
256,192,2258,1,0,0:0:0:0:
256,192,2358,1,8,0:0:0:0:
256,192,2458,1,8,0:0:0:0:
256,192,2558,1,8,0:0:0:0:
256,192,2658,1,0,0:0:0:0:
256,192,2758,1,8,0:0:0:0:
256,192,2858,1,8,0:0:0:0:
256,192,2958,1,8,0:0:0:0:
256,192,3058,1,0,0:0:0:0:
256,192,3258,1,8,0:0:0:0:
256,192,3358,1,8,0:0:0:0:
256,192,3458,1,0,0:0:0:0:
256,192,3658,1,8,0:0:0:0:
256,192,3758,1,8,0:0:0:0:
256,192,3858,1,0,0:0:0:0:
256,192,4058,1,8,0:0:0:0:
256,192,4158,1,8,0:0:0:0:
256,192,4258,1,0,0:0:0:0:
256,192,4458,1,8,0:0:0:0:
256,192,4558,1,8,0:0:0:0:
256,192,4658,1,0,0:0:0:0:
256,192,4858,1,8,0:0:0:0:
256,192,4958,1,8,0:0:0:0:
256,192,5058,1,0,0:0:0:0:
256,192,5258,1,8,0:0:0:0:
256,192,5358,1,8,0:0:0:0:
256,192,5458,1,0,0:0:0:0:
256,192,5558,1,8,0:0:0:0:
256,192,5658,1,8,0:0:0:0:
256,192,5758,1,8,0:0:0:0:
256,192,5858,1,0,0:0:0:0:
256,192,5958,1,8,0:0:0:0:
256,192,6058,1,8,0:0:0:0:
256,192,6158,1,8,0:0:0:0:
256,192,6258,1,0,0:0:0:0:
256,192,6458,1,8,0:0:0:0:
256,192,6558,1,8,0:0:0:0:
256,192,6658,1,8,0:0:0:0:
256,192,6758,1,8,0:0:0:0:
256,192,6858,1,12,0:0:0:0:
256,192,7058,1,0,0:0:0:0:
256,192,7258,1,8,0:0:0:0:
256,192,7358,1,8,0:0:0:0:
256,192,7458,1,0,0:0:0:0:
256,192,7658,1,8,0:0:0:0:
256,192,7758,1,8,0:0:0:0:
256,192,7858,1,0,0:0:0:0:
256,192,8058,1,8,0:0:0:0:
256,192,8158,1,8,0:0:0:0:
256,192,8258,1,0,0:0:0:0:
256,192,8458,1,8,0:0:0:0:
256,192,8558,1,8,0:0:0:0:
256,192,8658,1,0,0:0:0:0:
256,192,8758,1,8,0:0:0:0:
256,192,8858,1,8,0:0:0:0:
256,192,8958,1,8,0:0:0:0:
256,192,9058,1,0,0:0:0:0:
256,192,9158,1,8,0:0:0:0:
256,192,9258,1,8,0:0:0:0:
256,192,9358,1,8,0:0:0:0:
256,192,9458,1,0,0:0:0:0:
256,192,9658,1,8,0:0:0:0:
256,192,9758,1,8,0:0:0:0:
256,192,9858,1,0,0:0:0:0:
256,192,10058,1,8,0:0:0:0:
256,192,10158,1,8,0:0:0:0:
256,192,10258,1,0,0:0:0:0:
256,192,10458,1,8,0:0:0:0:
256,192,10558,1,8,0:0:0:0:
256,192,10658,1,0,0:0:0:0:
256,192,10858,1,8,0:0:0:0:
256,192,10958,1,8,0:0:0:0:
256,192,11058,1,0,0:0:0:0:
256,192,11258,1,8,0:0:0:0:
256,192,11358,1,8,0:0:0:0:
256,192,11458,1,0,0:0:0:0:
256,192,11658,1,8,0:0:0:0:
256,192,11758,1,8,0:0:0:0:
256,192,11858,1,0,0:0:0:0:
256,192,11958,1,8,0:0:0:0:
256,192,12058,1,8,0:0:0:0:
256,192,12158,1,8,0:0:0:0:
256,192,12258,1,0,0:0:0:0:
256,192,12358,1,8,0:0:0:0:
256,192,12458,1,8,0:0:0:0:
256,192,12558,1,8,0:0:0:0:
256,192,12658,1,0,0:0:0:0:
256,192,12758,1,8,0:0:0:0:
256,192,12858,1,8,0:0:0:0:
256,192,12958,1,8,0:0:0:0:
256,192,13058,1,4,0:0:0:0:
256,192,13358,1,4,0:0:0:0:
256,192,13558,1,0,0:0:0:0:
256,192,13658,1,8,0:0:0:0:
256,192,13858,1,0,0:0:0:0:
256,192,14058,1,8,0:0:0:0:
256,192,14258,1,0,0:0:0:0:
256,192,14358,1,8,0:0:0:0:
256,192,14458,1,0,0:0:0:0:
256,192,14558,1,8,0:0:0:0:
256,192,14758,1,0,0:0:0:0:
256,192,14958,1,8,0:0:0:0:
256,192,15058,1,8,0:0:0:0:
256,192,15258,1,0,0:0:0:0:
256,192,15458,1,8,0:0:0:0:
256,192,15558,1,8,0:0:0:0:
256,192,15658,1,8,0:0:0:0:
256,192,15858,1,12,0:0:0:0:
256,192,16058,1,4,0:0:0:0:
256,192,16158,1,12,0:0:0:0:
256,192,16358,1,12,0:0:0:0:
256,192,16558,1,4,0:0:0:0:
256,192,16658,1,0,0:0:0:0:
256,192,16758,1,0,0:0:0:0:
256,192,16858,1,0,0:0:0:0:
256,192,17058,1,12,0:0:0:0:
256,192,17258,1,0,0:0:0:0:
256,192,17458,1,8,0:0:0:0:
256,192,17558,1,8,0:0:0:0:
256,192,17658,1,0,0:0:0:0:
256,192,17758,1,8,0:0:0:0:
256,192,17958,1,8,0:0:0:0:
256,192,18058,1,0,0:0:0:0:
256,192,18158,1,12,0:0:0:0:
256,192,18458,1,0,0:0:0:0:
256,192,18658,1,8,0:0:0:0:
256,192,18858,1,0,0:0:0:0:
256,192,19058,1,0,0:0:0:0:
256,192,19158,1,8,0:0:0:0:
256,192,19258,1,0,0:0:0:0:
256,192,19358,1,8,0:0:0:0:
256,192,19458,1,0,0:0:0:0:
256,192,19558,1,8,0:0:0:0:
256,192,19658,1,0,0:0:0:0:
256,192,19758,1,4,0:0:0:0:
256,192,19958,1,0,0:0:0:0:
256,192,20058,1,0,0:0:0:0:
256,192,20258,1,0,0:0:0:0:
256,192,20458,1,0,0:0:0:0:
256,192,20658,1,8,0:0:0:0:
256,192,20858,1,0,0:0:0:0:
256,192,21058,1,8,0:0:0:0:
256,192,21258,1,0,0:0:0:0:
256,192,21458,1,12,0:0:0:0:
256,192,21658,1,0,0:0:0:0:
256,192,21758,1,8,0:0:0:0:
256,192,21858,1,0,0:0:0:0:
256,192,22058,1,12,0:0:0:0:
256,192,22258,1,8,0:0:0:0:
256,192,22358,1,8,0:0:0:0:
256,192,22458,1,0,0:0:0:0:
256,192,22658,1,8,0:0:0:0:
256,192,22758,1,8,0:0:0:0:
256,192,22858,1,0,0:0:0:0:
320,212,22958,1,4,0:0:0:0:
256,192,23158,1,0,0:0:0:0:
256,192,23258,1,8,0:0:0:0:
256,192,23458,1,0,0:0:0:0:
256,192,23558,1,8,0:0:0:0:
256,192,23658,1,0,0:0:0:0:
256,192,23758,1,8,0:0:0:0:
256,192,23858,1,0,0:0:0:0:
256,192,23958,1,8,0:0:0:0:
256,192,24058,1,0,0:0:0:0:
256,192,24158,1,8,0:0:0:0:
256,192,24258,1,0,0:0:0:0:
256,192,24358,1,8,0:0:0:0:
256,192,24458,1,8,0:0:0:0:
256,192,24558,1,8,0:0:0:0:
256,192,24658,1,0,0:0:0:0:
256,192,24758,1,12,0:0:0:0:
256,192,24958,1,12,0:0:0:0:
256,192,25158,1,12,0:0:0:0:
256,192,25358,1,12,0:0:0:0:
256,192,25558,1,12,0:0:0:0:
256,192,25758,1,12,0:0:0:0:
256,192,25958,1,12,0:0:0:0:
256,192,26158,1,4,0:0:0:0:
256,192,26458,1,4,0:0:0:0:
256,192,26658,1,8,0:0:0:0:
256,192,26858,1,0,0:0:0:0:
256,192,27058,1,8,0:0:0:0:
256,192,27158,1,8,0:0:0:0:
256,192,27258,1,0,0:0:0:0:
256,192,27358,1,8,0:0:0:0:
256,192,27558,1,8,0:0:0:0:
256,192,27758,1,8,0:0:0:0:
256,192,27858,1,8,0:0:0:0:
256,192,27958,1,8,0:0:0:0:
256,192,28058,1,0,0:0:0:0:
256,192,28258,1,8,0:0:0:0:
256,192,28358,1,8,0:0:0:0:
256,192,28458,1,0,0:0:0:0:
256,192,28558,1,0,0:0:0:0:
256,192,28658,1,8,0:0:0:0:
256,192,28858,1,0,0:0:0:0:
256,192,28958,1,8,0:0:0:0:
256,192,29158,1,8,0:0:0:0:
256,192,29358,1,8,0:0:0:0:
256,192,29458,1,8,0:0:0:0:
256,192,29558,1,8,0:0:0:0:
256,192,29658,1,0,0:0:0:0:
256,192,29858,1,8,0:0:0:0:
256,192,30058,1,0,0:0:0:0:
256,192,30258,1,8,0:0:0:0:
256,192,30358,1,8,0:0:0:0:
256,192,30458,1,0,0:0:0:0:
256,192,30558,1,8,0:0:0:0:
256,192,30758,1,8,0:0:0:0:
256,192,30958,1,8,0:0:0:0:
256,192,31058,1,8,0:0:0:0:
256,192,31158,1,8,0:0:0:0:
256,192,31258,1,0,0:0:0:0:
256,192,31458,1,0,0:0:0:0:
256,192,31658,1,0,0:0:0:0:
256,192,31858,1,0,0:0:0:0:
256,192,31958,1,8,0:0:0:0:
256,192,32058,1,0,0:0:0:0:
256,192,32158,1,8,0:0:0:0:
256,192,32258,1,0,0:0:0:0:
256,192,32358,1,8,0:0:0:0:
256,192,32458,1,0,0:0:0:0:
256,192,32558,1,8,0:0:0:0:
256,192,32758,1,8,0:0:0:0:
256,192,32858,1,0,0:0:0:0:
256,192,33058,1,0,0:0:0:0:
256,192,33258,1,8,0:0:0:0:
256,192,33458,1,0,0:0:0:0:
256,192,33658,1,8,0:0:0:0:
256,192,33858,1,0,0:0:0:0:
256,192,33958,1,8,0:0:0:0:
256,192,34158,1,0,0:0:0:0:
256,192,34258,1,0,0:0:0:0:
256,192,34358,1,0,0:0:0:0:
256,192,34458,1,0,0:0:0:0:
256,192,34658,1,0,0:0:0:0:
256,192,34758,1,8,0:0:0:0:
256,192,34858,1,0,0:0:0:0:
256,192,34958,1,8,0:0:0:0:
256,192,35158,1,8,0:0:0:0:
256,192,35358,1,8,0:0:0:0:
256,192,35558,1,8,0:0:0:0:
256,192,35758,1,12,0:0:0:0:
256,192,35858,12,0,37058,0:0:0:0:
256,192,38458,5,8,0:0:0:0:
256,192,38558,1,8,0:0:0:0:
256,192,38658,1,8,0:0:0:0:
256,192,38758,1,8,0:0:0:0:
256,192,38958,1,0,0:0:0:0:
256,192,39008,1,8,0:0:0:0:
256,192,39108,1,8,0:0:0:0:
256,192,39208,1,8,0:0:0:0:
256,192,39258,1,0,0:0:0:0:
256,192,39308,1,8,0:0:0:0:
256,192,39358,1,8,0:0:0:0:
256,192,39458,1,8,0:0:0:0:
256,192,39558,1,8,0:0:0:0:
256,192,39658,1,0,0:0:0:0:
256,192,39758,1,8,0:0:0:0:
256,192,39858,1,0,0:0:0:0:
256,192,39958,1,8,0:0:0:0:
256,192,40058,1,0,0:0:0:0:
256,192,40158,1,8,0:0:0:0:
256,192,40358,1,8,0:0:0:0:
328,248,40458,1,0,0:0:0:0:
256,192,40558,1,8,0:0:0:0:
256,192,40658,1,8,0:0:0:0:
256,192,40758,1,8,0:0:0:0:
256,192,40858,1,0,0:0:0:0:
256,192,41058,1,0,0:0:0:0:
256,192,41258,1,0,0:0:0:0:
256,192,41458,1,8,0:0:0:0:
256,192,41558,1,8,0:0:0:0:
256,192,41658,1,0,0:0:0:0:
256,192,41758,1,8,0:0:0:0:
256,192,41858,1,8,0:0:0:0:
256,192,41958,1,8,0:0:0:0:
256,192,42058,1,0,0:0:0:0:
256,192,42158,1,8,0:0:0:0:
256,192,42358,1,8,0:0:0:0:
256,192,42458,1,0,0:0:0:0:
256,192,42658,1,0,0:0:0:0:
256,192,42858,1,0,0:0:0:0:
256,192,43058,1,0,0:0:0:0:
256,192,43258,1,0,0:0:0:0:
256,192,43458,1,0,0:0:0:0:
256,192,43558,1,8,0:0:0:0:
256,192,43658,1,0,0:0:0:0:
256,192,43758,1,8,0:0:0:0:
256,192,44058,1,8,0:0:0:0:
256,192,44258,1,8,0:0:0:0:
256,192,44358,1,8,0:0:0:0:
256,192,44458,1,0,0:0:0:0:
256,192,44658,1,0,0:0:0:0:
256,192,44858,1,8,0:0:0:0:
256,192,45058,1,0,0:0:0:0:
256,192,45158,1,8,0:0:0:0:
256,192,45258,1,0,0:0:0:0:
256,192,45358,1,0,0:0:0:0:
256,192,45658,1,0,0:0:0:0:
256,192,45858,1,8,0:0:0:0:
256,192,46058,1,0,0:0:0:0:
256,192,46258,1,8,0:0:0:0:
256,192,46458,1,0,0:0:0:0:
256,192,46658,1,8,0:0:0:0:
256,192,46758,1,0,0:0:0:0:
256,192,46858,1,0,0:0:0:0:
256,192,46958,1,8,0:0:0:0:
256,192,47058,1,8,0:0:0:0:
256,192,47258,1,0,0:0:0:0:
256,192,47458,1,8,0:0:0:0:
256,192,47558,1,8,0:0:0:0:
256,192,47658,1,0,0:0:0:0:
256,192,47758,1,8,0:0:0:0:
256,192,47858,1,8,0:0:0:0:
256,192,47958,1,0,0:0:0:0:
256,192,48058,1,0,0:0:0:0:
256,192,48158,1,8,0:0:0:0:
256,192,48258,1,8,0:0:0:0:
256,192,48358,1,8,0:0:0:0:
256,192,48458,1,0,0:0:0:0:
256,192,48558,1,8,0:0:0:0:
256,192,48658,1,8,0:0:0:0:
256,192,48758,1,8,0:0:0:0:
256,192,48858,1,0,0:0:0:0:
256,192,48958,1,8,0:0:0:0:
256,192,49058,1,8,0:0:0:0:
256,192,49158,1,8,0:0:0:0:
256,192,49258,1,0,0:0:0:0:
256,192,49358,1,0,0:0:0:0:
256,192,49458,1,0,0:0:0:0:
256,192,49708,1,8,0:0:0:0:
256,192,49808,1,0,0:0:0:0:
256,192,49858,1,8,0:0:0:0:
256,192,49908,1,8,0:0:0:0:
256,192,50058,1,8,0:0:0:0:
256,192,50158,1,0,0:0:0:0:
256,192,50208,1,8,0:0:0:0:
256,192,50258,1,8,0:0:0:0:
256,192,50358,1,8,0:0:0:0:
256,192,50458,1,8,0:0:0:0:
256,192,50558,1,8,0:0:0:0:
256,192,50658,1,0,0:0:0:0:
256,192,50858,1,8,0:0:0:0:
256,192,51058,1,8,0:0:0:0:
256,192,51258,1,0,0:0:0:0:
256,192,51458,1,0,0:0:0:0:
256,192,51558,1,8,0:0:0:0:
256,192,51658,1,0,0:0:0:0:
256,192,51758,1,0,0:0:0:0:
256,192,51858,1,0,0:0:0:0:
256,192,51958,1,0,0:0:0:0:
256,192,52058,1,8,0:0:0:0:
256,192,52258,1,8,0:0:0:0:
256,192,52358,1,0,0:0:0:0:
256,192,52458,1,0,0:0:0:0:
256,192,52558,1,8,0:0:0:0:
256,192,52658,1,8,0:0:0:0:
256,192,52858,1,0,0:0:0:0:
256,192,53058,1,8,0:0:0:0:
256,192,53158,1,0,0:0:0:0:
256,192,53258,1,0,0:0:0:0:
256,192,53358,1,8,0:0:0:0:
256,192,53558,1,0,0:0:0:0:
256,192,53658,1,8,0:0:0:0:
256,192,53858,1,0,0:0:0:0:
256,192,53958,1,8,0:0:0:0:
256,192,54058,1,0,0:0:0:0:
256,192,54158,1,8,0:0:0:0:
256,192,54258,1,0,0:0:0:0:
256,192,54458,1,8,0:0:0:0:
256,192,54658,1,8,0:0:0:0:
256,192,54758,1,0,0:0:0:0:
256,192,54858,1,8,0:0:0:0:
256,192,54958,1,0,0:0:0:0:
256,192,55058,1,8,0:0:0:0:
256,192,55158,1,8,0:0:0:0:
256,192,55258,1,0,0:0:0:0:
256,192,55358,1,8,0:0:0:0:
256,192,55458,1,0,0:0:0:0:
256,192,55558,1,8,0:0:0:0:
256,192,55658,1,8,0:0:0:0:
256,192,55758,1,8,0:0:0:0:
256,192,55858,1,0,0:0:0:0:
256,192,55958,1,8,0:0:0:0:
256,192,56058,1,8,0:0:0:0:
256,192,56158,1,8,0:0:0:0:
256,192,56258,1,0,0:0:0:0:
256,192,56358,1,0,0:0:0:0:
256,192,56458,1,8,0:0:0:0:
256,192,56558,1,0,0:0:0:0:
256,192,56758,1,0,0:0:0:0:
256,192,56858,1,8,0:0:0:0:
256,192,57058,1,8,0:0:0:0:
256,192,57258,1,0,0:0:0:0:
256,192,57358,1,8,0:0:0:0:
256,192,57458,1,0,0:0:0:0:
256,192,57558,1,8,0:0:0:0:
256,192,57658,1,0,0:0:0:0:
256,192,57758,1,8,0:0:0:0:
256,192,57858,1,0,0:0:0:0:
256,192,57958,1,8,0:0:0:0:
256,192,58058,1,0,0:0:0:0:
256,192,58158,1,8,0:0:0:0:
256,192,58358,1,8,0:0:0:0:
256,192,58458,1,0,0:0:0:0:
256,192,58658,1,0,0:0:0:0:
256,192,58858,1,8,0:0:0:0:
256,192,59058,1,0,0:0:0:0:
256,192,59258,1,8,0:0:0:0:
256,192,59458,1,0,0:0:0:0:
256,192,59558,1,0,0:0:0:0:
256,192,59658,1,8,0:0:0:0:
256,192,59758,1,0,0:0:0:0:
256,192,59958,1,8,0:0:0:0:
256,192,60058,1,0,0:0:0:0:
256,192,60258,1,0,0:0:0:0:
256,192,60358,1,0,0:0:0:0:
256,192,60458,1,8,0:0:0:0:
256,192,60658,1,0,0:0:0:0:
256,192,60858,1,8,0:0:0:0:
256,192,60958,1,8,0:0:0:0:
256,192,61058,1,0,0:0:0:0:
256,192,61158,1,8,0:0:0:0:
256,192,61258,1,0,0:0:0:0:
256,192,61358,1,8,0:0:0:0:
256,192,61458,1,8,0:0:0:0:
256,192,61558,1,8,0:0:0:0:
256,192,61658,1,0,0:0:0:0:
256,192,61858,1,0,0:0:0:0:
256,192,62058,1,8,0:0:0:0:
256,192,62258,1,8,0:0:0:0:
256,192,62458,1,0,0:0:0:0:
256,192,62658,1,8,0:0:0:0:
256,192,62758,1,8,0:0:0:0:
256,192,62858,1,0,0:0:0:0:
256,192,62958,1,8,0:0:0:0:
256,192,63058,1,0,0:0:0:0:
256,192,63358,1,8,0:0:0:0:
256,192,63458,1,0,0:0:0:0:
256,192,63658,1,8,0:0:0:0:
256,192,63758,1,8,0:0:0:0:
256,192,63858,1,0,0:0:0:0:
256,192,63958,1,8,0:0:0:0:
256,192,64058,1,0,0:0:0:0:
256,192,64158,1,8,0:0:0:0:
256,192,64458,1,8,0:0:0:0:
256,192,64558,1,8,0:0:0:0:
256,192,64658,1,0,0:0:0:0:
256,192,64858,1,0,0:0:0:0:
