osu file format v14

[General]
AudioFilename: audio.mp3
AudioLeadIn: 0
PreviewTime: -1
Countdown: 1
SampleSet: None
StackLeniency: 0.5
Mode: 0
LetterboxInBreaks: 0
WidescreenStoryboard: 0

[Editor]
DistanceSpacing: 1.1
BeatDivisor: 4
GridSize: 32
TimelineZoom: 1

[Metadata]
Title:Hyouri Ittai
TitleUnicode:Hyouri Ittai
Artist:
ArtistUnicode:
Creator:Sassbjorn
Version:Hard
Source:
Tags:
BeatmapID:1559485
BeatmapSetID:738964

[Difficulty]
HPDrainRate:6
CircleSize:3.5
OverallDifficulty:7
ApproachRate:7.8
SliderMultiplier:1
SliderTickRate:1

[Events]
//Background and Video events
//Break Periods
//Storyboard Layer 0 (Background)
//Storyboard Layer 1 (Fail)
//Storyboard Layer 2 (Pass)
//Storyboard Layer 3 (Foreground)
//Storyboard Sound Samples

[TimingPoints]
306,400,4,2,2,40,1,0
306,-125,4,2,2,40,0,0
13106,-100,4,2,2,50,0,0
25906,-95.2380952380952,4,2,2,50,0,0
38706,-111.111111111111,4,2,2,50,0,0
49906,-111.111111111111,4,2,2,50,0,0
53206,375,4,2,2,40,1,0
55081,-83.3333333333333,4,2,2,40,0,0
89206,370.37037037037,4,2,2,60,1,0

[HitObjects]
316,154,306,6,0,B|367:115|379:174|432:127,1,120
280,232,1306,2,0,P|257:234|232:228,2,40
366,223,1906,6,0,B|378:285|320:271|340:339,1,120
168,241,3506,6,0,B|155:178|213:192|193:124,1,120
225,306,4506,2,0,P|217:327|201:347,2,40
253,223,5106,6,0,B|304:261|316:202|369:249,1,120
415,136,6706,6,0,B|396:198|454:184|441:247,1,120
357,70,7706,2,0,P|365:49|381:29,2,40
329,153,8306,6,0,B|278:115|266:174|213:127,1,120
171,315,9906,6,0,B|222:277|234:336|287:289,1,120
254,117,11106,1,0,0:0:0:0:
269,205,11506,6,0,B|218:243|206:184|153:231,2,120
401,159,13106,5,0,0:0:0:0:
486,170,13306,1,0,0:0:0:0:
434,238,13506,2,0,P|428:267|413:299,1,50
351,339,13906,1,0,0:0:0:0:
341,254,14106,1,0,0:0:0:0:
261,286,14306,1,0,0:0:0:0:
271,202,14506,2,0,P|279:178|284:154,1,50
192,235,14906,5,0,0:0:0:0:
203,149,15106,1,0,0:0:0:0:
271,202,15306,1,0,0:0:0:0:
350,169,15506,1,0,0:0:0:0:
282,115,15706,1,0,0:0:0:0:
202,149,15906,1,0,0:0:0:0:
215,63,16106,2,0,P|219:38|219:13,1,50
133,96,16506,5,0,0:0:0:0:
122,183,16706,2,0,P|113:206|109:231,1,50
191,236,17106,1,0,0:0:0:0:
271,202,17306,1,0,0:0:0:0:
202,149,17506,1,0,0:0:0:0:
269,66,17706,6,0,P|277:89|281:114,1,50
271,202,18106,2,0,L|319:207,1,50
203,284,18506,6,0,P|194:260|190:235,1,50
201,148,18906,2,0,L|152:142,1,50
101,213,19306,1,0,0:0:0:0:
101,213,19406,1,0,0:0:0:0:
101,213,19506,5,0,0:0:0:0:
66,122,19706,1,0,0:0:0:0:
151,141,19906,1,0,0:0:0:0:
124,57,20106,1,0,0:0:0:0:
209,76,20306,1,0,0:0:0:0:
236,160,20506,1,0,0:0:0:0:
294,95,20706,1,0,0:0:0:0:
321,179,20906,6,0,P|318:209|322:237,1,50
410,205,21306,2,0,P|440:207|468:203,1,50
347,90,21706,2,0,P|316:87|288:91,1,50
436,116,22106,2,0,P|438:85|434:57,1,50
327,187,22506,1,0,0:0:0:0:
327,187,22606,1,0,0:0:0:0:
327,187,22706,6,0,P|329:217|325:245,1,50,0|0,0:0|0:0,0:0:0:0:
233,269,23106,2,0,P|230:238|234:210,1,50,0|0,0:0|0:0,0:0:0:0:
259,135,23506,1,0,0:0:0:0:
174,154,23706,2,0,P|143:151|115:155,1,50
147,238,24106,6,0,P|144:268|148:296,1,50
232,219,24506,1,0,0:0:0:0:
317,200,24706,1,0,0:0:0:0:
258,134,24906,2,0,P|227:131|199:135,1,50
124,153,25306,1,0,0:0:0:0:
98,236,25506,1,0,0:0:0:0:
