osu file format v14

[General]
AudioFilename: audio.mp3
AudioLeadIn: 0
PreviewTime: -1
Countdown: 1
SampleSet: None
StackLeniency: 0.7
Mode: 3
LetterboxInBreaks: 0
SpecialStyle: 0
WidescreenStoryboard: 0

[Editor]
Bookmarks: 53974
DistanceSpacing: 1.3
BeatDivisor: 4
GridSize: 4
TimelineZoom: 1.8

[Metadata]
Title:Still
TitleUnicode:Still
Artist:
ArtistUnicode:イロドリミドリ
Creator:RelaxloveMika
Version:llitS
Source:Chunithm
Tags:
BeatmapID:1643516
BeatmapSetID:782709

[Difficulty]
HPDrainRate:8
CircleSize:4
OverallDifficulty:8.5
ApproachRate:5
SliderMultiplier:1.4
SliderTickRate:1

[Events]
//Background and Video events
0,0,"abcdefg.jpg",0,0
//Break Periods
//Storyboard Layer 0 (Background)
//Storyboard Layer 1 (Fail)
//Storyboard Layer 2 (Pass)
//Storyboard Layer 3 (Foreground)
//Storyboard Sound Samples

[TimingPoints]
2156,340.909090909091,4,2,0,30,1,0

[HitObjects]
64,192,1133,5,0,0:0:0:0:
192,192,1474,1,0,0:0:0:0:
320,192,1815,1,0,0:0:0:0:
320,192,2156,1,0,0:0:0:0:
448,192,2156,128,0,2496:0:0:0:0:
64,192,2326,1,0,0:0:0:0:
192,192,2496,1,0,0:0:0:0:
320,192,2496,128,0,2667:0:0:0:0:
448,192,2667,128,0,3178:0:0:0:0:
64,192,2667,1,0,0:0:0:0:
320,192,2837,128,0,3008:0:0:0:0:
192,192,3008,128,0,3178:0:0:0:0:
64,192,3178,128,0,3519:0:0:0:0:
320,192,3178,1,0,0:0:0:0:
448,192,3519,128,0,3860:0:0:0:0:
192,192,3519,1,0,0:0:0:0:
192,192,3690,1,0,0:0:0:0:
320,192,3860,128,0,3945:0:0:0:0:
64,192,3860,128,0,4201:0:0:0:0:
320,192,4031,128,0,4371:0:0:0:0:
192,192,4201,128,0,4542:0:0:0:0:
320,192,4542,128,0,4883:0:0:0:0:
64,192,4542,128,0,4712:0:0:0:0:
192,192,4712,128,0,4883:0:0:0:0:
448,192,4883,128,0,6161:0:0:0:0:
64,192,4883,128,0,5224:0:0:0:0:
192,192,5224,128,0,5394:0:0:0:0:
64,192,5394,128,0,5735:0:0:0:0:
320,192,5735,128,0,6076:0:0:0:0:
64,192,6076,128,0,7269:0:0:0:0:
320,192,6161,1,0,0:0:0:0:
192,192,6246,128,0,7099:0:0:0:0:
448,192,7610,128,0,7866:0:0:0:0:
320,192,7610,128,0,8036:0:0:0:0:
192,192,7610,128,0,8207:0:0:0:0:
64,192,7610,128,0,8292:0:0:0:0:
448,192,7951,128,0,8633:0:0:0:0:
320,192,8121,128,0,8462:0:0:0:0:
192,192,8292,1,0,0:0:0:0:
64,192,8462,1,0,0:0:0:0:
192,192,8462,1,0,0:0:0:0:
64,192,8633,1,0,0:0:0:0:
192,192,8633,1,0,0:0:0:0:
320,192,8633,1,0,0:0:0:0:
64,192,8803,1,0,0:0:0:0:
192,192,8803,1,0,0:0:0:0:
320,192,8803,1,0,0:0:0:0:
448,192,8803,1,0,0:0:0:0:
64,192,8974,1,0,0:0:0:0:
192,192,8974,1,0,0:0:0:0:
320,192,8974,1,0,0:0:0:0:
448,192,8974,1,0,0:0:0:0:
320,192,9315,1,0,0:0:0:0:
448,192,9315,1,0,0:0:0:0:
192,192,9656,1,0,0:0:0:0:
64,192,9656,1,0,0:0:0:0:
64,192,9826,1,0,0:0:0:0:
192,192,9826,1,0,0:0:0:0:
320,192,9996,1,0,0:0:0:0:
448,192,9996,1,0,0:0:0:0:
64,192,10167,1,0,0:0:0:0:
64,192,10337,1,0,0:0:0:0:
192,192,10337,1,0,0:0:0:0:
192,192,10508,1,0,0:0:0:0:
320,192,10508,1,0,0:0:0:0:
320,192,10678,1,0,0:0:0:0:
448,192,10678,1,0,0:0:0:0:
64,192,10849,1,0,0:0:0:0:
192,192,11019,1,0,0:0:0:0:
64,192,11019,1,0,0:0:0:0:
192,192,11190,1,0,0:0:0:0:
64,192,11190,1,0,0:0:0:0:
320,192,11360,1,0,0:0:0:0:
448,192,11360,1,0,0:0:0:0:
64,192,11531,1,0,0:0:0:0:
64,192,11701,1,0,0:0:0:0:
192,192,11701,128,0,12042:0:0:0:0:
320,192,11701,1,0,0:0:0:0:
448,192,11701,1,0,0:0:0:0:
64,192,12042,128,0,12212:0:0:0:0:
448,192,12042,1,0,0:0:0:0:
192,192,12212,128,0,12383:0:0:0:0:
448,192,12212,1,0,0:0:0:0:
320,192,12212,1,0,0:0:0:0:
448,192,12553,128,0,12724:0:0:0:0:
320,192,12553,1,0,0:0:0:0:
192,192,12553,1,0,0:0:0:0:
64,192,12553,1,0,0:0:0:0:
320,192,12894,128,0,13746:0:0:0:0:
192,192,12894,1,0,0:0:0:0:
64,192,12894,1,0,0:0:0:0:
448,192,12894,1,0,0:0:0:0:
64,192,13235,1,0,0:0:0:0:
192,192,13235,1,0,0:0:0:0:
448,192,13406,1,0,0:0:0:0:
64,192,13576,1,0,0:0:0:0:
64,192,13661,1,0,0:0:0:0:
192,192,13746,1,0,0:0:0:0:
448,192,13746,1,0,0:0:0:0:
320,192,13917,1,0,0:0:0:0:
64,192,13917,1,0,0:0:0:0:
64,192,14087,1,0,0:0:0:0:
192,192,14173,1,0,0:0:0:0:
320,192,14258,1,0,0:0:0:0:
448,192,14258,1,0,0:0:0:0:
192,192,14343,1,0,0:0:0:0:
64,192,14343,1,0,0:0:0:0:
320,192,14428,1,0,0:0:0:0:
448,192,14428,1,0,0:0:0:0:
192,192,14769,1,0,0:0:0:0:
64,192,14769,1,0,0:0:0:0:
448,192,15110,1,0,0:0:0:0:
320,192,15110,1,0,0:0:0:0:
448,192,15281,1,0,0:0:0:0:
320,192,15281,1,0,0:0:0:0:
192,192,15451,1,0,0:0:0:0:
64,192,15451,1,0,0:0:0:0:
448,192,15621,1,0,0:0:0:0:
320,192,15621,1,0,0:0:0:0:
320,192,15962,1,0,0:0:0:0:
448,192,15962,1,0,0:0:0:0:
192,192,16133,1,0,0:0:0:0:
64,192,16133,1,0,0:0:0:0:
448,192,16474,1,0,0:0:0:0:
320,192,16474,1,0,0:0:0:0:
448,192,16644,1,0,0:0:0:0:
320,192,16644,1,0,0:0:0:0:
192,192,16815,1,0,0:0:0:0:
64,192,16815,1,0,0:0:0:0:
320,192,16985,1,0,0:0:0:0:
448,192,16985,128,0,17667:0:0:0:0:
64,192,17326,128,0,17496:0:0:0:0:
192,192,17326,1,0,0:0:0:0:
192,192,17496,128,0,17667:0:0:0:0:
320,192,17496,1,0,0:0:0:0:
320,192,17667,128,0,17837:0:0:0:0:
64,192,17667,1,0,0:0:0:0:
448,192,17837,128,0,18008:0:0:0:0:
192,192,17837,1,0,0:0:0:0:
320,192,18008,1,0,0:0:0:0:
64,192,18008,128,0,18178:0:0:0:0:
192,192,18178,128,0,18349:0:0:0:0:
448,192,18178,1,0,0:0:0:0:
320,192,18349,128,0,18860:0:0:0:0:
448,192,18349,1,0,0:0:0:0:
192,192,18690,1,0,0:0:0:0:
192,192,18860,1,0,0:0:0:0:
64,192,18860,1,0,0:0:0:0:
320,192,19031,1,0,0:0:0:0:
448,192,19031,1,0,0:0:0:0:
448,192,19116,1,0,0:0:0:0:
320,192,19116,1,0,0:0:0:0:
192,192,19201,1,0,0:0:0:0:
64,192,19201,1,0,0:0:0:0:
448,192,19371,1,0,0:0:0:0:
64,192,19371,1,0,0:0:0:0:
192,192,19457,1,0,0:0:0:0:
320,192,19457,1,0,0:0:0:0:
64,192,19542,1,0,0:0:0:0:
448,192,19542,1,0,0:0:0:0:
320,192,19627,1,0,0:0:0:0:
192,192,19627,1,0,0:0:0:0:
64,192,19712,1,0,0:0:0:0:
448,192,19712,1,0,0:0:0:0:
320,192,19798,1,0,0:0:0:0:
192,192,19798,1,0,0:0:0:0:
448,192,19883,1,0,0:0:0:0:
192,192,20053,1,0,0:0:0:0:
320,192,20224,1,0,0:0:0:0:
64,192,20394,1,0,0:0:0:0:
448,192,20565,1,0,0:0:0:0:
448,192,20906,1,0,0:0:0:0:
320,192,21246,1,0,0:0:0:0:
64,192,21417,1,0,0:0:0:0:
192,192,21587,1,0,0:0:0:0:
320,192,21758,1,0,0:0:0:0:
448,192,21928,1,0,0:0:0:0:
448,192,22269,1,0,0:0:0:0:
448,192,22610,1,0,0:0:0:0:
64,192,22781,1,0,0:0:0:0:
192,192,22951,1,0,0:0:0:0:
320,192,23121,1,0,0:0:0:0:
64,192,23292,1,0,0:0:0:0:
448,192,23633,1,0,0:0:0:0:
448,192,23974,1,0,0:0:0:0:
64,192,24144,1,0,0:0:0:0:
192,192,24315,1,0,0:0:0:0:
320,192,24485,1,0,0:0:0:0:
64,192,24656,128,0,24826:0:0:0:0:
192,192,24826,1,0,0:0:0:0:
320,192,24996,1,0,0:0:0:0:
448,192,24996,1,0,0:0:0:0:
448,192,25167,1,0,0:0:0:0:
64,192,25337,1,0,0:0:0:0:
192,192,25508,1,0,0:0:0:0:
320,192,25678,1,0,0:0:0:0:
192,192,25849,1,0,0:0:0:0:
320,192,26019,1,0,0:0:0:0:
448,192,26360,1,0,0:0:0:0:
320,192,26701,1,0,0:0:0:0:
64,192,26871,1,0,0:0:0:0:
192,192,27042,1,0,0:0:0:0:
320,192,27212,1,0,0:0:0:0:
64,192,27383,1,0,0:0:0:0:
448,192,27724,1,0,0:0:0:0:
320,192,28065,128,0,28406:0:0:0:0:
192,192,28406,1,0,0:0:0:0:
320,192,28576,128,0,28917:0:0:0:0:
64,192,28746,1,0,0:0:0:0:
192,192,29087,1,0,0:0:0:0:
448,192,29087,1,0,0:0:0:0:
448,192,29428,1,0,0:0:0:0:
64,192,29599,1,0,0:0:0:0:
192,192,29769,1,0,0:0:0:0:
320,192,29940,1,0,0:0:0:0:
320,192,30110,1,0,0:0:0:0:
448,192,30153,1,0,0:0:0:0:
192,192,30281,1,0,0:0:0:0:
320,192,30281,1,0,0:0:0:0:
192,192,30451,1,0,0:0:0:0:
64,192,30451,1,0,0:0:0:0:
64,192,30621,1,0,0:0:0:0:
192,192,30621,1,0,0:0:0:0:
320,192,30621,1,0,0:0:0:0:
64,192,30792,1,0,0:0:0:0:
192,192,30792,1,0,0:0:0:0:
320,192,30792,1,0,0:0:0:0:
448,192,30792,1,0,0:0:0:0:
448,192,30962,1,0,0:0:0:0:
192,192,31133,1,0,0:0:0:0:
320,192,31303,1,0,0:0:0:0:
64,192,31474,1,0,0:0:0:0:
448,192,31474,1,0,0:0:0:0:
320,192,31815,1,0,0:0:0:0:
448,192,31815,1,0,0:0:0:0:
320,192,32156,1,0,0:0:0:0:
64,192,32156,1,0,0:0:0:0:
192,192,32326,1,0,0:0:0:0:
320,192,32496,1,0,0:0:0:0:
448,192,32667,1,0,0:0:0:0:
64,192,32837,1,0,0:0:0:0:
192,192,32837,1,0,0:0:0:0:
448,192,33178,1,0,0:0:0:0:
320,192,33178,1,0,0:0:0:0:
448,192,33519,1,0,0:0:0:0:
192,192,33519,1,0,0:0:0:0:
64,192,33690,1,0,0:0:0:0:
192,192,33860,1,0,0:0:0:0:
320,192,34031,1,0,0:0:0:0:
448,192,34201,1,0,0:0:0:0:
64,192,34201,128,0,34371:0:0:0:0:
192,192,34371,128,0,34542:0:0:0:0:
320,192,34542,128,0,34712:0:0:0:0:
64,192,34542,1,0,0:0:0:0:
448,192,34712,128,0,34883:0:0:0:0:
64,192,34883,128,0,35224:0:0:0:0:
192,192,34883,128,0,35053:0:0:0:0:
320,192,35053,128,0,35224:0:0:0:0:
448,192,35224,128,0,35565:0:0:0:0:
192,192,35224,128,0,35394:0:0:0:0:
64,192,35394,128,0,35565:0:0:0:0:
192,192,35565,128,0,35906:0:0:0:0:
320,192,35565,128,0,35735:0:0:0:0:
64,192,35735,128,0,35906:0:0:0:0:
320,192,35906,128,0,36246:0:0:0:0:
448,192,35906,128,0,36076:0:0:0:0:
192,192,36076,128,0,36246:0:0:0:0:
64,192,36246,1,0,0:0:0:0:
448,192,36246,1,0,0:0:0:0:
192,192,36417,1,0,0:0:0:0:
320,192,36587,1,0,0:0:0:0:
192,192,36758,1,0,0:0:0:0:
320,192,36928,1,0,0:0:0:0:
448,192,36928,1,0,0:0:0:0:
192,192,37269,1,0,0:0:0:0:
64,192,37269,1,0,0:0:0:0:
320,192,37610,1,0,0:0:0:0:
448,192,37610,1,0,0:0:0:0:
64,192,37781,1,0,0:0:0:0:
192,192,37951,1,0,0:0:0:0:
320,192,38121,1,0,0:0:0:0:
64,192,38292,1,0,0:0:0:0:
448,192,38292,1,0,0:0:0:0:
320,192,38633,1,0,0:0:0:0:
192,192,38633,1,0,0:0:0:0:
64,192,38974,128,0,39059:0:0:0:0:
192,192,39059,128,0,39144:0:0:0:0:
320,192,39144,128,0,39229:0:0:0:0:
64,192,39144,128,0,39570:0:0:0:0:
448,192,39229,128,0,39315:0:0:0:0:
192,192,39229,128,0,39485:0:0:0:0:
320,192,39315,128,0,39400:0:0:0:0:
448,192,39400,128,0,39485:0:0:0:0:
320,192,39485,128,0,39570:0:0:0:0:
192,192,39570,128,0,39656:0:0:0:0:
64,192,39656,128,0,39741:0:0:0:0:
448,192,39656,128,0,39826:0:0:0:0:
320,192,39741,128,0,39911:0:0:0:0:
192,192,39826,128,0,39996:0:0:0:0:
64,192,39911,128,0,40082:0:0:0:0:
448,192,39996,128,0,40082:0:0:0:0:
320,192,40082,128,0,40167:0:0:0:0:
192,192,40167,128,0,40252:0:0:0:0:
64,192,40252,128,0,40337:0:0:0:0:
320,192,40337,1,0,0:0:0:0:
448,192,40337,1,0,0:0:0:0:
448,192,40508,1,0,0:0:0:0:
320,192,40508,1,0,0:0:0:0:
192,192,40678,1,0,0:0:0:0:
64,192,40678,1,0,0:0:0:0:
192,192,40849,1,0,0:0:0:0:
64,192,40849,1,0,0:0:0:0:
320,192,40934,1,0,0:0:0:0:
448,192,40934,1,0,0:0:0:0:
192,192,41019,1,0,0:0:0:0:
64,192,41019,1,0,0:0:0:0:
192,192,41190,1,0,0:0:0:0:
320,192,41190,1,0,0:0:0:0:
320,192,41360,1,0,0:0:0:0:
448,192,41360,1,0,0:0:0:0:
192,192,41531,1,0,0:0:0:0:
64,192,41531,1,0,0:0:0:0:
64,192,41701,1,0,0:0:0:0:
320,192,41701,1,0,0:0:0:0:
448,192,41701,1,0,0:0:0:0:
192,192,41871,1,0,0:0:0:0:
320,192,41871,1,0,0:0:0:0:
192,192,42212,1,0,0:0:0:0:
192,192,42383,1,0,0:0:0:0:
320,192,42383,1,0,0:0:0:0:
192,192,42724,1,0,0:0:0:0:
320,192,42724,1,0,0:0:0:0:
320,192,42894,1,0,0:0:0:0:
64,192,42894,128,0,43065:0:0:0:0:
448,192,43235,1,0,0:0:0:0:
192,192,43235,128,0,43406:0:0:0:0:
448,192,43576,1,0,0:0:0:0:
320,192,43576,128,0,43746:0:0:0:0:
448,192,43917,1,0,0:0:0:0:
192,192,43917,128,0,44258:0:0:0:0:
320,192,44258,1,0,0:0:0:0:
448,192,44258,1,0,0:0:0:0:
64,192,44343,1,0,0:0:0:0:
192,192,44343,1,0,0:0:0:0:
320,192,44428,1,0,0:0:0:0:
448,192,44428,1,0,0:0:0:0:
320,192,44599,1,0,0:0:0:0:
192,192,44599,1,0,0:0:0:0:
320,192,44940,1,0,0:0:0:0:
320,192,45110,1,0,0:0:0:0:
192,192,45110,1,0,0:0:0:0:
192,192,45451,1,0,0:0:0:0:
320,192,45451,1,0,0:0:0:0:
64,192,45621,128,0,45962:0:0:0:0:
192,192,45621,1,0,0:0:0:0:
320,192,45792,128,0,46133:0:0:0:0:
192,192,45962,128,0,46303:0:0:0:0:
448,192,45962,1,0,0:0:0:0:
448,192,46133,128,0,46474:0:0:0:0:
320,192,46303,128,0,46644:0:0:0:0:
64,192,46303,1,0,0:0:0:0:
64,192,46474,128,0,46815:0:0:0:0:
192,192,46644,128,0,46985:0:0:0:0:
448,192,46644,1,0,0:0:0:0:
320,192,46815,128,0,47156:0:0:0:0:
448,192,46815,1,0,0:0:0:0:
448,192,46985,128,0,49542:0:0:0:0:
64,192,46985,1,0,0:0:0:0:
192,192,47326,1,0,0:0:0:0:
64,192,47496,1,0,0:0:0:0:
320,192,47667,1,0,0:0:0:0:
192,192,47752,1,0,0:0:0:0:
320,192,47837,1,0,0:0:0:0:
320,192,48008,128,0,48178:0:0:0:0:
192,192,48178,128,0,48349:0:0:0:0:
64,192,48349,128,0,49542:0:0:0:0:
192,192,48519,128,0,48690:0:0:0:0:
320,192,48519,1,0,0:0:0:0:
320,192,48690,128,0,49542:0:0:0:0:
192,192,48860,1,0,0:0:0:0:
192,192,49201,1,0,0:0:0:0:
192,192,49542,1,0,0:0:0:0:
320,192,49627,1,0,0:0:0:0:
448,192,49627,1,0,0:0:0:0:
192,192,49712,1,0,0:0:0:0:
64,192,49712,1,0,0:0:0:0:
320,192,49798,1,0,0:0:0:0:
448,192,49798,1,0,0:0:0:0:
192,192,49883,1,0,0:0:0:0:
64,192,49883,1,0,0:0:0:0:
320,192,51076,128,0,51417:0:0:0:0:
448,192,51076,1,0,0:0:0:0:
192,192,51076,1,0,0:0:0:0:
64,192,51076,1,0,0:0:0:0:
192,192,51417,128,0,51587:0:0:0:0:
64,192,51417,1,0,0:0:0:0:
448,192,51417,1,0,0:0:0:0:
320,192,51587,128,0,51758:0:0:0:0:
448,192,51587,1,0,0:0:0:0:
64,192,51587,1,0,0:0:0:0:
64,192,51758,128,0,51928:0:0:0:0:
192,192,51758,1,0,0:0:0:0:
448,192,51758,1,0,0:0:0:0:
448,192,51928,128,0,52099:0:0:0:0:
192,192,51928,1,0,0:0:0:0:
320,192,51928,1,0,0:0:0:0:
64,192,52099,128,0,52269:0:0:0:0:
192,192,52099,1,0,0:0:0:0:
320,192,52099,1,0,0:0:0:0:
192,192,52269,128,0,52440:0:0:0:0:
320,192,52269,1,0,0:0:0:0:
448,192,52269,1,0,0:0:0:0:
320,192,52440,128,0,52610:0:0:0:0:
64,192,52440,1,0,0:0:0:0:
448,192,52440,1,0,0:0:0:0:
448,192,52610,128,0,52695:0:0:0:0:
192,192,52610,1,0,0:0:0:0:
64,192,52610,1,0,0:0:0:0:
448,192,52781,128,0,52866:0:0:0:0:
320,192,52781,1,0,0:0:0:0:
192,192,52781,1,0,0:0:0:0:
64,192,53633,128,0,53675:0:0:0:0:
192,192,53675,128,0,53718:0:0:0:0:
320,192,53718,128,0,53761:0:0:0:0:
448,192,53761,128,0,53974:0:0:0:0:
192,192,53974,1,0,0:0:0:0:
64,192,53974,128,0,54315:0:0:0:0:
320,192,54059,1,0,0:0:0:0:
448,192,54144,1,0,0:0:0:0:
320,192,54229,1,0,0:0:0:0:
448,192,54315,128,0,54656:0:0:0:0:
192,192,54315,1,0,0:0:0:0:
64,192,54400,1,0,0:0:0:0:
192,192,54485,1,0,0:0:0:0:
320,192,54570,1,0,0:0:0:0:
192,192,54656,128,0,54996:0:0:0:0:
64,192,54656,128,0,54741:0:0:0:0:
64,192,54826,128,0,54911:0:0:0:0:
320,192,54996,128,0,55337:0:0:0:0:
448,192,54996,128,0,55167:0:0:0:0:
192,192,55167,128,0,55337:0:0:0:0:
64,192,55337,128,0,55678:0:0:0:0:
448,192,55337,1,0,0:0:0:0:
320,192,55423,1,0,0:0:0:0:
192,192,55508,1,0,0:0:0:0:
320,192,55593,1,0,0:0:0:0:
448,192,55678,128,0,56019:0:0:0:0:
192,192,55678,1,0,0:0:0:0:
64,192,55763,1,0,0:0:0:0:
192,192,55849,1,0,0:0:0:0:
64,192,55934,1,0,0:0:0:0:
320,192,56019,128,0,56360:0:0:0:0:
192,192,56019,128,0,56104:0:0:0:0:
192,192,56190,128,0,56275:0:0:0:0:
192,192,56360,128,0,56701:0:0:0:0:
64,192,56360,128,0,56531:0:0:0:0:
320,192,56531,128,0,56701:0:0:0:0:
448,192,56701,128,0,58065:0:0:0:0:
64,192,56701,1,0,0:0:0:0:
192,192,56786,1,0,0:0:0:0:
320,192,56871,1,0,0:0:0:0:
192,192,56957,1,0,0:0:0:0:
64,192,57042,1,0,0:0:0:0:
320,192,57042,1,0,0:0:0:0:
192,192,57127,1,0,0:0:0:0:
64,192,57212,1,0,0:0:0:0:
320,192,57298,1,0,0:0:0:0:
64,192,57383,1,0,0:0:0:0:
192,192,57383,128,0,57468:0:0:0:0:
192,192,57553,128,0,57638:0:0:0:0:
64,192,57553,1,0,0:0:0:0:
320,192,57724,128,0,57894:0:0:0:0:
192,192,57894,128,0,58065:0:0:0:0:
64,192,58065,128,0,58406:0:0:0:0:
320,192,58065,128,0,58235:0:0:0:0:
192,192,58235,128,0,58406:0:0:0:0:
320,192,58406,128,0,58746:0:0:0:0:
448,192,58406,128,0,58576:0:0:0:0:
64,192,58576,128,0,58746:0:0:0:0:
192,192,58746,128,0,59087:0:0:0:0:
448,192,58746,128,0,58917:0:0:0:0:
320,192,58917,128,0,59087:0:0:0:0:
64,192,59087,128,0,59428:0:0:0:0:
448,192,59087,128,0,59173:0:0:0:0:
320,192,59173,128,0,59258:0:0:0:0:
192,192,59258,128,0,59343:0:0:0:0:
448,192,59343,128,0,59428:0:0:0:0:
320,192,59428,128,0,59769:0:0:0:0:
192,192,59428,1,0,0:0:0:0:
64,192,59513,1,0,0:0:0:0:
192,192,59599,1,0,0:0:0:0:
64,192,59684,1,0,0:0:0:0:
448,192,59769,128,0,60110:0:0:0:0:
192,192,59769,1,0,0:0:0:0:
320,192,59854,1,0,0:0:0:0:
64,192,59940,1,0,0:0:0:0:
192,192,60025,1,0,0:0:0:0:
64,192,60110,128,0,60451:0:0:0:0:
320,192,60110,128,0,60195:0:0:0:0:
320,192,60281,128,0,60366:0:0:0:0:
192,192,60451,128,0,60792:0:0:0:0:
448,192,60451,128,0,60792:0:0:0:0:
320,192,60621,128,0,61474:0:0:0:0:
64,192,60621,128,0,61133:0:0:0:0:
192,192,60962,1,0,0:0:0:0:
192,192,61133,128,0,61474:0:0:0:0:
448,192,61133,1,0,0:0:0:0:
448,192,61474,128,0,61815:0:0:0:0:
64,192,61474,128,0,61815:0:0:0:0:
192,192,61644,1,0,0:0:0:0:
320,192,61644,1,0,0:0:0:0:
320,192,61815,128,0,62156:0:0:0:0:
192,192,61815,128,0,62156:0:0:0:0:
64,192,61985,1,0,0:0:0:0:
448,192,61985,1,0,0:0:0:0:
448,192,62156,1,0,0:0:0:0:
64,192,62156,128,0,62496:0:0:0:0:
320,192,62241,1,0,0:0:0:0:
192,192,62326,1,0,0:0:0:0:
320,192,62411,1,0,0:0:0:0:
192,192,62496,128,0,62582:0:0:0:0:
448,192,62496,1,0,0:0:0:0:
320,192,62582,1,0,0:0:0:0:
192,192,62667,128,0,63519:0:0:0:0:
448,192,62667,1,0,0:0:0:0:
320,192,62752,1,0,0:0:0:0:
448,192,62837,128,0,63008:0:0:0:0:
64,192,62837,128,0,62923:0:0:0:0:
320,192,63008,128,0,63178:0:0:0:0:
64,192,63008,128,0,63093:0:0:0:0:
64,192,63178,128,0,63349:0:0:0:0:
320,192,63349,128,0,63519:0:0:0:0:
64,192,63519,1,0,0:0:0:0:
448,192,63519,128,0,63604:0:0:0:0:
448,192,63690,128,0,63860:0:0:0:0:
64,192,63690,1,0,0:0:0:0:
320,192,63860,1,0,0:0:0:0:
320,192,64031,128,0,64371:0:0:0:0:
192,192,64371,1,0,0:0:0:0:
448,192,64542,128,0,64584:0:0:0:0:
320,192,64584,128,0,64627:0:0:0:0:
192,192,64627,128,0,64670:0:0:0:0:
64,192,64670,128,0,64883:0:0:0:0:
320,192,64712,1,0,0:0:0:0:
448,192,64712,1,0,0:0:0:0:
320,192,64798,1,0,0:0:0:0:
448,192,64798,1,0,0:0:0:0:
320,192,64883,1,0,0:0:0:0:
448,192,64883,1,0,0:0:0:0:
192,192,64883,128,0,65224:0:0:0:0:
448,192,65053,128,0,65394:0:0:0:0:
64,192,65224,128,0,65565:0:0:0:0:
320,192,65224,1,0,0:0:0:0:
320,192,65394,128,0,65735:0:0:0:0:
448,192,65565,128,0,65906:0:0:0:0:
192,192,65565,1,0,0:0:0:0:
192,192,65735,128,0,66076:0:0:0:0:
64,192,65735,1,0,0:0:0:0:
320,192,65906,128,0,66246:0:0:0:0:
64,192,65906,1,0,0:0:0:0:
64,192,66076,128,0,66417:0:0:0:0:
192,192,66246,128,0,66587:0:0:0:0:
448,192,66246,1,0,0:0:0:0:
320,192,66417,128,0,66758:0:0:0:0:
448,192,66417,1,0,0:0:0:0:
448,192,66587,128,0,66758:0:0:0:0:
64,192,66587,1,0,0:0:0:0:
192,192,66928,128,0,67099:0:0:0:0:
320,192,66928,1,0,0:0:0:0:
448,192,66928,1,0,0:0:0:0:
64,192,67099,128,0,67184:0:0:0:0:
320,192,67099,1,0,0:0:0:0:
448,192,67099,1,0,0:0:0:0:
64,192,67269,128,0,67440:0:0:0:0:
320,192,67269,1,0,0:0:0:0:
448,192,67269,1,0,0:0:0:0:
192,192,67440,128,0,67610:0:0:0:0:
320,192,67440,1,0,0:0:0:0:
448,192,67440,1,0,0:0:0:0:
320,192,67610,128,0,67951:0:0:0:0:
448,192,67610,1,0,0:0:0:0:
64,192,67951,128,0,68121:0:0:0:0:
192,192,67951,1,0,0:0:0:0:
448,192,67951,1,0,0:0:0:0:
192,192,68121,128,0,68292:0:0:0:0:
320,192,68121,1,0,0:0:0:0:
448,192,68121,1,0,0:0:0:0:
320,192,68462,128,0,68633:0:0:0:0:
192,192,68462,1,0,0:0:0:0:
64,192,68462,1,0,0:0:0:0:
448,192,68462,1,0,0:0:0:0:
448,192,68803,128,0,69144:0:0:0:0:
320,192,68803,1,0,0:0:0:0:
192,192,68803,1,0,0:0:0:0:
64,192,68803,1,0,0:0:0:0:
320,192,69144,128,0,69315:0:0:0:0:
64,192,69144,1,0,0:0:0:0:
192,192,69315,128,0,69485:0:0:0:0:
64,192,69315,1,0,0:0:0:0:
320,192,69485,1,0,0:0:0:0:
448,192,69485,1,0,0:0:0:0:
192,192,69570,1,0,0:0:0:0:
64,192,69570,1,0,0:0:0:0:
320,192,69656,1,0,0:0:0:0:
448,192,69656,1,0,0:0:0:0:
192,192,69741,1,0,0:0:0:0:
320,192,69826,1,0,0:0:0:0:
448,192,69911,1,0,0:0:0:0:
192,192,69996,1,0,0:0:0:0:
64,192,69996,1,0,0:0:0:0:
320,192,70082,1,0,0:0:0:0:
448,192,70082,1,0,0:0:0:0:
192,192,70167,1,0,0:0:0:0:
64,192,70167,1,0,0:0:0:0:
320,192,70252,1,0,0:0:0:0:
448,192,70252,1,0,0:0:0:0:
64,192,70337,128,0,71531:0:0:0:0:
192,192,70337,128,0,70423:0:0:0:0:
320,192,70423,128,0,70508:0:0:0:0:
448,192,70508,128,0,70593:0:0:0:0:
320,192,70593,128,0,70678:0:0:0:0:
448,192,70678,128,0,70763:0:0:0:0:
192,192,70678,1,0,0:0:0:0:
192,192,71019,1,0,0:0:0:0:
320,192,71019,128,0,71104:0:0:0:0:
320,192,71190,128,0,71275:0:0:0:0:
192,192,71190,1,0,0:0:0:0:
448,192,71360,1,0,0:0:0:0:
192,192,71360,128,0,71531:0:0:0:0:
448,192,71531,128,0,72042:0:0:0:0:
320,192,71531,128,0,71701:0:0:0:0:
192,192,71701,128,0,71871:0:0:0:0:
64,192,71871,128,0,72042:0:0:0:0:
320,192,72042,128,0,72383:0:0:0:0:
192,192,72042,128,0,72212:0:0:0:0:
192,192,72383,128,0,72724:0:0:0:0:
64,192,72383,128,0,72553:0:0:0:0:
320,192,72553,128,0,72894:0:0:0:0:
448,192,72553,128,0,72724:0:0:0:0:
64,192,72724,128,0,72894:0:0:0:0:
448,192,72894,128,0,74428:0:0:0:0:
192,192,72894,128,0,73746:0:0:0:0:
320,192,73235,1,0,0:0:0:0:
320,192,73406,1,0,0:0:0:0:
64,192,73406,1,0,0:0:0:0:
64,192,73576,1,0,0:0:0:0:
320,192,73746,1,0,0:0:0:0:
192,192,73917,1,0,0:0:0:0:
64,192,73917,1,0,0:0:0:0:
320,192,74087,1,0,0:0:0:0:
192,192,74173,1,0,0:0:0:0:
320,192,74258,1,0,0:0:0:0:
192,192,74343,1,0,0:0:0:0:
64,192,74428,128,0,74940:0:0:0:0:
320,192,74428,128,0,74769:0:0:0:0:
192,192,74940,128,0,75195:0:0:0:0:
448,192,74940,1,0,0:0:0:0:
320,192,74940,1,0,0:0:0:0:
320,192,75110,1,0,0:0:0:0:
448,192,75110,1,0,0:0:0:0:
192,192,75281,128,0,75451:0:0:0:0:
320,192,75281,1,0,0:0:0:0:
448,192,75281,1,0,0:0:0:0:
320,192,75451,128,0,75792:0:0:0:0:
448,192,75451,1,0,0:0:0:0:
64,192,75621,128,0,75707:0:0:0:0:
192,192,75707,128,0,75792:0:0:0:0:
448,192,75792,128,0,76474:0:0:0:0:
64,192,75792,1,0,0:0:0:0:
192,192,75962,128,0,76048:0:0:0:0:
64,192,75962,128,0,76048:0:0:0:0:
64,192,76133,1,0,0:0:0:0:
192,192,76133,1,0,0:0:0:0:
320,192,76303,1,0,0:0:0:0:
192,192,76388,128,0,76900:0:0:0:0:
64,192,76474,1,0,0:0:0:0:
320,192,76644,128,0,76729:0:0:0:0:
448,192,76644,128,0,76729:0:0:0:0:
320,192,76815,1,0,0:0:0:0:
448,192,76815,1,0,0:0:0:0:
64,192,76900,128,0,77411:0:0:0:0:
320,192,76985,1,0,0:0:0:0:
192,192,77156,1,0,0:0:0:0:
448,192,77156,1,0,0:0:0:0:
192,192,77326,1,0,0:0:0:0:
448,192,77411,128,0,77582:0:0:0:0:
320,192,77411,1,0,0:0:0:0:
192,192,77582,1,0,0:0:0:0:
448,192,77667,128,0,77752:0:0:0:0:
320,192,77667,1,0,0:0:0:0:
192,192,77752,1,0,0:0:0:0:
448,192,77837,128,0,78093:0:0:0:0:
320,192,77837,1,0,0:0:0:0:
192,192,78008,128,0,78093:0:0:0:0:
64,192,78008,128,0,78093:0:0:0:0:
320,192,78093,128,0,78349:0:0:0:0:
64,192,78178,1,0,0:0:0:0:
192,192,78178,1,0,0:0:0:0:
192,192,78349,128,0,78519:0:0:0:0:
64,192,78349,1,0,0:0:0:0:
64,192,78519,128,0,79031:0:0:0:0:
320,192,78519,1,0,0:0:0:0:
448,192,78519,1,0,0:0:0:0:
320,192,78690,128,0,78775:0:0:0:0:
448,192,78690,128,0,78775:0:0:0:0:
320,192,78860,1,0,0:0:0:0:
448,192,78860,1,0,0:0:0:0:
448,192,79031,128,0,79542:0:0:0:0:
192,192,79031,1,0,0:0:0:0:
64,192,79201,1,0,0:0:0:0:
320,192,79201,1,0,0:0:0:0:
192,192,79371,128,0,79457:0:0:0:0:
64,192,79371,128,0,79457:0:0:0:0:
320,192,79542,128,0,80053:0:0:0:0:
64,192,79542,1,0,0:0:0:0:
192,192,79542,1,0,0:0:0:0:
192,192,79712,1,0,0:0:0:0:
64,192,79883,1,0,0:0:0:0:
448,192,79883,1,0,0:0:0:0:
448,192,80053,128,0,80565:0:0:0:0:
192,192,80053,128,0,80138:0:0:0:0:
64,192,80053,128,0,80138:0:0:0:0:
64,192,80224,1,0,0:0:0:0:
192,192,80224,1,0,0:0:0:0:
320,192,80394,1,0,0:0:0:0:
320,192,80565,128,0,80906:0:0:0:0:
192,192,80565,1,0,0:0:0:0:
64,192,80565,128,0,80735:0:0:0:0:
448,192,80735,128,0,80906:0:0:0:0:
192,192,80906,128,0,81246:0:0:0:0:
64,192,80906,128,0,81076:0:0:0:0:
320,192,81076,128,0,81246:0:0:0:0:
64,192,81246,1,0,0:0:0:0:
448,192,81246,1,0,0:0:0:0:
64,192,81417,128,0,83292:0:0:0:0:
192,192,81587,1,0,0:0:0:0:
320,192,81587,1,0,0:0:0:0:
192,192,81758,128,0,82781:0:0:0:0:
320,192,81928,1,0,0:0:0:0:
448,192,81928,1,0,0:0:0:0:
320,192,82099,128,0,82440:0:0:0:0:
448,192,82269,1,0,0:0:0:0:
448,192,82440,128,0,83207:0:0:0:0:
320,192,82610,1,0,0:0:0:0:
320,192,82781,128,0,83207:0:0:0:0:
192,192,82951,1,0,0:0:0:0:
192,192,83121,128,0,83292:0:0:0:0:
448,192,83292,1,0,0:0:0:0:
320,192,83292,128,0,83406:0:0:0:0:
192,192,83406,128,0,83519:0:0:0:0:
64,192,83406,1,0,0:0:0:0:
320,192,83519,128,0,83633:0:0:0:0:
448,192,83519,1,0,0:0:0:0:
192,192,83633,1,0,0:0:0:0:
64,192,83633,128,0,83746:0:0:0:0:
448,192,83746,128,0,83860:0:0:0:0:
320,192,83746,1,0,0:0:0:0:
64,192,83860,128,0,83974:0:0:0:0:
192,192,83860,1,0,0:0:0:0:
320,192,83974,128,0,84485:0:0:0:0:
448,192,83974,1,0,0:0:0:0:
192,192,84144,128,0,84229:0:0:0:0:
64,192,84144,128,0,84229:0:0:0:0:
192,192,84315,1,0,0:0:0:0:
64,192,84315,1,0,0:0:0:0:
192,192,84485,128,0,84996:0:0:0:0:
448,192,84485,1,0,0:0:0:0:
64,192,84656,1,0,0:0:0:0:
448,192,84656,1,0,0:0:0:0:
320,192,84826,1,0,0:0:0:0:
64,192,84826,1,0,0:0:0:0:
448,192,84996,128,0,85678:0:0:0:0:
320,192,84996,128,0,85508:0:0:0:0:
64,192,85167,1,0,0:0:0:0:
192,192,85337,128,0,85508:0:0:0:0:
64,192,85508,128,0,85678:0:0:0:0:
192,192,85678,128,0,85849:0:0:0:0:
320,192,85678,1,0,0:0:0:0:
320,192,85849,1,0,0:0:0:0:
448,192,85849,1,0,0:0:0:0:
192,192,85934,1,0,0:0:0:0:
64,192,85934,1,0,0:0:0:0:
320,192,86019,1,0,0:0:0:0:
448,192,86019,1,0,0:0:0:0:
192,192,86104,1,0,0:0:0:0:
64,192,86104,1,0,0:0:0:0:
320,192,86190,1,0,0:0:0:0:
448,192,86190,1,0,0:0:0:0:
192,192,86275,1,0,0:0:0:0:
64,192,86275,1,0,0:0:0:0:
320,192,86360,1,0,0:0:0:0:
448,192,86360,1,0,0:0:0:0:
192,192,86445,1,0,0:0:0:0:
64,192,86445,1,0,0:0:0:0:
320,192,86531,1,0,0:0:0:0:
448,192,86531,1,0,0:0:0:0:
192,192,86616,1,0,0:0:0:0:
64,192,86616,1,0,0:0:0:0:
320,192,86701,1,0,0:0:0:0:
448,192,86701,1,0,0:0:0:0:
64,192,86786,1,0,0:0:0:0:
192,192,86871,1,0,0:0:0:0:
320,192,86871,1,0,0:0:0:0:
448,192,86957,1,0,0:0:0:0:
192,192,87042,1,0,0:0:0:0:
64,192,87042,1,0,0:0:0:0:
320,192,87127,1,0,0:0:0:0:
448,192,87212,1,0,0:0:0:0:
64,192,87212,1,0,0:0:0:0:
192,192,87298,1,0,0:0:0:0:
320,192,87383,1,0,0:0:0:0:
448,192,87383,1,0,0:0:0:0:
64,192,87468,1,0,0:0:0:0:
192,192,87553,1,0,0:0:0:0:
448,192,87553,1,0,0:0:0:0:
320,192,87638,1,0,0:0:0:0:
192,192,87724,1,0,0:0:0:0:
64,192,87724,1,0,0:0:0:0:
448,192,87809,1,0,0:0:0:0:
320,192,87894,1,0,0:0:0:0:
192,192,87894,1,0,0:0:0:0:
64,192,87979,1,0,0:0:0:0:
320,192,88065,1,0,0:0:0:0:
448,192,88065,1,0,0:0:0:0:
192,192,88150,1,0,0:0:0:0:
64,192,88235,1,0,0:0:0:0:
448,192,88235,1,0,0:0:0:0:
320,192,88320,1,0,0:0:0:0:
192,192,88406,1,0,0:0:0:0:
64,192,88406,1,0,0:0:0:0:
448,192,88491,1,0,0:0:0:0:
320,192,88576,1,0,0:0:0:0:
64,192,88576,1,0,0:0:0:0:
192,192,88661,1,0,0:0:0:0:
320,192,88746,1,0,0:0:0:0:
448,192,88746,1,0,0:0:0:0:
192,192,88832,1,0,0:0:0:0:
64,192,88917,1,0,0:0:0:0:
448,192,88917,1,0,0:0:0:0:
320,192,89002,1,0,0:0:0:0:
192,192,89087,1,0,0:0:0:0:
448,192,89087,1,0,0:0:0:0:
64,192,89173,1,0,0:0:0:0:
320,192,89258,1,0,0:0:0:0:
448,192,89258,1,0,0:0:0:0:
64,192,89343,1,0,0:0:0:0:
320,192,89428,1,0,0:0:0:0:
448,192,89428,1,0,0:0:0:0:
192,192,89428,1,0,0:0:0:0:
192,192,89599,1,0,0:0:0:0:
320,192,89599,1,0,0:0:0:0:
64,192,89599,1,0,0:0:0:0:
448,192,89769,1,0,0:0:0:0:
192,192,89769,1,0,0:0:0:0:
320,192,89769,1,0,0:0:0:0:
448,192,89940,1,0,0:0:0:0:
320,192,89940,1,0,0:0:0:0:
192,192,89940,1,0,0:0:0:0:
64,192,89940,1,0,0:0:0:0:
64,192,90281,1,0,0:0:0:0:
192,192,90281,1,0,0:0:0:0:
320,192,90281,1,0,0:0:0:0:
448,192,90281,1,0,0:0:0:0:
448,192,90621,1,0,0:0:0:0:
320,192,90621,1,0,0:0:0:0:
192,192,90621,1,0,0:0:0:0:
64,192,90621,128,0,90962:0:0:0:0:
448,192,90962,1,0,0:0:0:0:
192,192,90962,1,0,0:0:0:0:
320,192,91048,1,0,0:0:0:0:
64,192,91133,1,0,0:0:0:0:
448,192,91133,1,0,0:0:0:0:
192,192,91218,1,0,0:0:0:0:
64,192,91303,1,0,0:0:0:0:
448,192,91303,1,0,0:0:0:0:
320,192,91388,1,0,0:0:0:0:
64,192,91474,1,0,0:0:0:0:
192,192,91474,1,0,0:0:0:0:
320,192,91559,1,0,0:0:0:0:
448,192,91559,1,0,0:0:0:0:
192,192,91644,1,0,0:0:0:0:
64,192,91644,1,0,0:0:0:0:
320,192,91729,1,0,0:0:0:0:
448,192,91729,1,0,0:0:0:0:
192,192,91815,1,0,0:0:0:0:
64,192,91815,1,0,0:0:0:0:
320,192,91900,1,0,0:0:0:0:
448,192,91900,1,0,0:0:0:0:
192,192,91985,1,0,0:0:0:0:
64,192,91985,1,0,0:0:0:0:
320,192,92070,1,0,0:0:0:0:
448,192,92070,1,0,0:0:0:0:
192,192,92156,1,0,0:0:0:0:
64,192,92156,1,0,0:0:0:0:
448,192,92241,1,0,0:0:0:0:
320,192,92326,1,0,0:0:0:0:
64,192,92326,1,0,0:0:0:0:
192,192,92411,1,0,0:0:0:0:
320,192,92496,1,0,0:0:0:0:
448,192,92496,1,0,0:0:0:0:
64,192,92582,1,0,0:0:0:0:
192,192,92667,1,0,0:0:0:0:
320,192,92667,1,0,0:0:0:0:
448,192,92752,1,0,0:0:0:0:
192,192,92837,1,0,0:0:0:0:
64,192,92837,1,0,0:0:0:0:
320,192,92923,1,0,0:0:0:0:
192,192,93008,1,0,0:0:0:0:
448,192,93008,1,0,0:0:0:0:
64,192,93093,1,0,0:0:0:0:
320,192,93178,1,0,0:0:0:0:
448,192,93178,1,0,0:0:0:0:
64,192,93263,1,0,0:0:0:0:
192,192,93349,1,0,0:0:0:0:
448,192,93349,1,0,0:0:0:0:
320,192,93434,1,0,0:0:0:0:
64,192,93519,1,0,0:0:0:0:
448,192,93519,1,0,0:0:0:0:
192,192,93604,1,0,0:0:0:0:
320,192,93690,1,0,0:0:0:0:
448,192,93690,1,0,0:0:0:0:
64,192,93775,1,0,0:0:0:0:
192,192,93860,1,0,0:0:0:0:
320,192,93860,1,0,0:0:0:0:
64,192,93945,1,0,0:0:0:0:
448,192,94031,1,0,0:0:0:0:
320,192,94031,1,0,0:0:0:0:
192,192,94116,1,0,0:0:0:0:
64,192,94201,1,0,0:0:0:0:
320,192,94201,1,0,0:0:0:0:
192,192,94286,1,0,0:0:0:0:
64,192,94371,1,0,0:0:0:0:
448,192,94371,1,0,0:0:0:0:
320,192,94457,1,0,0:0:0:0:
192,192,94542,1,0,0:0:0:0:
448,192,94542,1,0,0:0:0:0:
64,192,94627,1,0,0:0:0:0:
320,192,94712,1,0,0:0:0:0:
448,192,94712,1,0,0:0:0:0:
192,192,94798,1,0,0:0:0:0:
64,192,94883,1,0,0:0:0:0:
320,192,94883,1,0,0:0:0:0:
448,192,94883,1,0,0:0:0:0:
64,192,95053,1,0,0:0:0:0:
192,192,95053,1,0,0:0:0:0:
448,192,95053,1,0,0:0:0:0:
64,192,95394,1,0,0:0:0:0:
192,192,95394,1,0,0:0:0:0:
320,192,95394,1,0,0:0:0:0:
448,192,95394,1,0,0:0:0:0:
64,192,95735,1,0,0:0:0:0:
192,192,95735,1,0,0:0:0:0:
448,192,95735,1,0,0:0:0:0:
320,192,95735,1,0,0:0:0:0:
320,192,96076,1,0,0:0:0:0:
192,192,96076,1,0,0:0:0:0:
64,192,96076,1,0,0:0:0:0:
448,192,96076,128,0,96417:0:0:0:0:
64,192,96417,128,0,96587:0:0:0:0:
192,192,96417,1,0,0:0:0:0:
192,192,96587,128,0,96758:0:0:0:0:
320,192,96587,1,0,0:0:0:0:
320,192,96758,128,0,96928:0:0:0:0:
448,192,96758,1,0,0:0:0:0:
64,192,96928,128,0,97099:0:0:0:0:
192,192,96928,1,0,0:0:0:0:
192,192,97099,128,0,97269:0:0:0:0:
320,192,97099,1,0,0:0:0:0:
320,192,97269,1,0,0:0:0:0:
448,192,97269,1,0,0:0:0:0:
192,192,97354,1,0,0:0:0:0:
64,192,97354,1,0,0:0:0:0:
320,192,97440,1,0,0:0:0:0:
448,192,97440,1,0,0:0:0:0:
192,192,97525,1,0,0:0:0:0:
64,192,97525,1,0,0:0:0:0:
320,192,97610,1,0,0:0:0:0:
448,192,97610,1,0,0:0:0:0:
192,192,97610,1,0,0:0:0:0:
64,192,97610,1,0,0:0:0:0:
64,192,97781,1,0,0:0:0:0:
192,192,97781,1,0,0:0:0:0:
320,192,97781,1,0,0:0:0:0:
448,192,97781,1,0,0:0:0:0:
64,192,98121,1,0,0:0:0:0:
192,192,98121,1,0,0:0:0:0:
320,192,98121,1,0,0:0:0:0:
448,192,98121,1,0,0:0:0:0:
448,192,98462,1,0,0:0:0:0:
320,192,98462,1,0,0:0:0:0:
192,192,98462,1,0,0:0:0:0:
64,192,98462,1,0,0:0:0:0:
320,192,98803,1,0,0:0:0:0:
448,192,98803,1,0,0:0:0:0:
64,192,98803,1,0,0:0:0:0:
192,192,98803,128,0,99144:0:0:0:0:
320,192,99144,128,0,99485:0:0:0:0:
64,192,99144,1,0,0:0:0:0:
448,192,99144,1,0,0:0:0:0:
192,192,99315,1,0,0:0:0:0:
64,192,99315,1,0,0:0:0:0:
64,192,99485,1,0,0:0:0:0:
448,192,99485,1,0,0:0:0:0:
320,192,99570,1,0,0:0:0:0:
192,192,99570,1,0,0:0:0:0:
64,192,99656,1,0,0:0:0:0:
448,192,99656,1,0,0:0:0:0:
320,192,99741,1,0,0:0:0:0:
192,192,99741,1,0,0:0:0:0:
64,192,99826,1,0,0:0:0:0:
448,192,99826,1,0,0:0:0:0:
320,192,99911,1,0,0:0:0:0:
192,192,99911,1,0,0:0:0:0:
64,192,99996,1,0,0:0:0:0:
448,192,99996,1,0,0:0:0:0:
320,192,100082,1,0,0:0:0:0:
192,192,100082,1,0,0:0:0:0:
64,192,100167,1,0,0:0:0:0:
448,192,100167,1,0,0:0:0:0:
320,192,100252,1,0,0:0:0:0:
192,192,100252,1,0,0:0:0:0:
64,192,100337,1,0,0:0:0:0:
448,192,100337,1,0,0:0:0:0:
64,192,100508,1,0,0:0:0:0:
448,192,100508,1,0,0:0:0:0:
192,192,100849,1,0,0:0:0:0:
320,192,100849,1,0,0:0:0:0:
64,192,101019,1,0,0:0:0:0:
448,192,101019,1,0,0:0:0:0:
64,192,101360,1,0,0:0:0:0:
448,192,101360,1,0,0:0:0:0:
192,192,101531,128,0,101871:0:0:0:0:
320,192,101531,1,0,0:0:0:0:
320,192,101871,128,0,102042:0:0:0:0:
448,192,101871,1,0,0:0:0:0:
448,192,102212,128,0,102383:0:0:0:0:
320,192,102212,1,0,0:0:0:0:
320,192,102553,128,0,102894:0:0:0:0:
192,192,102553,1,0,0:0:0:0:
192,192,102894,1,0,0:0:0:0:
64,192,102894,1,0,0:0:0:0:
320,192,102979,1,0,0:0:0:0:
448,192,102979,1,0,0:0:0:0:
192,192,103065,1,0,0:0:0:0:
64,192,103065,1,0,0:0:0:0:
448,192,103065,1,0,0:0:0:0:
64,192,103235,1,0,0:0:0:0:
448,192,103235,1,0,0:0:0:0:
192,192,103576,1,0,0:0:0:0:
320,192,103576,1,0,0:0:0:0:
64,192,103746,1,0,0:0:0:0:
448,192,103746,1,0,0:0:0:0:
64,192,104087,1,0,0:0:0:0:
448,192,104087,1,0,0:0:0:0:
448,192,104258,128,0,104599:0:0:0:0:
320,192,104258,1,0,0:0:0:0:
192,192,104428,128,0,104769:0:0:0:0:
320,192,104599,128,0,104940:0:0:0:0:
64,192,104599,1,0,0:0:0:0:
64,192,104769,128,0,105110:0:0:0:0:
192,192,104940,128,0,105281:0:0:0:0:
448,192,104940,1,0,0:0:0:0:
448,192,105110,128,0,105451:0:0:0:0:
320,192,105281,128,0,105621:0:0:0:0:
64,192,105281,1,0,0:0:0:0:
192,192,105451,128,0,105792:0:0:0:0:
64,192,105451,1,0,0:0:0:0:
64,192,105621,128,0,108178:0:0:0:0:
448,192,105621,1,0,0:0:0:0:
320,192,105962,1,0,0:0:0:0:
448,192,106133,1,0,0:0:0:0:
192,192,106303,1,0,0:0:0:0:
320,192,106388,1,0,0:0:0:0:
192,192,106474,1,0,0:0:0:0:
192,192,106644,128,0,106815:0:0:0:0:
320,192,106815,128,0,106985:0:0:0:0:
448,192,106985,128,0,108178:0:0:0:0:
192,192,106985,1,0,0:0:0:0:
320,192,107156,128,0,107326:0:0:0:0:
192,192,107326,128,0,108178:0:0:0:0:
320,192,107496,1,0,0:0:0:0:
320,192,107837,1,0,0:0:0:0:
320,192,108178,1,0,0:0:0:0:
192,192,108263,1,0,0:0:0:0:
64,192,108263,1,0,0:0:0:0:
320,192,108349,1,0,0:0:0:0:
448,192,108349,1,0,0:0:0:0:
192,192,108434,1,0,0:0:0:0:
64,192,108434,1,0,0:0:0:0:
320,192,108519,1,0,0:0:0:0:
448,192,108519,1,0,0:0:0:0:
320,192,109712,128,0,110053:0:0:0:0:
448,192,109712,1,0,0:0:0:0:
192,192,109712,1,0,0:0:0:0:
64,192,109712,1,0,0:0:0:0:
192,192,110053,128,0,110224:0:0:0:0:
64,192,110053,1,0,0:0:0:0:
448,192,110053,1,0,0:0:0:0:
320,192,110224,128,0,110394:0:0:0:0:
448,192,110224,1,0,0:0:0:0:
64,192,110224,1,0,0:0:0:0:
64,192,110394,128,0,110565:0:0:0:0:
192,192,110394,1,0,0:0:0:0:
448,192,110394,1,0,0:0:0:0:
448,192,110565,128,0,110735:0:0:0:0:
192,192,110565,1,0,0:0:0:0:
320,192,110565,1,0,0:0:0:0:
64,192,110735,128,0,110906:0:0:0:0:
192,192,110735,1,0,0:0:0:0:
320,192,110735,1,0,0:0:0:0:
192,192,110906,128,0,111076:0:0:0:0:
320,192,110906,1,0,0:0:0:0:
448,192,110906,1,0,0:0:0:0:
320,192,111076,128,0,111246:0:0:0:0:
64,192,111076,1,0,0:0:0:0:
448,192,111076,1,0,0:0:0:0:
448,192,111246,128,0,111332:0:0:0:0:
192,192,111246,1,0,0:0:0:0:
64,192,111246,1,0,0:0:0:0:
448,192,111417,128,0,111502:0:0:0:0:
320,192,111417,1,0,0:0:0:0:
192,192,111417,1,0,0:0:0:0:
64,192,112269,128,0,112312:0:0:0:0:
192,192,112312,128,0,112354:0:0:0:0:
320,192,112354,128,0,112397:0:0:0:0:
448,192,112397,128,0,112610:0:0:0:0:
64,192,112610,1,0,0:0:0:0:
192,192,112610,1,0,0:0:0:0:
320,192,112610,1,0,0:0:0:0:
