osu file format v14

[General]
AudioFilename: audio.mp3
AudioLeadIn: 0
PreviewTime: 64621
Countdown: 1
SampleSet: None
StackLeniency: 0.7
Mode: 0
LetterboxInBreaks: 0
EpilepsyWarning: 1
WidescreenStoryboard: 1

[Editor]
Bookmarks: 11432,55540,65594,68351,72729,75162
DistanceSpacing: 0.6
BeatDivisor: 16
GridSize: 32
TimelineZoom: 5.399997

[Metadata]
Title:JUSTadICE
TitleUnicode:JUSTadICE
Artist:
ArtistUnicode:
Creator:LimeTwist
Version:bye
Source:
Tags:
BeatmapID:2158646
BeatmapSetID:1012564

[Difficulty]
HPDrainRate:0
CircleSize:3.4
OverallDifficulty:0
ApproachRate:9.7
SliderMultiplier:2.5
SliderTickRate:1

[Events]
//Background and Video events
0,0,"bg.jpg",0,0
//Break Periods
//Storyboard Layer 0 (Background)
//Storyboard Layer 1 (Fail)
//Storyboard Layer 2 (Pass)
//Storyboard Layer 3 (Foreground)
//Storyboard Layer 4 (Overlay)
//Storyboard Sound Samples

[TimingPoints]
730,324.324324324324,4,3,22,45,1,0
65270,-400,4,3,22,45,0,0
65594,-66.6666666666667,4,3,22,45,0,0
66729,-200,4,3,22,45,0,0
67216,-66.6666666666667,4,3,22,45,0,0
69324,-200,4,3,22,45,0,0
69811,-66.6666666666667,4,3,22,45,0,0
70784,-62.5,4,3,22,45,0,0
71919,-200,4,3,22,45,0,0
72405,-58.8235294117647,4,3,22,45,0,0
75973,-50,4,3,22,45,0,0
77108,-133.333333333333,4,3,22,45,0,0
77594,-50,4,3,22,45,0,0
79702,-133.333333333333,4,3,22,45,0,0
80189,-47.6190476190476,4,3,22,45,0,0
81162,-1000,4,3,22,45,0,0
81486,-200,4,3,22,45,0,0
81811,-100,4,3,22,45,0,0
82135,-76.9230769230769,4,3,22,45,0,0
82459,-50,4,3,22,45,0,0
82784,-33.3333333333333,4,3,22,45,0,0
83108,-25,4,3,22,45,0,0
83757,-50,4,3,22,45,0,0
86351,-1000,4,2,22,100,0,0
87162,-100,4,2,22,100,0,0
88459,-25,4,2,22,100,0,0
89432,-100,4,2,22,100,0,0

[Colours]
Combo1 : 236,0,0
Combo2 : 255,196,136
Combo3 : 155,177,1

[HitObjects]
174,99,64621,6,0,L|155:368,1,250
281,44,65270,2,0,L|277:102,1,46.875
277,90,65594,2,0,B|217:179|208:225|198:291|258:338|308:315|346:268|331:234|309:182,1,375.000014305115
46,277,66243,2,0,B|200:188|200:188|432:281,1,375.000014305115
240,41,66729,2,0,B|261:100|210:90|246:183,1,125
239,162,67216,2,0,B|333:167|333:167|464:257,1,187.500007152558
310,348,67540,2,0,P|207:353|88:346,1,187.500007152558
202,36,67865,2,0,P|305:31|424:38,1,187.500007152558
323,326,68189,2,0,B|361:246|373:151|373:151|449:261|449:261|363:248,1,375.000014305115
2,205,68838,2,0,B|125:180|179:210|149:349|405:224,1,375.000014305115
353,246,69324,2,0,B|379:308|379:308|368:369,1,125
281,322,69811,2,0,P|147:319|29:332,1,187.500007152558
336,213,70135,2,0,P|202:216|84:203,1,187.500007152558
425,91,70459,2,0,P|291:88|173:101,1,187.500007152558
133,124,70784,2,0,B|163:249|127:319|127:319|49:261|42:108,1,400
45,143,71432,2,0,B|49:261|127:319|127:319|163:249|133:124,1,400
470,350,71919,2,0,P|433:332|337:307,1,125
149,118,72405,2,0,P|156:214|139:391,1,212.500004053116
317,35,72729,2,0,P|310:131|327:308,1,212.500004053116
150,330,73054,2,0,P|87:257|-50:144,1,212.500004053116
211,32,73378,2,0,B|245:146|237:324|237:324|312:300|388:166,1,425.000008106232
153,248,74027,2,0,B|17:233|56:173|126:105|295:177|6:286|376:321|444:263,1,425.000008106232
474,281,74513,2,0,B|456:138|299:113|299:113|257:209|359:353,1,425.000008106232
309,269,75000,2,0,L|448:253,1,106.250002026558
202,114,75162,2,0,L|64:131,1,106.250002026558
333,138,75324,2,0,L|317:0,1,106.250002026558
178,245,75486,2,0,L|195:384,1,106.250002026558
178,138,75648,2,0,L|195:0,1,106.250002026558
333,245,75810,2,0,L|317:384,1,106.250002026558
320,351,75973,2,0,P|154:328|345:182,1,500
54,133,76621,2,0,B|127:174|221:146|221:146|139:239|145:331|145:331|195:297|342:356,1,500
383,343,77108,2,0,L|370:122,1,187.500007152558
115,251,77594,2,0,B|123:127|123:127|115:1,1,250
454,59,77919,2,0,B|446:185|446:185|458:355,1,250
0,0,78243,2,0,B|8:126|8:126|0:249,1,250
89,236,78567,2,0,B|132:198|132:198|173:202|173:202|198:173|198:173|235:170|235:170|265:145|265:145|302:157|302:157|333:138|333:138|375:151|375:151|431:128|431:128|452:165|452:165|493:146|493:146|515:178,1,500
408,366,79216,2,0,B|353:347|353:347|336:310|336:310|298:303|298:303|277:272|277:272|241:259|241:259|233:221|233:221|201:203|201:203|191:160|191:160|143:123|143:123|165:87|165:87|128:61|128:61|144:26,1,500
318,164,79702,2,0,B|248:139|248:139|216:192|216:192|153:213,1,187.500007152558
114,59,80189,2,0,P|244:43|414:87,1,262.499991989136
398,325,80513,2,0,P|268:341|98:297,1,262.499991989136
512,273,80838,2,0,P|528:143|484:-27,1,262.499991989136
487,23,81162,2,0,L|469:22,1,12.5
487,23,81486,2,0,L|411:40,1,62.5
192,98,81811,2,0,P|203:169|234:263,1,125
482,298,82135,2,0,B|474:211|474:211|440:133,1,162.499992561341
73,247,82459,2,0,B|100:249|100:249|141:254|141:254|123:251|123:251|134:252|149:255|149:255|139:255|139:255|182:252|182:252|181:253|181:253|199:249|199:249|196:250|196:250|221:246|221:246|209:248|209:248|252:246|252:246|290:243|290:243|286:242|286:242|274:245|274:245|272:245,1,250
289,24,82784,2,0,B|298:50|298:50|296:44|296:44|301:54|301:54|314:71|314:71|296:36|296:36|308:64|308:64|321:94|321:94|334:122|334:122|346:149|346:149|348:135|348:135|309:64|309:64|306:62|336:131|336:131|345:106|345:106|298:195,1,375.000014305115
55,55,83108,2,0,B|84:291|199:340|323:326|321:202|263:154|133:107|88:135|-33:366|-33:366|296:367,1,1000
332,342,83757,2,0,B|343:235|307:236|252:217|271:118|271:118|183:145|183:145|110:118|110:118|5:138,1,500
394,109,84243,1,0,0:0:0:0:
161,290,84405,1,0,0:0:0:0:
220,65,84567,1,0,0:0:0:0:
383,356,84729,1,0,0:0:0:0:
62,190,84892,1,0,0:0:0:0:
441,68,85054,1,0,0:0:0:0:
130,302,85216,1,0,0:0:0:0:
130,302,85378,2,0,P|248:326|390:314,1,250
253,75,85702,1,0,0:0:0:0:
253,75,85865,2,0,B|286:193|286:193|254:362,2,250
0,6,86351,2,0,L|21:37,1,37.5
256,154,87162,2,14,L|256:153,554,1.5625
256,154,88297,1,0,0:0:0:0:
96,96,88459,2,0,B|103:329|103:329|94:100|94:100|123:88|145:87|198:97|218:151|197:189|159:195|143:193|78:197|192:211|212:246|206:300|168:330|134:332|101:319,1,812.5
267,336,88479,2,0,B|351:141|351:141|312:235|312:235|238:124,1,437.5
394,330,88500,2,0,B|403:101|403:101|510:113|510:113|401:109|401:109|399:228|399:228|512:220|512:220|397:226|397:226|392:333|392:333|516:331,1,1015.625
254,201,91946,1,14,0:0:0:0:
254,201,92027,1,14,0:0:0:0:
254,201,92108,1,14,0:0:0:0:
254,201,92189,1,14,0:0:0:0:
254,201,92270,1,14,0:0:0:0:
254,201,92351,1,14,0:0:0:0:
254,201,92432,1,14,0:0:0:0:
254,201,92513,1,14,0:0:0:0:
254,201,92594,1,14,0:0:0:0:
99,66,92837,1,14,0:0:0:0:
45,374,93081,1,14,0:0:0:0:
45,374,93162,2,14,L|45:358,16,15.625
45,374,93182,2,14,L|45:358,16,15.625
45,374,93202,2,14,L|45:358,16,15.625
45,374,93223,2,14,L|45:358,16,15.625
45,374,93243,2,14,L|45:358,16,15.625
45,374,93263,2,14,L|45:358,16,15.625
45,374,93284,2,14,L|45:358,16,15.625
45,374,93304,2,14,L|45:358,16,15.625
45,374,93324,2,14,L|45:358,16,15.625
45,374,93344,2,14,L|45:358,16,15.625
45,374,93365,2,14,L|45:358,16,15.625
279,176,93709,1,14,0:0:0:0:
279,176,93770,1,14,0:0:0:0:
214,309,93790,1,14,0:0:0:0:
