osu file format v14

[General]
AudioFilename: audio.mp3
AudioLeadIn: 0
PreviewTime: 64621
Countdown: 1
SampleSet: Soft
StackLeniency: 0.7
Mode: 0
LetterboxInBreaks: 0
EpilepsyWarning: 1
WidescreenStoryboard: 1

[Editor]
DistanceSpacing: 0.4
BeatDivisor: 4
GridSize: 16
TimelineZoom: 1.5

[Metadata]
Title:JUSTadICE
TitleUnicode:JUSTadICE
Artist:
ArtistUnicode:
Creator:LimeTwist
Version:Insane
Source:
Tags:
BeatmapID:2119356
BeatmapSetID:1012564

[Difficulty]
HPDrainRate:5
CircleSize:4
OverallDifficulty:6
ApproachRate:9.4
SliderMultiplier:2
SliderTickRate:1

[Events]
//Background and Video events
0,0,"bg.jpg",0,0
//Break Periods
//Storyboard Layer 0 (Background)
//Storyboard Layer 1 (Fail)
//Storyboard Layer 2 (Pass)
//Storyboard Layer 3 (Foreground)
//Storyboard Layer 4 (Overlay)
//Storyboard Sound Samples

[TimingPoints]
730,324.324324324324,4,3,22,45,1,0
730,-133.333333333333,4,3,22,45,0,0
1054,-153.846153846153,4,3,22,45,0,0
1378,-181.818181818181,4,3,22,45,0,0
1865,-133.333333333333,4,3,22,45,0,0
3648,-153.846153846153,4,3,22,45,0,0
3973,-181.818181818181,4,3,22,45,0,0
5919,-133.333333333333,4,3,22,45,0,0
6243,-153.846153846153,4,3,22,45,0,0
6567,-181.818181818181,4,3,22,45,0,0
7054,-133.333333333333,4,3,22,45,0,0
8838,-153.846153846153,4,3,22,45,0,0
9162,-181.818181818181,4,3,22,45,0,0
9648,-133.333333333333,4,3,22,45,0,0
11432,-153.846153846153,4,3,22,45,0,0
11757,-181.818181818181,4,3,22,45,0,0
12243,-133.333333333333,4,3,22,45,0,0
16297,-181.818181818181,4,3,22,45,0,0
16784,-153.846153846153,4,3,22,45,0,0
17270,-133.333333333333,4,3,22,45,0,0
17757,-100,4,3,22,45,0,0
18892,-83.3333333333333,4,3,22,45,0,0
20027,-83.3333333333333,4,2,22,70,0,0
21162,-133.333333333333,4,2,22,60,0,0
21486,-83.3333333333333,4,2,22,60,0,0
30729,-83.3333333333333,4,3,22,60,0,0
31865,-100,4,2,22,60,0,0
39648,-133.333333333333,4,2,22,60,0,0
39973,-100,4,2,22,60,0,0
40297,-86.9565217391304,4,2,22,60,0,0
41108,-100,4,2,22,60,0,0
46459,-100,4,2,22,35,0,0
46784,-100,4,2,22,50,0,0
47108,-100,4,2,22,60,0,0
50027,-80,4,2,22,45,0,0
64621,-133.333333333333,4,2,22,45,0,0
64946,-250,4,3,22,45,0,0
65270,-500,4,3,22,45,0,0
65594,-66.6666666666667,4,2,22,70,0,0
65919,-62.5,4,2,22,70,0,0
66243,-58.8235294117647,4,2,22,70,0,0
66567,-100,4,2,22,70,0,0
68189,-62.5,4,2,22,70,0,0
68513,-58.8235294117647,4,2,22,70,0,0
68838,-55.5555555555556,4,2,22,70,0,0
69324,-100,4,2,22,70,0,0
70784,-66.6666666666667,4,2,22,70,0,0
71108,-62.5,4,2,22,70,0,0
71432,-58.8235294117647,4,2,22,70,0,0
71757,-100,4,2,22,70,0,0
73378,-80,4,2,22,70,0,0
75973,-66.6666666666667,4,2,22,70,0,0
76297,-62.5,4,2,22,70,0,0
76621,-58.8235294117647,4,2,22,70,0,0
77108,-80,4,2,22,70,0,0
78567,-66.6666666666667,4,2,22,70,0,0
78892,-58.8235294117647,4,2,22,70,0,0
79702,-133.333333333333,4,2,22,70,0,0
80189,-80,4,2,22,70,0,0
81162,-133.333333333333,4,2,22,70,0,0
81486,-117.647058823529,4,2,22,70,0,0
81811,-100,4,2,22,70,0,0
82135,-80,4,2,22,70,0,0
82459,-66.6666666666667,4,2,22,70,0,0
82784,-55.5555555555556,4,2,22,70,0,0
83108,-50,4,2,22,70,0,0
83757,-66.6666666666667,4,2,22,70,0,0
84405,-62.5,4,2,22,70,0,0
84729,-58.8235294117647,4,2,22,70,0,0
85865,-76.9230769230769,4,2,22,70,0,0
86351,-125,4,2,22,70,0,0
87162,-66.6666666666667,4,2,22,70,0,0
88621,-66.6666666666667,4,2,22,5,0,0

[Colours]
Combo1 : 236,0,0
Combo2 : 255,196,136
Combo3 : 155,177,1

[HitObjects]
181,190,730,6,0,P|179:239|163:279,1,75.000002861023,2|0,0:0|0:0,0:0:0:0:
214,134,1054,2,0,P|191:177|160:207,1,64.9999970245363,2|0,0:0|0:0,0:0:0:0:
309,82,1378,2,0,P|253:121|212:134,1,110.000003356934,2|2,0:0|0:0,0:0:0:0:
276,314,1865,2,2,B|294:231|244:244|263:167,1,150.000005722046
404,216,2351,1,2,0:0:0:0:
444,243,2513,1,2,0:0:0:0:
396,300,2675,2,0,B|352:290|352:290|241:307,1,150.000005722046,2|0,0:0|0:0,0:0:0:0:
445,150,3324,6,0,P|408:144|360:152,1,75.000002861023,2|0,0:0|0:0,0:0:0:0:
321,239,3648,2,0,P|288:241|256:235,1,64.9999970245363,2|0,0:0|0:0,0:0:0:0:
217,150,3973,2,0,P|196:168|181:267,1,110.000003356934,2|0,0:0|0:0,0:0:0:0:
269,359,4459,2,0,L|253:248,1,110.000003356934,2|0,0:0|0:0,0:0:0:0:
237,135,4946,1,2,0:0:0:0:
275,155,5108,1,2,0:0:0:0:
286,208,5270,1,2,0:0:0:0:
236,266,5432,1,2,0:0:0:0:
313,307,5594,1,2,0:0:0:0:
361,381,5757,1,2,0:0:0:0:
384,280,5919,6,0,L|402:176,1,75.0000028610231,2|0,0:0|0:0,0:0:0:0:
304,216,6243,2,0,L|290:142,1,64.9999970245363,2|0,0:0|0:0,0:0:0:0:
392,176,6567,2,0,L|405:102,1,55.0000016784668,2|0,0:0|0:0,0:0:0:0:
424,40,6892,1,0,0:0:0:0:
424,40,7054,2,2,P|357:62|332:158,1,150.000005722046
336,227,7540,1,2,0:0:0:0:
294,164,7702,1,2,0:0:0:0:
207,137,7865,2,0,P|123:138|34:148,1,150.000005722046,2|0,0:0|0:0,0:0:0:0:
209,353,8513,6,0,P|197:295|175:264,1,75.0000028610231,2|0,0:0|0:0,0:0:0:0:
288,168,8838,2,0,P|272:202|268:239,1,64.9999970245363,2|0,0:0|0:0,0:0:0:0:
136,168,9162,2,0,P|151:202|155:239,1,55.0000016784668,2|0,0:0|0:0,0:0:0:0:
144,352,9486,1,2,0:0:0:0:
144,352,9648,2,2,P|222:350|316:366,1,150.000005722046
236,220,10135,1,2,0:0:0:0:
283,277,10297,1,2,0:0:0:0:
309,355,10459,1,2,0:0:0:0:
370,279,10621,1,2,0:0:0:0:
467,221,10784,1,2,0:0:0:0:
281,248,10946,1,2,0:0:0:0:
281,248,11108,6,0,P|325:237|382:264,1,75.0000028610231,2|0,0:0|0:0,0:0:0:0:
201,330,11432,2,0,P|232:335|264:330,1,64.9999970245363,2|0,0:0|0:0,0:0:0:0:
145,240,11757,2,0,P|175:236|213:249,1,55.0000016784668,2|0,0:0|0:0,0:0:0:0:
264,329,12081,1,0,0:0:0:0:
264,329,12243,2,2,B|269:211|269:211|232:247,1,150.000005722046
299,98,12729,1,2,0:0:0:0:
251,60,12892,1,2,0:0:0:0:
146,51,13054,2,0,B|116:87|73:76|73:76|80:121|35:162,1,150.000005722046,2|0,0:0|0:0,0:0:0:0:
33,153,13540,6,0,L|26:258,1,75.0000028610231
216,280,14027,1,0,0:0:0:0:
125,107,14351,1,0,0:0:0:0:
125,107,14513,2,0,L|111:202,1,75.0000028610231
173,294,14838,2,0,L|194:145,1,150.000005722046
212,57,15324,1,0,0:0:0:0:
145,64,15486,1,0,0:0:0:0:
85,140,15648,2,0,B|52:178|52:178|72:310,1,150.000005722046
454,381,16297,6,0,P|457:313|444:262,1,110.000003356934
401,100,16784,2,0,L|428:191,1,64.9999970245363
456,245,17108,1,0,0:0:0:0:
351,43,17270,2,0,L|413:114,1,75.0000028610231
456,245,17594,1,0,0:0:0:0:
273,9,17757,2,0,L|360:46,1,85.0000016212464
456,245,18081,1,0,0:0:0:0:
456,245,18243,6,0,B|471:187|504:157|504:157|461:143|443:44,2,200
440,352,19054,1,0,0:0:0:0:
428,213,19216,2,0,P|368:198|254:194,1,119.999996337891
166,352,19540,2,0,P|144:296|115:243,1,119.999996337891
161,298,19865,1,0,0:0:0:0:
140,269,19946,1,0,0:0:0:0:
115,244,20027,1,6,0:0:0:0:
351,298,21000,5,0,0:0:0:0:
372,269,21081,1,0,0:0:0:0:
397,244,21162,6,0,L|238:251,1,150.000005722046,6|0,0:0|0:0,0:0:0:0:
217,254,21567,1,0,0:0:0:0:
187,258,21648,1,0,0:0:0:0:
155,325,21811,2,0,B|110:319|110:319|26:348,1,119.999996337891,8|0,0:0|0:0,0:0:0:0:
15,361,22054,2,0,P|7:328|14:284,1,59.9999981689454
50,189,22297,1,0,0:0:0:0:
50,189,22459,6,0,B|108:174|108:174|194:195,1,119.999996337891,8|0,0:0|0:0,0:0:0:0:
188,196,22702,1,0,0:0:0:0:
210,204,22784,1,0,0:0:0:0:
334,263,22946,2,0,L|255:266,1,59.9999981689454
274,265,23108,6,0,L|393:260,1,119.999996337891,8|0,0:0|0:0,0:0:0:0:
417,260,23351,1,0,0:0:0:0:
440,259,23432,1,0,0:0:0:0:
315,105,23594,1,0,0:0:0:0:
315,105,23757,2,0,B|274:143|274:143|149:155,1,179.999994506836,8|0,0:0|0:0,0:0:0:0:
126,156,24081,5,0,0:0:0:0:
102,159,24162,1,0,0:0:0:0:
78,160,24243,2,0,L|87:30,1,119.999996337891,0|8,0:0|0:0,0:0:0:0:
0,53,24567,2,0,L|6:142,1,59.9999981689454
4,112,24729,2,0,L|13:243,1,119.999996337891
16,352,25054,1,8,0:0:0:0:
144,272,25216,6,0,L|64:320,2,59.9999981689454
16,352,25540,1,0,0:0:0:0:
16,208,25702,1,8,0:0:0:0:
16,64,25865,2,0,L|17:157,2,59.9999981689454
96,192,26189,1,0,0:0:0:0:
96,192,26351,6,0,B|242:175|170:262|350:219,1,239.999992675781,8|0,0:0|0:0,0:0:0:0:
350,221,26757,1,0,0:0:0:0:
373,219,26838,2,0,L|396:355,1,119.999996337891,0|8,0:0|0:0,0:0:0:0:
275,279,27162,1,0,0:0:0:0:
275,279,27243,1,0,0:0:0:0:
275,279,27324,2,0,P|218:292|136:268,1,119.999996337891
252,145,27648,6,0,P|310:133|368:146,1,119.999996337891,8|0,0:0|0:0,0:0:0:0:
396,170,27892,1,0,0:0:0:0:
371,196,27973,2,0,P|312:207|254:194,2,119.999996337891,0|0|8,0:0|0:0|0:0,0:0:0:0:
414,60,28459,1,0,0:0:0:0:
414,60,28540,1,0,0:0:0:0:
414,60,28621,2,0,L|434:208,1,119.999996337891
319,130,28946,6,0,B|276:106|232:106|232:106|201:135|155:133|155:133|132:104|69:89,1,239.999992675781,8|0,0:0|0:0,0:0:0:0:
77,96,29351,1,0,0:0:0:0:
56,108,29432,1,0,0:0:0:0:
158,180,29594,1,8,0:0:0:0:
72,153,29757,1,0,0:0:0:0:
72,153,29838,1,0,0:0:0:0:
72,153,29919,2,0,P|75:230|68:311,1,119.999996337891
291,284,30243,2,0,B|233:319|179:273|179:273|119:227|69:274,1,239.999992675781,8|0,0:0|0:0,0:0:0:0:
130,310,30729,6,8,L|221:295,1,59.9999981689454
248,309,30892,2,0,L|189:300,1,59.9999981689454,8|0,0:0|0:0,0:0:0:0:
121,276,31054,2,4,L|212:261,1,59.9999981689454
240,276,31217,2,4,L|180:266,1,59.9999981689454
114,240,31378,2,4,L|205:225,1,59.9999981689454
233,240,31541,2,4,L|173:230,1,59.9999981689454
108,201,31702,2,4,L|199:186,1,59.9999981689454
256,172,31865,6,0,L|238:313,1,100
426,279,32189,2,0,P|392:288|464:355,1,200,8|0,0:0|0:0,0:0:0:0:
421,128,32675,1,0,0:0:0:0:
124,295,32838,6,0,B|248:280|192:353|328:324,1,200,8|0,0:0|0:0,0:0:0:0:
466,305,33324,1,0,0:0:0:0:
357,95,33486,6,0,B|379:144|344:191|344:191|294:143|324:77,1,200,8|0,0:0|0:0,0:0:0:0:
157,295,33973,1,0,0:0:0:0:
160,96,34135,6,0,B|160:48|160:48|240:64|240:64|240:176,1,200,8|0,0:0|0:0,0:0:0:0:
232,315,34621,1,0,0:0:0:0:
240,134,34784,5,8,0:0:0:0:
113,273,34946,1,0,0:0:0:0:
113,273,35108,2,0,B|139:251|139:251|318:274,1,200,0|8,0:0|0:0,0:0:0:0:
451,293,35594,2,0,P|452:218|426:155,1,100
180,118,35919,1,0,0:0:0:0:
127,191,36081,5,12,0:0:0:0:
175,300,36243,1,0,0:0:0:0:
306,371,36405,1,12,0:0:0:0:
340,194,36567,1,0,0:0:0:0:
155,313,36729,1,12,0:0:0:0:
371,359,36892,1,0,0:0:0:0:
401,212,37054,6,0,B|406:158|406:158|374:107,1,100
343,358,37378,2,0,B|305:315|305:315|379:353|465:276,1,200,8|0,0:0|0:0,0:0:0:0:
456,219,37865,1,0,0:0:0:0:
456,219,38027,6,0,B|418:241|373:223|373:223|395:301|349:373,1,200,8|0,0:0|0:0,0:0:0:0:
207,169,38513,1,0,0:0:0:0:
207,169,38675,6,0,B|242:144|242:144|359:179|359:179|396:143,2,200,8|0|8,0:0|0:0|0:0,0:0:0:0:
37,183,39648,2,0,P|45:223|24:281,1,75.0000028610231
204,109,39973,2,0,P|194:148|145:192,1,100,8|0,0:0|0:0,0:0:0:0:
373,124,40297,2,0,P|347:155|273:177,1,115.000002193451
360,316,40621,2,0,P|336:260|358:194,2,115.000002193451,8|0|8,0:0|0:0|0:0,0:0:0:0:
357,188,41108,6,12,L|258:155,1,100
287,349,41432,2,12,B|308:264|264:253|243:234|268:127,1,200,12|0,0:0|0:0,0:0:0:0:
392,240,41919,2,8,L|332:204,1,50
349,164,42081,2,8,L|347:233,1,50
272,144,42243,6,0,L|272:288,1,100
480,320,42567,2,0,B|464:240|464:240|384:272|384:272|400:320,1,200,8|0,0:0|0:0,0:0:0:0:
336,160,43054,1,0,0:0:0:0:
336,160,43216,6,0,B|384:192|384:288|384:288|384:352,1,200,8|0,0:0|0:0,0:0:0:0:
336,160,43702,1,0,0:0:0:0:
336,160,43865,6,0,B|288:160|288:160|240:192|240:192|192:160|192:160|112:160,1,200,8|0,0:0|0:0,0:0:0:0:
48,160,44351,1,0,0:0:0:0:
48,160,44513,6,0,B|71:261|-9:245|39:373,1,200,8|0,0:0|0:0,0:0:0:0:
208,224,45000,1,0,0:0:0:0:
208,224,45162,2,0,B|215:186|257:159|257:159|303:206|303:271,1,200,8|0,0:0|0:0,0:0:0:0:
381,150,45648,1,0,0:0:0:0:
80,176,45811,6,0,B|96:192|112:208|104:288,2,100,8|0|0,0:0|0:0|0:0,0:0:0:0:
104,352,46297,1,0,0:0:0:0:
272,128,46459,5,12,0:0:0:0:
252,156,46621,1,0,0:0:0:0:
401,177,46784,5,12,0:0:0:0:
341,186,46946,1,0,0:0:0:0:
495,295,47108,5,12,0:0:0:0:
394,265,47270,1,0,0:0:0:0:
437,350,47432,6,0,P|424:298|358:250,1,100
161,179,47757,2,0,B|128:216|108:269|121:387,1,200
317,254,48243,1,0,0:0:0:0:
317,254,48405,6,0,P|261:241|201:254,1,100
391,166,48729,2,0,P|404:110|391:50,1,100
226,149,49054,6,0,P|213:205|239:353,1,200
368,253,49540,1,0,0:0:0:0:
368,253,49702,1,0,0:0:0:0:
456,104,49865,1,0,0:0:0:0:
456,104,50027,6,0,L|465:244,1,125
256,64,50351,2,0,L|247:188,1,125
56,104,50675,2,0,L|47:244,1,125
239,313,51000,2,0,L|257:32,1,250
192,96,51486,6,0,L|112:96,1,62.5
160,112,51648,2,0,L|84:139,1,62.5
128,144,51811,2,0,L|66:195,1,62.5
112,176,51973,2,0,L|72:245,1,62.5
112,216,52135,2,0,L|98:294,1,62.5
120,256,52297,2,0,L|133:334,1,62.5
144,288,52459,2,0,L|184:357,1,62.5
192,312,52621,6,0,L|192:240,1,62.5
272,256,52784,2,0,L|272:184,1,62.5
424,192,53269,6,0,L|336:192,1,62.5
368,112,53432,2,0,L|296:112,1,62.5
104,316,53757,6,0,P|175:263|206:139,1,187.5
207,110,54081,2,0,L|207:222,1,62.5
280,112,54243,2,0,L|280:224,1,62.5
352,112,54405,2,0,L|352:224,1,62.5
424,112,54567,2,0,B|416:168|416:168|424:256,1,125
336,328,54892,2,0,B|342:259|342:259|334:203,1,125
88,192,55216,6,0,L|176:192,1,62.5
144,112,55379,2,0,L|216:112,1,62.5
424,192,55865,6,0,L|336:192,1,62.5
368,112,56028,2,0,L|296:112,1,62.5
366,235,56351,2,0,B|366:200|380:164|433:159|468:189|465:239|438:308|391:330,1,250
304,328,56838,2,0,L|304:256,1,62.5
232,328,57000,2,0,L|232:256,1,62.5
160,328,57162,2,0,L|160:256,1,62.5
88,328,57324,2,0,L|88:256,1,62.5
16,328,57486,2,0,B|48:240|-24:240|40:128,1,187.5
91,161,57811,6,0,L|-7:136,1,62.5
91,75,57973,2,0,L|151:59,1,62.5
421,161,58459,6,0,L|519:136,1,62.5
421,75,58621,2,0,L|360:59,1,62.5
268,291,58946,6,0,P|327:233|212:129,1,250
80,144,59432,2,0,L|160:136,1,62.5
128,224,59594,2,0,L|208:232,1,62.5
176,144,59757,2,0,L|238:137,1,62.5
224,224,59919,2,0,L|286:230,1,62.5
240,160,60081,2,0,L|480:144,1,187.5
427,147,60405,6,0,P|427:215|378:269,1,125
316,234,60648,2,0,P|316:166|365:112,1,125
454,80,60892,1,0,0:0:0:0:
349,122,61054,2,0,B|192:204|219:78|80:109|80:109|61:170|146:225,1,375
200,255,61702,6,0,P|238:310|309:326,1,125
286,207,61946,2,0,P|297:140|258:78,1,125
176,161,62189,2,0,P|109:149|47:188,1,125
80,60,62513,1,0,0:0:0:0:
80,60,62675,2,0,L|107:208,1,125
256,80,63000,5,0,0:0:0:0:
256,320,63162,2,0,L|256:192,1,125
256,80,63486,1,0,0:0:0:0:
432,176,63648,2,0,L|309:104,1,125
80,176,63973,6,0,L|188:113,1,125
351,271,64459,2,0,P|319:244|320:198,1,62.5
230,250,64621,6,0,P|212:212|270:136,1,112.500004291535
237,150,64946,6,0,P|207:158|168:149,1,60
179,153,65270,6,0,L|179:185,1,30
179,183,65594,6,0,P|291:172|350:198,1,150.000005722046,6|0,0:0|0:0,0:0:0:0:
469,311,65919,2,0,P|378:331|287:311,1,160,6|0,0:0|0:0,0:0:0:0:
147,150,66243,2,0,P|230:137|312:157,1,170.000003242493,6|0,0:0|0:0,0:0:0:0:
407,285,66567,1,0,0:0:0:0:
407,285,66729,6,0,P|388:180|436:77,1,200
336,48,67216,2,0,L|336:112,1,50
256,128,67378,2,0,L|256:78,1,50
176,48,67540,2,0,L|176:176,1,100
32,160,67865,2,0,L|122:250,1,100
192,320,68189,6,0,P|213:305|168:315,1,160,6|0,0:0|0:0,0:0:0:0:
192,320,68513,2,0,P|213:305|168:315,1,170.000003242493,6|0,0:0|0:0,0:0:0:0:
192,320,68838,2,0,P|218:301|162:314,1,179.999994506836,6|0,0:0|0:0,0:0:0:0:
295,207,69162,1,0,0:0:0:0:
295,207,69324,6,0,B|178:245|215:144|93:193,1,200
143,323,69811,2,0,P|144:289|126:246,1,50
61,238,69973,2,0,P|56:262|58:287,1,50
208,384,70135,2,0,P|210:333|182:268,1,100
16,176,70459,2,0,P|5:231|10:287,1,100
464,80,70784,6,0,P|384:64|272:96,1,150.000005722046,6|0,0:0|0:0,0:0:0:0:
192,144,71108,2,0,P|126:189|82:255,1,160,6|0,0:0|0:0,0:0:0:0:
320,144,71432,2,0,P|385:189|429:255,1,160,6|0,0:0|0:0,0:0:0:0:
464,352,71757,1,0,0:0:0:0:
464,352,71919,6,0,B|464:208|464:208|448:240|416:256,1,200
320,336,72405,2,0,L|384:288,1,50
240,288,72567,2,0,L|304:240,1,50
160,240,72729,2,0,L|245:176,1,100
432,32,73054,2,0,L|346:95,1,100
368,272,73378,6,0,P|371:206|337:134,1,125
162,151,73702,2,0,P|140:209|148:281,1,125
368,176,74027,2,0,P|371:110|337:38,1,125
160,240,74351,2,0,P|138:298|146:370,1,125
61,282,74675,1,0,0:0:0:0:
272,288,74838,6,0,L|352:288,1,62.5
240,288,75000,2,0,L|177:288,1,62.5
304,240,75162,2,0,L|384:240,1,62.5
208,240,75324,2,0,L|145:240,1,62.5
336,192,75486,2,0,L|416:192,1,62.5
176,192,75648,2,0,L|113:192,1,62.5
304,112,75811,2,0,L|384:112,1,62.5
464,112,75973,6,0,P|477:208|459:272,1,150.000005722046,6|0,0:0|0:0,0:0:0:0:
64,288,76297,2,0,P|53:204|70:121,1,170.000003242493,6|0,0:0|0:0,0:0:0:0:
496,112,76621,2,0,P|513:189|504:268,1,160,6|0,0:0|0:0,0:0:0:0:
448,368,76946,1,0,0:0:0:0:
448,160,77108,6,0,P|373:74|285:145,1,250
272,240,77594,2,0,P|306:243|348:229,1,62.5
304,160,77757,2,0,P|336:148|368:117,1,62.5
208,160,77919,2,0,P|163:144|128:48,1,125
386,79,78243,2,0,P|359:135|303:160,1,125
144,128,78567,6,0,L|160:304,1,150.000005722046,6|0,0:0|0:0,0:0:0:0:
419,57,78892,2,0,L|305:192,1,170.000003242493,6|0,0:0|0:0,0:0:0:0:
448,337,79216,2,0,L|272:353,1,170.000003242493,6|0,0:0|0:0,0:0:0:0:
174,364,79540,1,0,0:0:0:0:
166,92,79702,6,0,B|174:149|174:149|163:184|163:184|172:255,1,150.000005722046,6|0,0:0|0:0,0:0:0:0:
240,192,80189,2,0,L|304:192,1,62.5
320,112,80351,2,0,L|378:139,1,62.5
304,208,80513,2,0,B|288:272|288:272|304:352,1,125
80,128,80838,2,0,B|143:109|143:109|204:55,1,125
496,8,81162,6,0,P|492:44|454:84,1,75.0000028610231,6|0,0:0|0:0,0:0:0:0:
377,31,81486,6,0,L|390:141,1,85.0000016212464,6|0,0:0|0:0,0:0:0:0:
268,91,81811,6,0,L|255:201,1,100,6|0,0:0|0:0,0:0:0:0:
252,310,82135,6,0,P|337:324|393:288,1,125,6|0,0:0|0:0,0:0:0:0:
234,173,82459,6,0,P|220:258|256:314,1,150.000005722046,6|0,0:0|0:0,0:0:0:0:
399,156,82784,6,0,P|292:138|222:183,1,179.999994506836,6|0,0:0|0:0,0:0:0:0:
403,344,83108,6,0,P|424:211|368:123,1,200,6|0,0:0|0:0,0:0:0:0:
263,42,83432,6,0,P|231:135|258:230,1,200,6|0,0:0|0:0,0:0:0:0:
422,331,83757,6,0,P|348:307|248:322,1,150.000005722046,2|0,0:0|0:0,0:0:0:0:
184,120,84081,2,0,B|171:177|171:177|208:282,1,150.000005722046
410,145,84405,2,0,B|353:132|353:132|248:169,1,160
227,178,84648,1,0,0:0:0:0:
197,194,84729,1,0,0:0:0:0:
441,268,84892,1,0,0:0:0:0:
441,268,85054,6,0,B|435:181|377:228|388:75,1,170.000003242493
264,282,85378,1,0,0:0:0:0:
264,282,85540,2,0,P|362:284|467:312,1,170.000003242493
416,160,85865,6,2,L|432:245,1,64.9999970245363
352,288,86027,2,2,L|339:224,1,64.9999970245363
432,160,86189,2,2,L|448:245,1,64.9999970245363
367,288,86351,6,0,L|319:95,1,160,6|0,0:0|0:0,0:0:0:0:
168,275,86838,6,0,P|217:271|265:248,1,80,6|0,0:0|0:0,0:0:0:0:
354,93,87162,6,0,B|158:221|124:172|75:71|180:18|248:66|261:122|226:190|191:242|191:242|248:247|297:217|297:217|281:298|305:339|305:339|345:317|380:313|380:313|365:250|397:148,1,975.0000371933,6|0,0:0|0:0,0:0:0:0:
391,164,88297,6,0,L|453:249,1,75.0000028610231,6|0,0:0|0:0,0:0:0:0:
417,240,88459,6,0,L|372:179,1,75.0000028610231,6|0,0:0|0:0,0:0:0:0:
256,192,88621,12,0,90243,0:0:0:0:
