osu file format v14

[General]
AudioFilename: audio.mp3
AudioLeadIn: 0
PreviewTime: -1
Countdown: 1
SampleSet: None
StackLeniency: 0.7
Mode: 0
LetterboxInBreaks: 0
EpilepsyWarning: 1
WidescreenStoryboard: 1

[Editor]
Bookmarks: 21486,52621,65594
DistanceSpacing: 1.4
BeatDivisor: 4
GridSize: 16
TimelineZoom: 1.5

[Metadata]
Title:JUSTadICE
TitleUnicode:JUSTadICE
Artist:
ArtistUnicode:
Creator:LimeTwist
Version:Expert
Source:
Tags:
BeatmapID:2132977
BeatmapSetID:1012564

[Difficulty]
HPDrainRate:5
CircleSize:4
OverallDifficulty:6
ApproachRate:9.4
SliderMultiplier:1.7
SliderTickRate:1

[Events]
//Background and Video events
0,0,"bg.jpg",0,0
//Break Periods
2,21362,30027
//Storyboard Layer 0 (Background)
//Storyboard Layer 1 (Fail)
//Storyboard Layer 2 (Pass)
//Storyboard Layer 3 (Foreground)
//Storyboard Layer 4 (Overlay)
//Storyboard Sound Samples

[TimingPoints]
730,324.324324324324,4,3,22,45,1,0
16297,-133.333333333333,4,3,22,45,0,0
18892,-66.6666666666667,4,3,22,45,0,0
53757,-133.333333333333,4,3,22,45,0,0
55216,-66.6666666666667,4,3,22,45,0,0
56351,-133.333333333333,4,3,22,45,0,0
57811,-66.6666666666667,4,3,22,45,0,0
58946,-133.333333333333,4,3,22,45,0,0
61054,-200,4,3,22,45,0,0
64459,-100,4,3,22,45,0,0
64621,-400,4,3,22,45,0,0
65594,-66.6666666666667,4,3,22,45,0,0
69324,-133.333333333333,4,3,22,45,0,0
70784,-66.6666666666667,4,3,22,45,0,0
71919,-133.333333333333,4,3,22,45,0,0
75973,-66.6666666666667,4,3,22,45,0,0
86351,-133.333333333333,4,3,22,45,0,0
87162,-66.6666666666667,4,3,22,45,0,0

[Colours]
Combo1 : 236,0,0
Combo2 : 255,196,136
Combo3 : 155,177,1

[HitObjects]
80,272,730,6,0,P|125:280|178:257,1,85
277,143,1054,2,0,P|236:131|195:139,1,85
80,272,1378,2,0,P|125:280|227:203,1,170
195,51,1865,6,0,B|184:85|184:85|225:224,1,170
272,96,2351,1,0,0:0:0:0:
304,176,2513,1,0,0:0:0:0:
336,256,2675,2,0,B|237:256|267:302|218:316|160:301,1,170
96,64,3324,6,0,L|79:158,1,85
240,144,3648,2,0,L|240:240,1,85
384,63,3973,2,0,L|415:241,1,170
13,237,4459,6,0,P|81:238|193:230,1,170
289,213,4946,1,0,0:0:0:0:
381,159,5108,1,0,0:0:0:0:
289,106,5270,1,0,0:0:0:0:
348,263,5432,1,0,0:0:0:0:
395,83,5594,1,0,0:0:0:0:
215,131,5756,1,0,0:0:0:0:
215,131,5919,6,0,P|264:137|325:113,1,85
141,307,6243,2,0,P|147:258|123:197,1,85
367,288,6567,2,0,P|318:282|201:324,1,170
134,91,7054,6,0,B|134:155|134:155|166:203|166:203|166:267,1,170
214,138,7540,1,0,0:0:0:0:
80,220,7702,1,0,0:0:0:0:
250,216,7865,2,0,B|336:224|336:224|426:216,1,170
286,316,8513,6,0,P|245:325|204:317,1,85
287,86,8838,2,0,P|302:125|301:167,1,85
78,219,9162,2,0,P|165:199|256:218,1,170
198,368,9648,6,0,B|188:319|188:319|260:178,1,170
308,88,10135,1,0,0:0:0:0:
302,171,10297,1,0,0:0:0:0:
296,254,10459,1,0,0:0:0:0:
142,0,10621,1,0,0:0:0:0:
166,99,10783,1,0,0:0:0:0:
191,199,10945,1,0,0:0:0:0:
191,199,11108,6,0,P|250:226|260:328,2,170
472,207,12081,1,0,0:0:0:0:
472,207,12243,6,0,B|439:172|439:172|342:295,1,170
356,57,12729,1,0,0:0:0:0:
356,57,12892,1,0,0:0:0:0:
353,222,13054,2,0,B|361:166|361:166|343:116|343:116|362:23,1,170
147,191,13702,6,0,L|270:180,1,85
410,304,14027,2,0,L|287:293,1,85
123,167,14351,2,0,L|307:150,1,170
445,134,14838,6,0,P|439:230|443:324,1,170
269,281,15324,1,0,0:0:0:0:
163,247,15486,1,0,0:0:0:0:
163,136,15648,1,0,0:0:0:0:
175,378,15973,1,0,0:0:0:0:
413,145,16297,6,0,L|327:151,1,63.7500024318696
241,155,16621,1,0,0:0:0:0:
148,210,16784,1,0,0:0:0:0:
148,101,16946,1,0,0:0:0:0:
288,188,17108,1,0,0:0:0:0:
131,148,17271,5,0,0:0:0:0:
247,32,17433,1,0,0:0:0:0:
277,242,17594,1,0,3:0:0:0:
178,75,17757,1,0,3:0:0:0:
374,75,17919,2,0,L|365:218,2,127.500004863739
37,276,18892,2,0,B|130:260|130:260|196:280|196:280|318:268,1,255.000009727478
331,62,19378,1,0,0:0:0:0:
145,217,19540,1,0,0:0:0:0:
378,229,19702,1,0,0:0:0:0:
140,57,19865,1,0,0:0:0:0:
140,57,19946,1,0,0:0:0:0:
140,57,20027,1,0,0:0:0:0:
340,327,21000,1,0,0:0:0:0:
340,327,21081,1,0,0:0:0:0:
340,327,21162,1,0,0:0:0:0:
99,128,30567,5,0,0:0:0:0:
99,147,30648,1,0,0:0:0:0:
100,166,30729,1,0,0:0:0:0:
101,185,30811,1,0,0:0:0:0:
102,204,30892,1,0,0:0:0:0:
103,223,30973,1,0,0:0:0:0:
104,242,31054,1,0,0:0:0:0:
104,261,31135,1,0,0:0:0:0:
104,280,31216,5,0,0:0:0:0:
139,253,31297,1,0,0:0:0:0:
171,222,31378,1,0,0:0:0:0:
215,220,31459,1,0,0:0:0:0:
250,246,31540,1,0,0:0:0:0:
288,268,31621,1,0,0:0:0:0:
332,271,31702,1,0,0:0:0:0:
375,258,31784,1,0,0:0:0:0:
407,226,31865,6,0,L|400:384,1,127.500004863739
416,112,32189,1,0,0:0:0:0:
78,30,32513,6,0,L|72:157,1,127.500004863739
64,272,32837,1,0,0:0:0:0:
416,272,33162,6,0,L|272:288,1,127.500004863739
176,304,33486,1,0,0:0:0:0:
288,144,33811,5,0,0:0:0:0:
288,144,33973,1,0,0:0:0:0:
304,304,34135,2,0,B|256:240|256:240|160:224|160:224|96:160,1,255.000009727478
224,144,34621,1,0,0:0:0:0:
192,320,34784,1,0,0:0:0:0:
304,240,34946,6,0,B|240:240|240:240|176:224,2,127.500004863739
368,80,35432,1,0,0:0:0:0:
368,80,35594,2,0,P|384:144|368:224,1,127.500004863739
320,320,35919,1,0,0:0:0:0:
240,64,36081,6,0,L|240:208,1,127.500004863739
240,304,36405,1,0,0:0:0:0:
464,112,36567,2,0,L|362:213,1,127.500004863739
240,304,36892,1,0,0:0:0:0:
240,304,37054,6,0,P|307:302|398:326,1,127.500004863739
480,352,37378,1,0,0:0:0:0:
240,304,37702,6,0,P|176:282|99:229,1,127.500004863739
30,176,38026,1,0,0:0:0:0:
368,94,38351,6,0,P|346:157|293:234,1,127.500004863739
240,304,38675,5,0,0:0:0:0:
198,99,39000,1,0,0:0:0:0:
198,99,39162,1,0,0:0:0:0:
325,203,39324,2,0,P|270:249|259:346,1,127.500004863739
172,107,39648,5,0,0:0:0:0:
340,107,39811,1,0,0:0:0:0:
340,276,39973,1,0,0:0:0:0:
172,276,40136,1,0,0:0:0:0:
172,276,40297,2,0,P|215:269|230:371,1,127.500004863739
236,47,40621,2,0,B|285:195|193:147|259:312,1,255.000009727478
425,195,41108,1,0,0:0:0:0:
425,195,41270,1,0,0:0:0:0:
177,179,41432,2,0,B|237:164|237:164|353:169|332:248|468:174,1,255.000009727478
281,223,41919,5,0,0:0:0:0:
281,223,42000,2,0,L|294:286,1,63.7500024318696
208,228,42162,1,0,0:0:0:0:
208,228,42243,6,0,B|205:173|205:173|238:82,1,127.500004863739
286,20,42567,1,0,0:0:0:0:
416,306,42892,6,0,B|361:309|361:309|270:276,1,127.500004863739
208,228,43216,1,0,0:0:0:0:
494,98,43540,6,0,B|497:153|497:153|464:244,1,127.500004863739
416,306,43864,1,0,0:0:0:0:
96,306,44189,5,0,0:0:0:0:
39,221,44351,2,0,B|15:153|15:153|18:98,1,127.500004863739
416,78,44838,5,0,0:0:0:0:
472,162,45000,2,0,B|497:231|497:231|494:286,1,127.500004863739
71,218,45486,5,0,0:0:0:0:
155,274,45648,2,0,B|223:298|223:298|278:295,2,127.500004863739
246,207,46135,1,0,0:0:0:0:
246,176,46297,1,0,0:0:0:0:
274,192,46459,5,0,0:0:0:0:
270,245,46621,1,0,3:0:0:0:
202,177,46783,1,0,3:0:0:0:
295,152,46945,1,0,3:0:0:0:
351,247,47108,5,0,3:0:0:0:
160,247,47270,1,0,3:0:0:0:
256,81,47432,6,0,L|256:224,1,127.500004863739
256,336,47757,1,0,0:0:0:0:
177,113,48081,6,0,L|278:214,1,127.500004863739
357,293,48406,1,0,0:0:0:0:
152,154,48729,6,0,L|286:202,1,127.500004863739
391,241,49054,1,0,0:0:0:0:
146,201,49378,6,0,L|287:189,1,127.500004863739
399,179,49703,1,0,0:0:0:0:
320,320,49865,1,0,0:0:0:0:
181,297,50027,5,0,0:0:0:0:
192,320,50189,1,0,0:0:0:0:
336,224,50351,5,0,0:0:0:0:
319,258,50513,1,0,0:0:0:0:
144,96,50675,5,0,0:0:0:0:
173,155,50837,1,0,0:0:0:0:
382,317,51000,5,0,0:0:0:0:
339,229,51162,1,0,0:0:0:0:
288,336,51324,1,0,0:0:0:0:
384,288,51486,5,0,0:0:0:0:
365,292,51567,1,0,0:0:0:0:
348,301,51648,1,0,0:0:0:0:
333,313,51729,1,0,0:0:0:0:
319,326,51811,1,0,0:0:0:0:
309,342,51892,1,0,0:0:0:0:
304,360,51973,1,0,0:0:0:0:
45,82,52297,5,0,0:0:0:0:
91,91,52378,1,0,0:0:0:0:
131,112,52459,1,0,0:0:0:0:
169,142,52540,1,0,0:0:0:0:
203,174,52621,6,0,L|93:189,1,63.7500024318696
278,212,52784,2,0,L|341:220,1,63.7500024318696
274,139,53270,6,0,L|258:29,1,63.7500024318696
221,257,53433,2,0,L|212:320,1,63.7500024318696
314,91,53757,6,0,P|295:117|304:235,1,127.500004863739
299,229,54162,1,0,0:0:0:0:
313,245,54243,1,0,0:0:0:0:
422,323,54405,2,0,L|339:318,1,63.7500024318696
177,204,54729,1,0,0:0:0:0:
177,204,54892,2,0,L|297:193,1,95.6250036478044
272,195,55216,6,0,P|280:229|250:300,1,63.7500024318696
187,207,55378,2,0,P|183:175|191:144,1,63.7500024318696
367,119,55865,6,0,P|333:126|262:96,1,63.7500024318696
450,44,56027,2,0,P|481:40|512:48,1,63.7500024318696
352,300,56351,6,0,L|365:155,1,127.500004863739
237,224,56838,1,0,0:0:0:0:
159,268,57000,1,0,0:0:0:0:
159,179,57162,1,0,0:0:0:0:
302,191,57324,1,0,0:0:0:0:
254,364,57486,1,0,0:0:0:0:
128,238,57648,1,0,0:0:0:0:
408,280,57811,6,0,L|325:268,1,63.7500024318696
489,190,57973,2,0,L|406:202,1,63.7500024318696
119,232,58459,6,0,L|199:256,1,63.7500024318696
45,91,58621,2,0,L|115:137,1,63.7500024318696
317,264,58946,6,0,L|190:184,1,127.500004863739
288,69,59432,2,0,L|283:145,1,63.7500024318696
224,315,59757,2,0,L|229:239,1,63.7500024318696
133,160,60081,2,0,L|228:166,1,95.6250036478044
354,174,60405,5,0,0:0:0:0:
257,325,60648,1,0,0:0:0:0:
183,166,60892,1,0,0:0:0:0:
402,329,61054,2,0,B|411:245|350:290|365:194,1,127.5
386,59,61702,5,0,0:0:0:0:
188,182,61946,1,0,0:0:0:0:
317,246,62189,1,0,0:0:0:0:
192,128,62351,1,0,0:0:0:0:
320,128,62513,1,0,0:0:0:0:
320,256,62675,1,0,0:0:0:0:
192,256,62837,1,0,0:0:0:0:
256,65,63000,5,0,0:0:0:0:
382,192,63162,1,0,0:0:0:0:
256,318,63324,1,0,0:0:0:0:
129,192,63486,1,0,0:0:0:0:
372,75,63648,1,0,0:0:0:0:
372,308,63810,1,0,0:0:0:0:
139,308,63973,1,0,0:0:0:0:
139,75,64135,5,0,0:0:0:0:
203,312,64459,6,0,L|190:258,1,42.5
291,261,64621,2,0,L|303:138,1,116.875
288,100,65594,6,0,P|287:172|250:242,1,127.500004863739
119,341,65919,2,0,P|120:269|157:199,1,127.500004863739
367,151,66243,2,0,P|315:201|239:224,1,127.500004863739
32,205,66567,1,0,0:0:0:0:
32,205,66729,6,0,B|185:118|121:248|296:149,1,255.000009727478
336,64,67216,1,0,0:0:0:0:
329,93,67378,1,0,0:0:0:0:
111,118,67540,1,0,0:0:0:0:
149,282,67702,1,0,0:0:0:0:
437,99,67865,1,0,0:0:0:0:
389,304,68027,1,0,0:0:0:0:
175,192,68189,6,0,P|205:126|270:129,1,127.500004863739
337,192,68513,2,0,P|307:258|242:255,1,127.500004863739
132,151,68838,2,0,P|162:85|227:88,1,127.500004863739
358,179,69162,1,0,0:0:0:0:
358,179,69324,6,0,P|314:187|305:272,1,127.500004863739
387,276,69811,2,0,L|334:220,1,63.7500024318696
247,133,70135,1,0,0:0:0:0:
92,217,70297,1,0,0:0:0:0:
289,261,70459,1,0,0:0:0:0:
348,326,70621,1,0,0:0:0:0:
143,49,70784,6,0,P|123:142|81:167,1,127.500004863739
369,335,71108,2,0,P|389:242|431:217,1,127.500004863739
101,32,71432,2,0,P|81:125|39:150,1,127.500004863739
243,84,71757,1,0,0:0:0:0:
243,84,71919,6,0,B|263:115|263:115|237:226,1,127.500004863739
357,116,72405,1,0,0:0:0:0:
345,140,72567,1,0,0:0:0:0:
394,266,72729,1,0,0:0:0:0:
343,282,72891,1,0,0:0:0:0:
255,346,73054,1,0,0:0:0:0:
159,296,73216,1,0,0:0:0:0:
177,91,73378,6,0,L|183:164,1,63.7500024318696
335,293,73702,2,0,L|329:220,1,63.7500024318696
149,91,74027,2,0,L|155:164,1,63.7500024318696
366,294,74351,2,0,L|359:205,1,63.7500024318696
346,112,74675,1,0,0:0:0:0:
276,59,74838,5,0,0:0:0:0:
276,81,74919,1,0,0:0:0:0:
271,102,75000,1,0,0:0:0:0:
260,121,75081,1,0,0:0:0:0:
242,135,75162,1,0,0:0:0:0:
221,144,75243,1,0,0:0:0:0:
265,147,75324,5,0,0:0:0:0:
303,169,75405,1,0,0:0:0:0:
322,209,75486,1,0,0:0:0:0:
319,253,75567,1,0,0:0:0:0:
285,291,75648,1,0,0:0:0:0:
236,307,75729,1,0,0:0:0:0:
184,303,75811,1,0,0:0:0:0:
143,272,75892,1,0,0:0:0:0:
140,195,75973,6,0,L|119:340,1,127.500004863739
277,28,76297,2,0,L|256:173,1,127.500004863739
372,195,76621,2,0,L|393:340,1,127.500004863739
210,200,76946,1,0,0:0:0:0:
210,200,77108,6,0,B|323:180|323:180|375:200|375:200|489:184,1,255.000009727478
393,82,77594,2,0,L|242:57,1,127.500004863739
119,302,77919,2,0,L|244:322,1,127.500004863739
393,302,78243,2,0,L|267:322,1,127.500004863739
339,107,78567,6,0,P|356:170|339:244,1,127.500004863739
166,230,78892,2,0,P|156:167|173:106,1,127.500004863739
256,64,79216,2,0,L|256:224,1,127.500004863739
256,320,79540,1,0,0:0:0:0:
256,320,79702,6,0,B|319:268|304:208|285:173|244:129|195:180|192:211|220:257,1,255.000009727478
245,346,80189,1,0,0:0:0:0:
245,346,80351,1,0,0:0:0:0:
389,209,80513,1,0,0:0:0:0:
389,209,80675,1,0,0:0:0:0:
145,141,80838,1,0,0:0:0:0:
145,141,81000,1,0,0:0:0:0:
227,186,81162,5,0,0:0:0:0:
274,169,81324,1,0,0:0:0:0:
266,219,81486,5,0,0:0:0:0:
230,155,81648,1,0,0:0:0:0:
299,188,81811,5,0,0:0:0:0:
237,232,81972,1,0,0:0:0:0:
267,126,82135,5,0,0:0:0:0:
306,234,82297,1,0,0:0:0:0:
193,214,82459,5,0,0:0:0:0:
321,146,82621,1,0,0:0:0:0:
262,271,82784,5,0,0:0:0:0:
183,158,82945,1,0,0:0:0:0:
353,209,83108,5,0,0:0:0:0:
192,268,83270,1,0,0:0:0:0:
222,98,83513,5,0,0:0:0:0:
318,281,83594,1,0,0:0:0:0:
147,201,83757,6,0,B|225:177|225:177|303:215|416:192,1,255.000009727478
138,86,84243,1,0,0:0:0:0:
138,86,84405,2,0,L|116:224,1,127.500004863739
114,230,84648,1,0,0:0:0:0:
110,248,84729,1,0,0:0:0:0:
405,143,84892,1,8,0:0:0:0:
405,143,85054,2,0,L|242:131,1,127.500004863739
107,241,85378,2,0,L|270:253,1,127.500004863739
404,258,85702,1,0,0:0:0:0:
317,313,85865,5,0,0:0:0:0:
298,309,85946,1,0,0:0:0:0:
266,304,86027,1,0,0:0:0:0:
228,294,86108,1,0,0:0:0:0:
178,280,86189,1,0,0:0:0:0:
117,260,86270,1,0,0:0:0:0:
34,226,86351,6,0,L|79:91,1,127.500004863739
374,200,86838,2,0,P|335:200|292:177,1,63.7500024318696
186,122,87162,6,0,B|260:108|328:133|328:133|277:176|237:221|251:343|314:358|355:365|403:357|424:315|418:263|373:220|291:178|217:215|162:264|162:264|174:203|128:181|128:181|130:169,1,828.750031614305
47,113,88297,6,0,B|80:54|80:54|148:2,1,127.500004863739
256,192,88540,12,0,89919,0:0:0:0:
