osu file format v14

[General]
AudioFilename: audio.mp3
AudioLeadIn: 0
PreviewTime: -1
Countdown: 1
SampleSet: None
StackLeniency: 0.7
Mode: 0
LetterboxInBreaks: 0
EpilepsyWarning: 1
WidescreenStoryboard: 1

[Editor]
DistanceSpacing: 0.8
BeatDivisor: 4
GridSize: 16
TimelineZoom: 3.599998

[Metadata]
Title:JUSTadICE
TitleUnicode:JUSTadICE
Artist:
ArtistUnicode:
Creator:LimeTwist
Version:Eidos' Extreme
Source:
Tags:
BeatmapID:2137065
BeatmapSetID:1012564

[Difficulty]
HPDrainRate:6
CircleSize:4
OverallDifficulty:8.3
ApproachRate:9.3
SliderMultiplier:2
SliderTickRate:1

[Events]
//Background and Video events
0,0,"bg.jpg",0,0
//Break Periods
//Storyboard Layer 0 (Background)
//Storyboard Layer 1 (Fail)
//Storyboard Layer 2 (Pass)
//Storyboard Layer 3 (Foreground)
//Storyboard Layer 4 (Overlay)
//Storyboard Sound Samples

[TimingPoints]
730,324.324324324324,4,3,22,45,1,0
730,-100,4,3,22,45,0,0
11108,-100,4,3,22,55,0,0
11757,-133.333333333333,4,3,22,55,0,0
16621,-80,4,3,22,55,0,0
16946,-100,4,3,22,55,0,0
18243,-100,4,2,22,55,0,0
18892,-100,4,3,22,65,0,0
19865,-100,4,2,22,65,0,0
21486,-100,4,2,22,70,0,0
26189,-80,4,2,22,55,0,0
26675,-100,4,2,22,55,0,0
30405,-80,4,3,22,65,0,0
31865,-133.333333333333,4,2,22,60,0,0
36081,-133.333333333333,4,2,22,40,0,0
36405,-100,4,2,22,60,0,0
36729,-80,4,2,22,70,0,0
37054,-133.333333333333,4,2,22,60,0,0
38675,-100,4,2,22,60,0,0
42892,-133.333333333333,4,2,22,60,0,0
45973,-100,4,2,22,60,0,0
46459,-133.333333333333,4,2,22,40,0,0
46784,-100,4,2,22,60,0,0
47108,-80,4,2,22,70,0,0
47757,-100,4,2,22,60,0,0
51324,-100,4,2,22,30,0,0
52621,-100,4,2,22,60,0,0
56351,-133.333333333333,4,2,22,60,0,0
57486,-100,4,2,22,60,0,0
59594,-133.333333333333,4,2,22,60,0,0
60405,-200,4,2,22,60,0,0
61054,-166.666666666667,4,2,22,60,0,0
63000,-133.333333333333,4,2,22,60,0,0
65594,-133.333333333333,4,2,22,70,0,0
66243,-80,4,2,22,70,0,0
71432,-66.6666666666667,4,2,22,70,0,0
73054,-80,4,2,22,70,0,0
73378,-100,4,2,22,70,0,0
73702,-80,4,2,22,70,0,0
74027,-66.6666666666667,4,2,22,70,0,0
75973,-80,4,2,22,70,0,0
77919,-66.6666666666667,4,2,22,70,0,0
81162,-66.6666666666667,4,2,22,45,0,0
81811,-66.6666666666667,4,2,22,60,0,0
82459,-66.6666666666667,4,2,22,70,0,0
82784,-62.5,4,2,22,70,0,0
83108,-58.8235294117647,4,2,22,70,0,0
83432,-55.5555555555556,4,2,22,70,0,0
84081,-55.5555555555556,4,2,22,70,0,0
85054,-55.5555555555556,4,3,22,70,0,0
85378,-66.6666666666667,4,3,22,70,0,0
85865,-66.6666666666667,4,2,22,70,0,0
86351,-55.5555555555556,4,2,22,100,0,0
86838,-66.6666666666667,4,2,22,100,0,0
87162,-200,4,2,22,100,0,0

[Colours]
Combo1 : 236,0,0
Combo2 : 255,196,136
Combo3 : 155,177,1

[HitObjects]
420,42,730,5,2,0:0:0:0:
479,109,1054,1,2,0:0:0:0:
443,192,1379,1,2,0:0:0:0:
82,208,3324,5,2,0:0:0:0:
23,275,3648,1,2,0:0:0:0:
59,358,3973,1,2,0:0:0:0:
354,246,5919,5,2,0:0:0:0:
420,263,6243,1,2,0:0:0:0:
486,280,6568,1,2,0:0:0:0:
166,60,8513,5,2,0:0:0:0:
100,77,8837,1,2,0:0:0:0:
34,94,9162,1,2,0:0:0:0:
345,23,11108,6,0,P|356:70|431:107,1,100,2|0,0:0|0:0,0:0:0:0:
487,109,11432,2,0,P|441:90|371:124,1,100,2|0,0:0|0:0,0:0:0:0:
333,200,11757,2,0,P|390:183|392:99,1,150,2|0,0:0|0:0,0:0:0:0:
49,56,12243,5,2,0:0:0:0:
45,169,12405,1,0,0:0:0:0:
151,212,12567,1,2,0:0:0:0:
29,73,12729,5,2,0:0:0:0:
25,186,12892,1,2,0:0:0:0:
131,229,13054,2,0,L|289:237,1,150.000005722046,2|0,0:0|0:0,0:0:0:0:
512,0,13702,5,2,0:0:0:0:
487,96,14026,1,2,0:0:0:0:
462,192,14351,1,2,0:0:0:0:
462,192,14675,1,0,0:0:0:0:
388,110,14838,2,2,P|344:92|232:122,1,150
20,217,15324,5,2,0:0:0:0:
158,172,15486,1,2,0:0:0:0:
244,278,15648,1,2,0:0:0:0:
244,278,15973,1,2,0:0:0:0:
0,342,16297,6,0,P|50:371|122:349,1,112.500004291535,2|0,0:0|0:0,0:0:0:0:
123,269,16621,2,2,B|134:200|134:200|173:154,1,125
356,292,16946,6,2,P|297:307|244:278,1,125,2|2,0:0|0:0,0:0:0:0:
454,312,17270,2,2,P|430:355|386:377,1,100
336,190,17594,2,2,B|396:199|396:199|436:233,2,100
251,140,18081,1,0,0:0:0:0:
203,303,18243,6,0,P|258:319|322:279,1,100,14|0,0:0|0:0,0:0:0:0:
251,140,18567,2,0,P|235:196|275:260,1,100,14|0,0:0|0:0,0:0:0:0:
483,226,18892,5,2,0:0:0:0:
423,84,19054,1,2,0:0:0:0:
273,47,19216,1,2,0:0:0:0:
507,195,19378,5,2,0:0:0:0:
447,53,19540,1,2,0:0:0:0:
297,16,19702,1,2,0:0:0:0:
66,138,19865,5,10,0:0:0:0:
42,209,19946,1,10,0:0:0:0:
64,279,20027,1,14,0:0:0:0:
11,21,21000,6,8,L|40:93,1,50
29,67,21162,2,0,P|91:55|148:68,1,100,12|0,0:0|0:0,0:0:0:0:
313,71,21486,5,0,0:0:0:0:
131,160,21648,1,0,0:0:0:0:
207,19,21811,2,0,P|221:78|200:133,1,100,8|0,0:0|0:0,0:0:0:0:
202,151,22054,1,0,0:0:0:0:
240,142,22135,1,0,0:0:0:0:
95,228,22297,5,0,0:0:0:0:
181,349,22459,1,8,0:0:0:0:
39,357,22621,2,0,P|109:333|193:356,1,150
179,368,22946,2,0,P|116:355|74:368,1,100,0|8,0:0|0:0,0:0:0:0:
50,178,23270,5,0,0:0:0:0:
52,209,23351,1,0,0:0:0:0:
55,239,23432,1,0,0:0:0:0:
119,89,23594,5,0,0:0:0:0:
213,190,23757,1,8,0:0:0:0:
247,202,23838,1,0,0:0:0:0:
284,204,23919,1,0,0:0:0:0:
324,194,24000,1,0,0:0:0:0:
354,175,24081,2,0,P|367:96|358:76,1,100
138,101,24405,2,0,P|124:160|145:215,1,100,8|0,0:0|0:0,0:0:0:0:
142,229,24648,1,0,0:0:0:0:
110,220,24729,1,0,0:0:0:0:
330,259,24891,5,0,0:0:0:0:
205,364,25053,1,8,0:0:0:0:
265,141,25216,5,0,0:0:0:0:
262,176,25297,1,0,0:0:0:0:
259,211,25378,1,0,0:0:0:0:
322,333,25540,5,0,0:0:0:0:
166,210,25702,1,8,0:0:0:0:
398,138,25865,5,0,0:0:0:0:
363,152,25946,1,0,0:0:0:0:
328,144,26027,1,0,0:0:0:0:
235,29,26189,2,0,B|190:50|190:50|169:184,1,125,0|8,0:0|0:0,0:0:0:0:
52,263,26513,5,0,0:0:0:0:
59,231,26594,1,0,0:0:0:0:
69,196,26675,2,0,P|119:167|170:180,1,100
191,317,27000,2,0,P|141:287|127:237,1,100,8|0,0:0|0:0,0:0:0:0:
236,155,27324,2,0,P|235:212|198:250,1,100
26,131,27648,1,8,0:0:0:0:
145,30,27811,2,0,P|215:6|299:29,1,150
285,41,28136,2,0,P|222:28|180:41,1,100,0|8,0:0|0:0,0:0:0:0:
68,222,28459,5,0,0:0:0:0:
115,235,28540,1,0,0:0:0:0:
164,226,28621,1,0,0:0:0:0:
233,107,28784,1,0,0:0:0:0:
347,351,28946,2,0,B|391:308|391:308|412:235,1,100,8|0,0:0|0:0,0:0:0:0:
406,21,29270,5,0,0:0:0:0:
256,58,29432,1,0,0:0:0:0:
196,200,29594,1,8,0:0:0:0:
430,57,29757,5,0,0:0:0:0:
280,94,29919,1,0,0:0:0:0:
220,236,30081,1,8,0:0:0:0:
491,164,30405,6,0,B|443:183|443:183|362:173,1,125
247,48,30729,5,8,0:0:0:0:
216,54,30811,1,8,0:0:0:0:
177,61,30892,2,4,P|158:93|158:133,1,62.5,8|0,0:0|0:0,0:0:0:0:
224,165,31054,5,4,0:0:0:0:
204,188,31136,1,4,0:0:0:0:
179,218,31217,2,4,P|141:218|107:198,1,62.5
42,152,31378,5,6,0:0:0:0:
23,196,31459,1,4,0:0:0:0:
27,240,31540,1,6,0:0:0:0:
48,278,31620,1,4,0:0:0:0:
80,300,31702,1,6,0:0:0:0:
155,310,31865,6,8,L|241:293,1,75.0000028610231,10|0,0:0|0:0,0:0:0:0:
315,283,32189,2,0,P|303:248|276:223,1,75.0000028610231
284,295,32513,2,0,P|300:328|297:365,1,75.0000028610231
298,362,32837,2,0,P|335:362|369:346,3,75.0000028610231,8|2|0|0,0:0|0:0|0:0|0:0,0:0:0:0:
500,206,33486,6,0,L|493:127,1,75.0000028610231,10|0,0:0|0:0,0:0:0:0:
416,52,33811,2,0,L|410:126,1,75.0000028610231,2|0,0:0|0:0,0:0:0:0:
326,192,34135,2,0,L|319:113,1,75.0000028610231,10|0,0:0|0:0,0:0:0:0:
200,217,34459,2,0,P|253:198|334:249,1,150.000005722046,2|8,0:0|0:0,0:0:0:0:
64,329,34946,5,2,0:0:0:0:
200,217,35108,2,2,P|240:199|277:202,1,75.0000028610231,2|0,0:0|0:0,0:0:0:0:
64,329,35432,5,10,0:0:0:0:
72,181,35594,2,0,P|83:145|108:119,1,75.0000028610231,2|0,0:0|0:0,0:0:0:0:
100,44,36081,6,0,L|108:118,1,75.0000028610231,14|0,0:0|0:0,0:0:0:0:
189,215,36405,2,0,L|201:115,1,100,14|0,0:0|0:0,0:0:0:0:
305,21,36729,2,0,L|310:145,1,125,14|0,0:0|0:0,0:0:0:0:
409,174,37054,6,0,P|443:167|484:180,3,75.0000028610231,2|0|8|0,0:0|0:0|0:0|0:0,0:0:0:0:
509,21,37702,2,0,L|487:106,1,75.0000028610231
387,60,38027,2,0,L|405:133,1,75.0000028610231,8|2,0:0|0:0,0:0:0:0:
303,119,38351,2,0,L|231:137,1,75.0000028610231
262,29,38676,2,0,P|317:21|365:41,1,100,10|0,0:0|0:0,0:0:0:0:
322,214,39000,6,0,P|279:211|228:170,1,100,2|0,0:0|0:0,0:0:0:0:
160,138,39324,2,0,P|153:187|174:233,1,100,10|0,0:0|0:0,0:0:0:0:
512,193,39648,5,2,0:0:0:0:
487,114,39810,1,2,0:0:0:0:
368,287,39973,1,10,0:0:0:0:
393,208,40135,1,2,0:0:0:0:
512,193,40297,5,2,0:0:0:0:
487,114,40459,1,2,0:0:0:0:
313,227,40621,2,0,P|265:241|217:231,1,100,10|2,0:0|0:0,0:0:0:0:
45,84,40946,5,8,0:0:0:0:
66,173,41108,1,12,0:0:0:0:
87,262,41270,1,12,0:0:0:0:
87,262,41432,1,12,0:0:0:0:
164,143,41594,2,0,P|225:142|273:173,1,100,0|2,0:0|0:0,0:0:0:0:
420,228,41919,5,10,0:0:0:0:
432,264,42000,1,10,0:0:0:0:
426,295,42081,1,10,0:0:0:0:
412,319,42162,1,10,0:0:0:0:
394,335,42243,2,0,P|346:352|295:346,1,100,2|0,0:0|0:0,0:0:0:0:
136,313,42567,5,8,0:0:0:0:
136,313,42729,1,0,0:0:0:0:
31,202,42892,6,0,L|78:222,1,37.5000014305115
164,143,43135,2,0,L|130:158,1,37.5000014305115,0|8,0:0|0:0,0:0:0:0:
222,17,43378,5,2,0:0:0:0:
134,60,43540,2,0,P|97:56|63:71,1,75.0000028610231
222,17,43865,2,0,P|236:58|226:101,1,75.0000028610231,8|0,0:0|0:0,0:0:0:0:
110,177,44189,2,2,P|151:163|194:173,1,75.0000028610231
239,314,44513,2,2,P|225:273|235:230,1,75.0000028610231,10|0,0:0|0:0,0:0:0:0:
338,41,44838,5,2,0:0:0:0:
350,134,45000,1,0,0:0:0:0:
472,97,45162,1,8,0:0:0:0:
460,190,45324,1,2,0:0:0:0:
352,265,45486,2,2,P|450:289|477:329,1,150.000005722046,2|10,0:0|0:0,0:0:0:0:
264,344,45973,2,0,B|188:305|188:305|64:336,1,200,2|0,0:0|0:0,0:3:0:0:
19,48,46459,6,12,L|34:135,1,75.0000028610231,14|0,0:0|0:0,0:0:0:0:
112,242,46784,2,12,L|130:134,1,100,14|0,0:0|0:0,0:0:0:0:
209,0,47108,2,12,L|230:123,1,125,14|0,0:0|0:0,0:0:0:0:
495,119,47432,5,0,0:0:0:0:
416,188,47594,1,0,0:0:0:0:
329,126,47757,2,0,L|218:122,1,100,8|0,0:0|0:0,0:0:0:0:
9,199,48081,5,0,0:0:0:0:
88,268,48243,1,0,0:0:0:0:
175,206,48405,2,2,L|286:202,1,100,10|2,0:0|0:0,0:0:0:0:
416,188,48729,5,0,0:0:0:0:
464,296,48892,1,0,0:0:0:0:
384,374,49054,2,0,L|271:362,1,100,8|0,0:0|0:0,0:0:0:0:
114,256,49378,2,0,L|230:240,1,100
430,173,49702,2,0,L|314:157,1,100,8|0,0:0|0:0,0:0:0:0:
9,89,50027,5,8,0:0:0:0:
154,137,50189,1,0,0:0:0:0:
83,283,50351,5,8,0:0:0:0:
197,235,50513,1,0,0:0:0:0:
241,8,50675,5,8,0:0:0:0:
309,181,50837,1,0,0:0:0:0:
476,80,51000,5,8,0:0:0:0:
415,314,51162,1,0,0:0:0:0:
218,126,51324,5,8,0:0:0:0:
184,110,51405,1,8,0:0:0:0:
146,107,51486,1,8,0:0:0:0:
110,117,51567,1,8,0:0:0:0:
80,138,51648,1,8,0:0:0:0:
58,169,51729,1,8,0:0:0:0:
48,205,51810,1,8,0:0:0:0:
51,242,51891,1,8,0:0:0:0:
66,276,51972,1,8,0:0:0:0:
428,384,52297,6,8,L|364:373,1,50
246,282,52459,2,8,L|310:271,1,50
498,236,52621,1,8,0:0:0:0:
498,236,52784,1,8,0:0:0:0:
91,99,53270,5,8,0:0:0:0:
91,99,53432,1,8,0:0:0:0:
168,252,53594,5,0,0:0:0:0:
168,252,53757,2,0,P|212:264|285:255,1,100,12|0,0:0|0:0,0:0:0:0:
440,138,54081,1,8,0:0:0:0:
440,170,54162,1,8,0:0:0:0:
439,202,54243,1,8,0:0:0:0:
341,331,54405,1,0,0:0:0:0:
341,331,54567,2,0,L|333:211,1,100,8|0,0:0|0:0,0:0:0:0:
224,71,54892,2,0,L|232:199,1,100,8|0,0:0|0:0,0:0:0:0:
240,341,55216,5,8,0:0:0:0:
240,341,55378,1,8,0:0:0:0:
58,362,55540,5,0,0:0:0:0:
58,362,55865,2,0,P|113:379|162:373,1,100,8|0,0:0|0:0,0:0:0:0:
240,341,56189,5,0,0:0:0:0:
293,257,56351,2,0,P|233:248|162:282,1,112.500004291535,12|0,0:0|0:0,0:0:0:0:
130,287,56675,5,8,0:0:0:0:
77,203,56838,1,0,0:0:0:0:
241,92,57000,5,8,0:0:0:0:
188,176,57163,1,0,0:0:0:0:
20,7,57324,5,8,0:0:0:0:
95,125,57486,2,0,P|155:134|226:100,1,100
353,0,57811,5,8,0:0:0:0:
353,0,57973,1,8,0:0:0:0:
476,183,58459,5,8,0:0:0:0:
476,183,58621,1,8,0:0:0:0:
373,341,58784,5,0,0:0:0:0:
373,341,58946,2,0,P|301:316|234:339,1,150,12|0,0:0|0:0,0:0:0:0:
192,357,59270,1,0,0:0:0:0:
73,316,59432,1,8,0:0:0:0:
169,240,59594,2,0,P|215:227|259:233,2,75.0000028610231,0|8|0,0:0|0:0|0:0,0:0:0:0:
46,157,60081,2,0,B|118:129|118:129|156:76,1,112.500004291535,8|0,0:0|0:0,0:0:0:0:
191,15,60405,5,12,0:0:0:0:
239,99,60567,1,0,0:0:0:0:
239,99,60729,2,0,L|294:109,1,50
496,144,61054,6,0,P|447:143|385:195,1,119.999996337891,8|0,0:0|0:0,0:0:0:0:
242,219,61540,1,0,0:0:0:0:
242,219,61702,2,0,P|291:218|353:270,1,119.999996337891,12|0,0:0|0:0,0:0:0:0:
503,308,62189,1,0,0:0:0:0:
503,308,62351,2,0,P|454:307|392:359,1,119.999996337891,8|0,0:0|0:0,0:0:0:0:
85,309,63000,5,8,0:0:0:0:
115,187,63162,1,0,0:0:0:0:
237,150,63324,1,0,0:0:0:0:
52,308,63486,5,8,0:0:0:0:
89,155,63648,1,0,0:0:0:0:
241,109,63810,1,0,0:0:0:0:
257,312,63973,5,8,0:0:0:0:
436,73,64135,1,12,0:0:0:0:
443,63,64459,5,12,0:0:0:0:
249,321,64621,1,12,0:0:0:0:
277,20,65594,5,12,0:0:0:0:
231,166,65757,1,0,0:0:0:0:
38,230,65919,5,12,0:0:0:0:
277,291,66082,1,0,0:0:0:0:
103,20,66243,2,0,B|76:91|118:125|118:125|110:152|110:152|157:190|132:270,1,250,12|8,0:0|0:0,0:0:0:0:
79,348,66729,5,0,0:0:0:0:
207,226,66892,1,8,0:0:0:0:
385,248,67054,1,0,0:0:0:0:
45,360,67216,5,8,0:0:0:0:
205,208,67379,1,0,0:0:0:0:
428,235,67541,1,8,0:0:0:0:
259,360,67702,2,0,P|200:375|133:345,2,125,0|8|0,0:0|0:0|0:0,0:0:0:0:
235,20,68189,5,12,0:0:0:0:
281,166,68352,1,0,0:0:0:0:
474,230,68514,5,12,0:0:0:0:
235,291,68675,1,0,0:0:0:0:
409,20,68838,2,0,B|436:91|394:125|394:125|402:152|402:152|355:190|380:270,1,250,12|0,0:0|0:0,0:0:0:0:
504,337,69324,2,0,P|430:286|322:300,1,187.5,8|0,0:0|0:0,0:0:0:0:
311,310,69648,1,0,0:0:0:0:
90,384,69811,1,8,0:0:0:0:
137,144,69973,1,0,0:0:0:0:
311,310,70135,1,8,0:0:0:0:
38,190,70297,2,0,P|79:235|138:255,2,125,0|8|0,0:0|0:0|0:0,0:0:0:0:
34,58,70784,5,12,0:0:0:0:
130,181,70946,1,0,0:0:0:0:
226,304,71108,1,12,0:0:0:0:
507,179,71270,5,0,0:0:0:0:
256,115,71432,2,0,B|323:92|371:45|371:45|381:97|401:130|401:130|363:149|330:200,1,300.000011444092,12|8,0:0|0:0,0:0:0:0:
334,307,71919,5,0,0:0:0:0:
179,288,72081,1,8,0:0:0:0:
96,153,72243,1,0,0:0:0:0:
353,335,72405,5,8,0:0:0:0:
159,312,72567,1,0,0:0:0:0:
56,143,72729,1,8,0:0:0:0:
266,146,72892,1,0,0:0:0:0:
159,312,73054,2,0,P|76:306|35:270,1,125,8|0,0:0|0:0,0:0:0:0:
98,118,73378,6,0,L|121:227,1,100,8|0,0:0|0:0,0:0:0:0:
266,146,73702,2,0,L|291:23,1,125,8|0,0:0|0:0,0:0:0:0:
86,135,74027,2,8,L|117:281,1,150.000005722046,8|0,0:0|0:0,0:0:0:0:
188,222,74351,2,0,P|257:183|355:229,1,150.000005722046,8|0,0:0|0:0,0:0:0:0:
479,351,74675,5,8,0:0:0:0:
453,324,74756,1,8,0:0:0:0:
419,308,74837,1,8,0:0:0:0:
382,307,74918,1,8,0:0:0:0:
347,321,74999,1,8,0:0:0:0:
327,345,75082,5,8,0:0:0:0:
301,361,75163,1,8,0:0:0:0:
270,368,75244,1,8,0:0:0:0:
239,364,75325,1,8,0:0:0:0:
212,350,75406,1,8,0:0:0:0:
190,328,75487,5,8,0:0:0:0:
177,300,75568,1,8,0:0:0:0:
174,269,75649,1,8,0:0:0:0:
181,239,75730,1,8,0:0:0:0:
198,213,75811,1,8,0:0:0:0:
223,194,75892,1,8,0:0:0:0:
253,185,75973,6,0,L|380:196,1,125,12|0,0:0|0:0,0:0:0:0:
304,50,76297,1,12,0:0:0:0:
148,52,76459,1,0,0:0:0:0:
405,194,76621,5,12,0:0:0:0:
322,28,76783,1,0,0:0:0:0:
137,27,76946,1,0,0:0:0:0:
290,242,77108,6,0,B|208:278|169:228|130:176|54:193,1,250,12|0,0:0|0:0,0:0:0:0:
314,120,77594,2,0,P|368:139|407:204,1,125,8|0,0:0|0:0,0:0:0:0:
512,322,77919,2,0,P|417:289|276:388,1,225.000008583069,8|0,0:0|0:0,0:0:0:0:
312,372,78243,2,0,P|409:317|474:338,1,150.000005722046,8|0,0:0|0:0,0:0:0:0:
58,347,78567,5,12,0:0:0:0:
156,224,78729,1,0,0:0:0:0:
317,264,78892,2,0,L|495:222,1,150.000005722046,12|0,0:0|0:0,0:0:0:0:
58,324,79216,5,12,0:0:0:0:
159,200,79378,1,0,0:0:0:0:
317,241,79540,2,0,L|495:199,2,150.000005722046,8|12|8,0:0|0:0|0:0,0:0:0:0:
132,212,80027,5,0,0:0:0:0:
32,128,80189,1,8,0:0:0:0:
33,5,80351,1,0,0:0:0:0:
140,90,80513,2,0,P|234:122|375:23,1,225.000008583069,8|0,0:0|0:0,0:0:0:0:
339,40,80838,2,0,P|241:94|176:73,1,150.000005722046,8|0,0:0|0:0,0:0:0:0:
378,208,81162,5,12,0:0:0:0:
262,291,81324,1,0,0:0:0:0:
125,249,81486,1,12,0:0:0:0:
415,208,81648,5,0,0:0:0:0:
269,311,81810,1,12,0:0:0:0:
99,259,81972,1,0,0:0:0:0:
461,208,82135,5,12,0:0:0:0:
280,337,82297,1,0,0:0:0:0:
66,272,82459,6,0,L|24:109,1,150.000005722046,12|0,0:0|0:0,0:0:0:0:
221,35,82784,2,0,L|177:203,1,160,12|0,0:0|0:0,0:0:0:0:
352,368,83108,2,0,L|309:204,1,170.000003242493,12|0,0:0|0:0,0:0:0:0:
485,16,83432,2,0,L|436:204,1,179.999994506836,12|0,0:0|0:0,0:0:0:0:
472,345,83757,2,0,P|394:289|303:290,1,179.999994506836,8|0,0:0|0:0,0:0:0:0:
187,52,84081,5,8,0:0:0:0:
187,52,84243,1,0,0:0:0:0:
187,52,84405,2,0,P|224:139|171:213,1,179.999994506836,8|0,0:0|0:0,0:0:0:0:
0,201,84729,2,0,P|56:125|147:134,1,179.999994506836,8|0,0:0|0:0,0:0:0:0:
274,229,85054,5,4,0:0:0:0:
316,244,85135,1,4,0:0:0:0:
363,244,85216,1,4,0:0:0:0:
403,226,85297,1,4,0:0:0:0:
430,197,85378,2,4,L|437:110,1,75.0000028610231
337,30,85540,2,4,L|344:117,1,75.0000028610231
243,201,85702,2,4,L|250:114,1,75.0000028610231
172,24,85865,5,8,0:0:0:0:
114,23,85946,1,8,0:0:0:0:
63,48,86027,1,8,0:0:0:0:
32,91,86108,1,8,0:0:0:0:
29,149,86189,1,8,0:0:0:0:
50,196,86270,1,8,0:0:0:0:
91,226,86351,2,0,L|327:255,1,179.999994506836,12|0,0:0|0:0,0:0:0:0:
480,102,86838,2,0,L|301:114,1,150.000005722046,12|0,0:0|0:0,0:0:0:0:
114,259,87162,2,0,L|445:299,1,325,12|0,0:0|0:0,0:0:0:0:
476,302,88297,5,12,0:0:0:0:
319,0,88459,1,12,0:0:0:0:
