osu file format v14

[General]
AudioFilename: audio.mp3
AudioLeadIn: 0
PreviewTime: -1
Countdown: 1
SampleSet: Normal
StackLeniency: 0.7
Mode: 0
LetterboxInBreaks: 0
StoryFireInFront: 0
SkinPreference:Default
EpilepsyWarning: 1
WidescreenStoryboard: 1

[Editor]
DistanceSpacing: 1
BeatDivisor: 6
GridSize: 4
TimelineZoom: 2.849999

[Metadata]
Title:tokashite(sound pulse)
TitleUnicode:tokashite(sound pulse)
Artist:
ArtistUnicode:
Creator:LimeNevaliawka
Version:Slider mode
Source:
Tags:tokashite
BeatmapID:1310118
BeatmapSetID:621242

[Difficulty]
HPDrainRate:5
CircleSize:5
OverallDifficulty:5
ApproachRate:6
SliderMultiplier:1.4
SliderTickRate:1

[Events]
//Background and Video events
0,0,"background.png",0,0
//Break Periods
2,90333,98387
//Storyboard Layer 0 (Background)
//Storyboard Layer 1 (Fail)
//Storyboard Layer 2 (Pass)
//Storyboard Layer 3 (Foreground)
//Storyboard Sound Samples

[TimingPoints]
21105.8788887125,600.240096038415,4,1,0,40,1,0

[Colours]
Combo1 : 255,0,128
Combo2 : 0,202,0
Combo3 : 18,124,255
Combo4 : 242,24,57
Combo5 : 255,192,0
Combo6 : 64,0,64
Combo7 : 255,128,0

[HitObjects]
112,68,1598,6,0,L|476:64,1,350
444,268,3999,6,0,L|108:268,1,326.666666666667
100,96,6399,2,0,L|448:92,1,326.666666666667
424,272,8800,6,0,L|96:268,1,326.666666666667
100,184,10901,2,0,L|260:184,1,140
240,284,12102,2,0,L|80:272,1,140
128,196,13002,2,0,P|248:168|356:180,1,233.333333333333
416,244,14303,2,0,L|356:288,1,70
272,296,14803,6,0,L|176:296,1,93.3333333333333
92,284,15403,2,0,L|156:212,1,93.3333333333333
232,248,16003,2,0,L|240:152,1,93.3333333333333
320,104,16604,2,0,L|352:192,1,93.3333333333333
300,248,17204,6,0,L|224:256,1,70
360,288,17704,2,0,L|300:344,1,70
440,288,18204,2,0,L|448:364,1,70
432,192,18704,6,0,L|248:200,1,163.333333333333
200,200,19605,2,0,L|120:196,1,70
212,140,20105,2,0,L|144:104,1,70
276,108,20605,2,0,L|232:48,1,70
292,200,21205,2,0,P|436:200|436:308,1,280
360,320,22606,5,0,0:0:0:0:
272,320,22906,1,0,0:0:0:0:
188,320,23206,1,0,0:0:0:0:
88,320,23506,1,0,0:0:0:0:
44,264,23806,6,0,P|64:184|160:244,1,233.333333333333
184,324,25107,2,0,P|272:340|360:296,1,186.666666666667
356,232,26207,2,0,L|312:168,1,70
276,128,26708,2,0,L|180:132,1,93.3333333333333
140,176,27308,2,0,L|128:268,1,93.3333333333333
184,288,27808,2,0,L|300:288,1,116.666666666667
368,284,28508,2,0,L|296:200,1,93.3333333333333
360,176,29109,2,0,L|424:256,1,93.3333333333333
472,216,29709,2,0,L|404:140,1,93.3333333333333
368,84,30409,6,0,P|264:184|192:168,1,210
156,72,31510,6,0,B|80:96|52:172|88:248|144:256|224:136,1,326.666666666667
268,88,33210,2,0,L|368:96,1,93.3333333333333
368,96,33810,2,0,L|432:184,1,93.3333333333333
424,180,34411,6,0,L|352:252,1,93.3333333333333
352,248,35011,2,0,L|240:248,1,93.3333333333333
184,240,35711,5,0,0:0:0:0:
188,152,36011,1,0,0:0:0:0:
264,108,36311,1,0,0:0:0:0:
344,160,36612,1,0,0:0:0:0:
344,244,36912,1,0,0:0:0:0:
288,288,37112,2,0,L|224:288,1,46.6666666666667
176,292,37512,2,0,P|92:216|160:116,1,233.333333333333
216,112,38712,2,0,P|288:172|252:292,1,233.333333333333
176,324,39913,2,0,B|412:312|408:312,1,233.333333333333
416,252,41113,2,0,L|432:152,1,93.3333333333333
400,100,41714,2,0,L|292:100,1,93.3333333333333
232,100,42314,2,0,L|168:100,1,46.6666666666667
120,104,42714,2,0,L|72:104,1,46.6666666666667
72,172,43114,2,0,L|72:224,1,46.6666666666667
140,224,43514,2,0,L|200:224,1,46.6666666666667
256,228,43915,2,0,L|308:228,6,46.6666666666667
360,308,45415,6,0,P|436:224|372:128,1,233.333333333333
320,160,46616,2,0,L|320:260,1,93.3333333333333
244,272,47216,2,0,L|240:172,1,93.3333333333333
400,184,47816,2,0,P|312:84|108:120,1,350
104,192,49517,5,0,0:0:0:0:
200,224,49717,1,0,0:0:0:0:
196,308,49917,2,0,L|336:308,1,140
404,312,50717,2,0,L|404:208,1,93.3333333333333
344,152,51317,2,0,L|236:152,1,93.3333333333333
168,152,51918,2,0,L|64:152,1,93.3333333333333
80,256,52518,5,0,0:0:0:0:
172,340,52818,1,0,0:0:0:0:
272,256,53118,1,0,0:0:0:0:
348,344,53418,1,0,0:0:0:0:
424,256,53718,1,0,0:0:0:0:
472,176,54119,6,0,P|368:80|104:116,1,420
96,232,56219,2,0,L|204:256,1,93.3333333333333
288,272,56820,2,0,L|320:200,4,70
208,308,58320,5,0,0:0:0:0:
124,228,58620,1,0,0:0:0:0:
208,164,58921,1,0,0:0:0:0:
288,236,59221,1,0,0:0:0:0:
332,320,59521,2,0,P|432:248|376:112,1,280
292,116,60921,1,0,0:0:0:0:
152,108,61422,6,0,P|188:232|104:332,1,256.666666666667
44,328,62722,2,0,L|288:332,1,233.333333333333
364,324,64023,5,0,0:0:0:0:
436,272,64323,2,0,P|408:168|376:160,1,140
316,152,65223,2,0,P|300:220|228:224,1,140
156,228,66023,2,0,L|192:160,4,70
128,112,67424,2,0,L|252:96,1,116.666666666667
296,144,68124,2,0,L|384:212,1,93.3333333333333
440,128,68824,6,0,B|460:236|416:296|304:284|240:232,1,303.333333333333
224,176,70325,6,0,P|148:220|88:184,1,163.333333333333
96,88,71225,2,0,L|88:168,4,70
176,88,72626,2,0,L|256:92,1,70
316,128,73126,2,0,L|368:184,1,70
336,248,73626,2,0,L|268:292,1,70
244,348,74127,2,0,B|168:304|144:180|248:80,1,303.333333333333
348,80,75627,1,0,0:0:0:0:
372,188,75927,1,0,0:0:0:0:
460,80,76227,1,0,0:0:0:0:
476,192,76528,1,0,0:0:0:0:
480,272,76728,6,0,P|408:328|300:320,1,186.666666666667
328,248,77728,2,0,P|248:232|132:284,1,210
64,232,78828,2,0,L|152:136,2,116.666666666667
36,304,80029,6,0,P|136:352|224:332,1,186.666666666667
268,296,81029,2,0,L|208:248,5,70
140,216,82730,2,0,L|148:136,1,70
224,120,83230,2,0,L|300:104,1,70
312,32,83730,6,0,P|396:96|420:224,1,233.333333333333
332,176,85031,1,0,0:0:0:0:
292,236,85331,2,0,P|256:300|196:324,1,140
40,112,86331,6,0,P|128:72|276:128,1,256.666666666667
360,228,87832,1,0,0:0:0:0:
256,296,88232,1,0,0:0:0:0:
172,280,88432,2,0,L|80:184,2,116.666666666667
264,300,89833,6,0,P|328:272|332:272,1,70
116,112,99437,6,0,L|188:96,1,70
248,136,99937,2,0,L|336:200,1,93.3333333333333
360,264,100537,2,0,L|272:296,1,93.3333333333333
216,248,101137,2,0,L|112:228,1,93.3333333333333
104,288,101738,2,0,L|208:316,1,93.3333333333333
280,312,102338,1,0,0:0:0:0:
392,280,102738,6,0,P|372:176|220:184,1,280
280,232,104139,2,0,B|236:264|120:204|64:328,1,233.333333333333
172,328,105339,2,0,P|216:240|172:204,1,163.333333333333
112,248,106239,2,0,P|96:180|168:136,1,163.333333333333
264,144,107140,1,0,0:0:0:0:
328,240,107440,1,0,0:0:0:0:
456,136,107940,6,0,P|428:64|304:72,1,210
232,92,109141,2,0,L|272:176,1,93.3333333333333
212,204,109741,2,0,L|168:116,1,93.3333333333333
104,136,110341,2,0,L|152:236,1,93.3333333333333
176,284,110941,2,0,L|356:216,1,186.666666666667
416,276,111942,6,0,B|456:196|400:128|316:96|432:36,1,280
480,96,113342,1,0,0:0:0:0:
452,168,113542,2,0,P|356:192|316:224,1,140
276,252,114343,2,0,P|184:228|128:188,1,163.333333333333
148,120,115243,2,0,L|220:48,2,93.3333333333333
60,120,116143,6,0,P|108:220|228:216,1,233.333333333333
176,152,117344,2,0,L|156:60,1,93.3333333333333
236,56,117944,2,0,L|340:48,1,93.3333333333333
420,40,118444,2,0,P|448:112|412:148,1,116.666666666667
312,164,119145,6,0,L|476:168,1,163.333333333333
452,236,120145,2,0,L|312:288,1,140
256,296,120945,1,0,0:0:0:0:
244,188,121145,1,0,0:0:0:0:
152,192,121345,2,0,P|208:104|344:176,1,280
424,204,122746,6,0,L|352:272,1,93.3333333333333
280,284,123346,2,0,L|176:284,1,93.3333333333333
124,248,123947,2,0,L|64:172,1,93.3333333333333
96,116,124547,2,0,L|192:76,1,93.3333333333333
256,76,125147,2,0,L|352:72,1,93.3333333333333
412,92,125747,2,0,L|468:188,1,93.3333333333333
408,236,126347,1,0,0:0:0:0:
236,264,127048,1,0,0:0:0:0:
212,128,127548,6,0,B|176:60|68:160|104:260|364:160,1,373.333333333333
428,116,129349,2,0,L|448:220,1,93.3333333333333
356,216,129949,2,0,L|360:104,1,93.3333333333333
264,108,130549,2,0,L|300:220,1,116.666666666667
340,300,131249,6,0,B|244:296|140:176|408:124,1,350
448,216,133050,5,0,0:0:0:0:
316,256,133350,1,0,0:0:0:0:
248,136,133650,1,0,0:0:0:0:
180,248,133951,1,0,0:0:0:0:
96,256,134151,6,0,L|208:48,1,233.333333333333
284,92,135351,2,0,L|264:196,1,93.3333333333333
232,280,135951,2,0,L|344:280,5,93.3333333333333
416,296,138052,6,0,L|404:188,1,93.3333333333333
340,224,138652,2,0,L|308:128,1,93.3333333333333
256,196,139253,2,0,L|224:104,1,93.3333333333333
168,176,139853,2,0,L|140:80,1,93.3333333333333
100,32,140553,6,0,B|60:96|68:232|148:320|136:304,1,280
224,248,142054,1,0,0:0:0:0:
276,320,142354,1,0,0:0:0:0:
352,248,142654,1,0,0:0:0:0:
392,328,142954,1,0,0:0:0:0:
468,324,143254,6,0,P|472:104|464:80,1,233.333333333333
388,68,144455,2,0,P|392:168|312:248,1,210
312,128,145555,2,0,L|244:208,1,93.3333333333333
152,168,146255,6,0,L|220:264,1,116.666666666667
312,304,147356,1,0,0:0:0:0:
376,248,147556,1,0,0:0:0:0:
452,228,147856,2,0,P|384:132|324:152,1,186.666666666667
316,72,148856,2,0,P|256:132|260:216,1,163.333333333333
264,284,149757,1,0,0:0:0:0:
264,284,149857,1,0,0:0:0:0:
192,320,150157,6,0,P|236:352|384:312,1,210
456,304,151257,2,0,P|428:208|360:192,1,163.333333333333
344,264,152158,2,0,P|288:208|332:148,1,163.333333333333
400,152,153058,6,0,P|324:12|228:76,2,303.333333333333
372,220,155859,2,0,L|284:212,1,70
296,280,156359,2,0,L|220:268,1,70
192,332,156860,2,0,P|144:288|160:244,1,116.666666666667
240,248,157660,2,0,L|216:176,6,70
220,324,159761,6,0,P|360:300|340:192,1,280
280,164,161161,2,0,P|360:104|444:192,1,233.333333333333
448,256,162362,2,0,L|336:256,1,93.3333333333333
308,312,162962,2,0,P|276:248|288:212,1,93.3333333333333
208,212,163562,6,0,P|208:276|232:312,1,93.3333333333333
144,308,164163,2,0,P|128:248|140:196,1,116.666666666667
84,136,164863,6,0,L|232:136,1,140
288,200,165663,2,0,L|320:148,1,46.6666666666667
336,104,166063,2,0,L|408:148,1,70
452,188,166664,1,0,0:0:0:0:
452,188,166764,5,0,0:0:0:0:
256,192,167064,12,0,168164,0:0:0:0:
