osu file format v14

[General]
AudioFilename: audio.mp3
AudioLeadIn: 0
PreviewTime: -1
Countdown: 1
SampleSet: Normal
StackLeniency: 0.7
Mode: 0
LetterboxInBreaks: 0
WidescreenStoryboard: 0

[Editor]
DistanceSpacing: 2.7
BeatDivisor: 8
GridSize: 16
TimelineZoom: 1.9

[Metadata]
Title:Your reality
TitleUnicode:Your reality
Artist:
ArtistUnicode:
Creator:Kitakaze
Version:Just Monika
Source:
Tags:
BeatmapID:1523848
BeatmapSetID:721653

[Difficulty]
HPDrainRate:7
CircleSize:4
OverallDifficulty:5
ApproachRate:9
SliderMultiplier:2
SliderTickRate:1

[Events]
//Background and Video events
0,0,"JUST MONIKA.png",0,0
//Break Periods
2,112485,114514
//Storyboard Layer 0 (Background)
//Storyboard Layer 1 (Fail)
//Storyboard Layer 2 (Pass)
//Storyboard Layer 3 (Foreground)
//Storyboard Sound Samples

[TimingPoints]
0,571.428571428571,4,1,0,20,1,0

[HitObjects]
64,320,0,5,0,0:0:0:0:
112,304,71,1,0,0:0:0:0:
160,288,142,1,0,0:0:0:0:
208,272,214,1,0,0:0:0:0:
256,256,285,1,0,0:0:0:0:
400,192,857,5,0,0:0:0:0:
336,48,1142,1,0,0:0:0:0:
240,176,1428,1,0,0:0:0:0:
400,192,1999,1,0,0:0:0:0:
304,336,2285,1,0,0:0:0:0:
240,176,2571,1,0,0:0:0:0:
144,320,3428,1,0,0:0:0:0:
208,64,4285,5,0,0:0:0:0:
176,80,4428,1,0,0:0:0:0:
160,112,4571,1,0,0:0:0:0:
208,288,4857,1,0,0:0:0:0:
336,176,5428,2,0,P|368:144|384:80,1,100
192,288,6571,6,0,B|176:320|192:336|192:336|208:352|240:384,2,100
192,16,7999,1,0,0:0:0:0:
144,320,9428,5,0,0:0:0:0:
448,112,9999,1,0,0:0:0:0:
288,32,10285,1,0,0:0:0:0:
288,208,10571,2,0,B|256:256|160:256|160:256|112:224,1,200
272,320,11428,5,0,0:0:0:0:
320,304,11571,1,0,0:0:0:0:
336,256,11714,1,0,0:0:0:0:
80,192,11999,1,0,0:0:0:0:
80,144,12142,1,0,0:0:0:0:
128,128,12285,1,0,0:0:0:0:
384,64,12571,5,0,0:0:0:0:
256,304,12857,1,0,0:0:0:0:
224,224,13428,1,0,0:0:0:0:
224,224,13714,1,0,0:0:0:0:
224,224,13999,1,0,0:0:0:0:
224,224,14285,1,0,0:0:0:0:
224,224,14571,1,0,0:0:0:0:
160,224,14857,1,0,0:0:0:0:
160,224,14999,1,0,0:0:0:0:
160,224,15142,1,0,0:0:0:0:
160,224,15428,1,0,0:0:0:0:
96,176,15571,1,0,0:0:0:0:
96,176,15714,1,0,0:0:0:0:
144,208,15999,1,0,0:0:0:0:
192,224,16857,1,0,0:0:0:0:
192,224,17142,1,0,0:0:0:0:
192,224,17285,1,0,0:0:0:0:
176,192,17571,1,0,0:0:0:0:
176,192,17714,1,0,0:0:0:0:
176,192,17999,1,0,0:0:0:0:
224,240,18285,1,0,0:0:0:0:
224,240,18571,1,0,0:0:0:0:
224,224,19142,1,0,0:0:0:0:
224,224,19428,1,0,0:0:0:0:
224,224,19714,1,0,0:0:0:0:
160,176,20571,1,0,0:0:0:0:
144,176,20714,1,0,0:0:0:0:
256,208,20857,1,0,0:0:0:0:
256,208,21142,1,0,0:0:0:0:
224,256,21285,1,0,0:0:0:0:
224,256,21428,1,0,0:0:0:0:
240,240,21714,1,0,0:0:0:0:
160,208,21999,1,0,0:0:0:0:
160,208,22285,1,0,0:0:0:0:
224,80,22857,1,0,0:0:0:0:
224,80,23142,1,0,0:0:0:0:
96,112,23428,1,0,0:0:0:0:
96,128,23714,1,0,0:0:0:0:
224,208,23999,1,0,0:0:0:0:
224,208,24142,1,0,0:0:0:0:
224,208,24285,1,0,0:0:0:0:
224,208,24571,1,0,0:0:0:0:
208,240,24714,1,0,0:0:0:0:
208,240,24857,1,0,0:0:0:0:
304,192,25142,1,0,0:0:0:0:
224,80,25999,1,0,0:0:0:0:
224,192,26285,1,0,0:0:0:0:
224,192,26428,1,0,0:0:0:0:
224,192,26714,1,0,0:0:0:0:
224,192,26857,1,0,0:0:0:0:
240,144,27142,1,0,0:0:0:0:
304,192,27428,1,0,0:0:0:0:
240,208,27499,1,0,0:0:0:0:
240,208,27571,1,0,0:0:0:0:
240,208,27642,1,0,0:0:0:0:
240,208,27714,1,0,0:0:0:0:
208,112,28071,1,0,0:0:0:0:
240,224,28571,1,0,0:0:0:0:
208,192,29142,1,0,0:0:0:0:
288,240,29714,1,0,0:0:0:0:
208,224,29999,1,0,0:0:0:0:
256,192,30285,1,0,0:0:0:0:
176,192,30428,1,0,0:0:0:0:
304,160,30857,1,0,0:0:0:0:
272,176,31428,1,0,0:0:0:0:
240,192,31714,1,0,0:0:0:0:
240,192,31857,1,0,0:0:0:0:
240,192,31999,1,0,0:0:0:0:
304,160,32285,1,0,0:0:0:0:
224,160,32571,1,0,0:0:0:0:
224,160,32857,1,0,0:0:0:0:
176,176,32999,1,0,0:0:0:0:
224,208,33285,1,0,0:0:0:0:
256,208,34071,1,0,0:0:0:0:
176,160,34357,1,0,0:0:0:0:
208,176,34499,1,0,0:0:0:0:
224,160,34857,1,0,0:0:0:0:
224,176,35142,1,0,0:0:0:0:
224,176,35285,1,0,0:0:0:0:
48,160,35428,1,0,0:0:0:0:
256,192,36285,1,0,0:0:0:0:
256,192,36571,1,0,0:0:0:0:
256,192,36857,1,0,0:0:0:0:
192,144,37214,1,0,0:0:0:0:
288,224,37357,1,0,0:0:0:0:
288,304,37714,1,0,0:0:0:0:
304,272,38285,1,0,0:0:0:0:
208,240,38857,1,0,0:0:0:0:
208,240,39142,1,0,0:0:0:0:
208,240,39428,1,0,0:0:0:0:
208,240,39571,1,0,0:0:0:0:
288,272,39999,1,0,0:0:0:0:
208,240,40571,1,0,0:0:0:0:
208,256,41714,1,0,0:0:0:0:
256,256,41999,1,0,0:0:0:0:
256,256,42142,1,0,0:0:0:0:
176,256,42428,1,0,0:0:0:0:
304,272,43142,1,0,0:0:0:0:
192,256,43428,1,0,0:0:0:0:
256,304,43571,1,0,0:0:0:0:
224,288,43999,1,0,0:0:0:0:
224,288,44285,1,0,0:0:0:0:
224,288,44428,1,0,0:0:0:0:
224,288,44571,1,0,0:0:0:0:
240,240,45999,1,0,0:0:0:0:
224,224,46285,1,0,0:0:0:0:
288,240,46571,1,0,0:0:0:0:
288,240,46714,1,0,0:0:0:0:
240,240,46999,1,0,0:0:0:0:
304,176,47714,1,0,0:0:0:0:
208,192,47999,1,0,0:0:0:0:
288,224,48142,1,0,0:0:0:0:
224,224,49714,1,0,0:0:0:0:
144,208,49999,1,0,0:0:0:0:
144,208,50142,1,0,0:0:0:0:
240,240,50357,1,0,0:0:0:0:
224,256,50571,1,0,0:0:0:0:
160,288,50857,1,0,0:0:0:0:
160,288,50999,1,0,0:0:0:0:
272,304,51285,1,0,0:0:0:0:
272,304,51428,1,0,0:0:0:0:
176,256,51714,1,0,0:0:0:0:
304,288,51999,1,0,0:0:0:0:
304,288,52142,1,0,0:0:0:0:
208,256,52428,1,0,0:0:0:0:
288,304,52571,1,0,0:0:0:0:
288,304,52857,1,0,0:0:0:0:
224,272,53142,1,0,0:0:0:0:
224,272,53285,1,0,0:0:0:0:
192,256,53571,1,0,0:0:0:0:
256,288,53714,1,0,0:0:0:0:
112,224,53999,1,0,0:0:0:0:
272,272,54285,1,0,0:0:0:0:
240,272,54428,1,0,0:0:0:0:
240,272,54714,1,0,0:0:0:0:
240,272,54857,1,0,0:0:0:0:
176,224,55142,1,0,0:0:0:0:
176,224,55428,1,0,0:0:0:0:
176,224,55571,1,0,0:0:0:0:
176,224,55857,1,0,0:0:0:0:
176,224,55999,1,0,0:0:0:0:
176,224,56285,1,0,0:0:0:0:
176,224,56571,1,0,0:0:0:0:
176,224,56714,1,0,0:0:0:0:
176,224,56999,1,0,0:0:0:0:
176,224,57142,1,0,0:0:0:0:
256,256,57428,1,0,0:0:0:0:
256,256,57714,1,0,0:0:0:0:
256,256,57857,1,0,0:0:0:0:
176,256,58142,1,0,0:0:0:0:
176,256,58285,1,0,0:0:0:0:
288,256,58571,1,0,0:0:0:0:
304,272,58857,1,0,0:0:0:0:
304,272,58999,1,0,0:0:0:0:
304,272,59285,1,0,0:0:0:0:
304,272,59428,1,0,0:0:0:0:
208,208,59714,1,0,0:0:0:0:
208,208,59999,1,0,0:0:0:0:
208,208,60142,1,0,0:0:0:0:
256,240,60285,1,0,0:0:0:0:
384,224,60571,1,0,0:0:0:0:
384,224,60857,1,0,0:0:0:0:
288,224,61714,1,0,0:0:0:0:
240,240,61857,1,0,0:0:0:0:
240,240,61999,1,0,0:0:0:0:
240,256,62285,1,0,0:0:0:0:
272,272,62571,1,0,0:0:0:0:
272,272,62857,1,0,0:0:0:0:
272,272,63142,1,0,0:0:0:0:
144,224,63714,1,0,0:0:0:0:
144,224,63999,1,0,0:0:0:0:
144,224,64285,1,0,0:0:0:0:
144,224,64571,1,0,0:0:0:0:
144,224,64857,1,0,0:0:0:0:
240,256,65142,1,0,0:0:0:0:
240,208,65285,1,0,0:0:0:0:
272,240,65428,1,0,0:0:0:0:
240,208,65714,1,0,0:0:0:0:
368,192,65857,1,0,0:0:0:0:
176,208,65999,1,0,0:0:0:0:
176,208,66285,1,0,0:0:0:0:
240,208,67142,1,0,0:0:0:0:
240,208,67428,1,0,0:0:0:0:
240,208,67571,1,0,0:0:0:0:
240,208,67857,1,0,0:0:0:0:
32,144,67999,1,0,0:0:0:0:
320,176,68285,1,0,0:0:0:0:
320,176,68571,1,0,0:0:0:0:
208,112,69428,1,0,0:0:0:0:
352,288,69714,1,0,0:0:0:0:
352,288,69999,1,0,0:0:0:0:
272,288,70857,1,0,0:0:0:0:
272,288,70999,1,0,0:0:0:0:
272,288,71142,1,0,0:0:0:0:
192,256,71428,1,0,0:0:0:0:
192,256,71571,1,0,0:0:0:0:
192,256,71714,1,0,0:0:0:0:
256,224,71999,1,0,0:0:0:0:
256,224,72285,1,0,0:0:0:0:
256,224,72857,1,0,0:0:0:0:
256,224,73142,1,0,0:0:0:0:
304,256,73428,1,0,0:0:0:0:
224,256,73714,1,0,0:0:0:0:
336,256,73999,1,0,0:0:0:0:
256,256,74285,1,0,0:0:0:0:
256,256,74428,1,0,0:0:0:0:
272,256,74571,1,0,0:0:0:0:
288,256,74857,1,0,0:0:0:0:
208,224,74999,1,0,0:0:0:0:
208,224,75142,1,0,0:0:0:0:
224,224,75428,1,0,0:0:0:0:
192,224,76285,1,0,0:0:0:0:
224,224,76571,1,0,0:0:0:0:
224,224,76714,1,0,0:0:0:0:
224,224,76999,1,0,0:0:0:0:
224,224,77142,1,0,0:0:0:0:
224,224,77428,1,0,0:0:0:0:
224,224,77714,1,0,0:0:0:0:
160,208,77785,1,0,0:0:0:0:
160,208,77857,1,0,0:0:0:0:
160,208,77928,1,0,0:0:0:0:
160,208,77999,1,0,0:0:0:0:
256,192,78285,1,0,0:0:0:0:
256,192,78428,1,0,0:0:0:0:
272,176,78857,1,0,0:0:0:0:
224,208,79428,1,0,0:0:0:0:
224,208,79999,1,0,0:0:0:0:
304,272,80285,1,0,0:0:0:0:
304,272,80571,1,0,0:0:0:0:
240,272,80714,1,0,0:0:0:0:
224,256,81142,1,0,0:0:0:0:
304,256,81714,1,0,0:0:0:0:
272,208,82857,1,0,0:0:0:0:
224,224,83142,1,0,0:0:0:0:
192,96,83285,1,0,0:0:0:0:
192,192,83571,1,0,0:0:0:0:
272,224,84285,1,0,0:0:0:0:
272,224,84571,1,0,0:0:0:0:
272,224,84714,1,0,0:0:0:0:
224,208,85142,1,0,0:0:0:0:
256,192,85428,1,0,0:0:0:0:
256,192,85571,1,0,0:0:0:0:
208,192,85714,1,0,0:0:0:0:
304,176,86857,1,0,0:0:0:0:
304,176,86928,1,0,0:0:0:0:
240,192,86999,1,0,0:0:0:0:
240,192,87071,1,0,0:0:0:0:
240,208,87142,1,0,0:0:0:0:
288,224,87428,1,0,0:0:0:0:
288,224,87571,1,0,0:0:0:0:
368,240,87999,1,0,0:0:0:0:
320,208,88571,1,0,0:0:0:0:
320,208,89142,1,0,0:0:0:0:
256,224,89428,1,0,0:0:0:0:
256,224,89714,1,0,0:0:0:0:
256,224,89857,1,0,0:0:0:0:
192,208,90285,1,0,0:0:0:0:
192,224,90857,1,0,0:0:0:0:
240,240,91999,1,0,0:0:0:0:
176,224,92285,1,0,0:0:0:0:
176,224,92428,1,0,0:0:0:0:
176,224,92714,1,0,0:0:0:0:
208,224,93428,1,0,0:0:0:0:
208,240,93714,1,0,0:0:0:0:
176,224,93857,1,0,0:0:0:0:
288,240,94285,1,0,0:0:0:0:
240,208,94571,1,0,0:0:0:0:
320,192,94714,1,0,0:0:0:0:
320,192,94857,1,0,0:0:0:0:
224,208,96285,1,0,0:0:0:0:
224,208,96571,1,0,0:0:0:0:
304,224,96857,1,0,0:0:0:0:
288,272,97142,1,0,0:0:0:0:
288,272,97285,1,0,0:0:0:0:
192,224,97571,1,0,0:0:0:0:
224,80,97857,1,0,0:0:0:0:
224,80,97999,1,0,0:0:0:0:
256,208,98571,1,0,0:0:0:0:
288,224,98857,1,0,0:0:0:0:
192,208,99142,1,0,0:0:0:0:
320,224,99428,1,0,0:0:0:0:
320,224,99571,1,0,0:0:0:0:
320,224,99857,1,0,0:0:0:0:
112,112,100142,1,0,0:0:0:0:
112,112,100285,1,0,0:0:0:0:
272,208,100857,1,0,0:0:0:0:
208,208,101142,1,0,0:0:0:0:
208,208,101428,1,0,0:0:0:0:
208,208,101714,1,0,0:0:0:0:
304,160,101857,1,0,0:0:0:0:
224,160,102142,1,0,0:0:0:0:
224,160,102428,1,0,0:0:0:0:
224,160,102571,1,0,0:0:0:0:
224,160,103142,1,0,0:0:0:0:
192,176,103428,1,0,0:0:0:0:
192,176,103714,1,0,0:0:0:0:
192,176,103999,1,0,0:0:0:0:
192,176,104142,1,0,0:0:0:0:
192,176,104428,1,0,0:0:0:0:
192,176,104714,1,0,0:0:0:0:
192,176,104857,1,0,0:0:0:0:
288,160,105428,1,0,0:0:0:0:
288,160,105714,1,0,0:0:0:0:
288,160,105999,1,0,0:0:0:0:
176,176,106285,1,0,0:0:0:0:
176,176,106428,1,0,0:0:0:0:
240,128,106714,1,0,0:0:0:0:
160,160,106999,1,0,0:0:0:0:
160,160,107142,1,0,0:0:0:0:
224,160,107714,1,0,0:0:0:0:
224,160,107999,1,0,0:0:0:0:
288,192,108142,1,0,0:0:0:0:
224,160,108285,1,0,0:0:0:0:
288,208,108428,1,0,0:0:0:0:
160,80,108714,1,0,0:0:0:0:
256,176,108999,1,0,0:0:0:0:
256,176,109142,1,0,0:0:0:0:
256,176,109285,1,0,0:0:0:0:
336,208,109571,1,0,0:0:0:0:
336,208,109714,1,0,0:0:0:0:
336,208,109999,1,0,0:0:0:0:
224,128,110428,1,0,0:0:0:0:
272,176,110857,1,0,0:0:0:0:
240,256,111285,1,0,0:0:0:0:
368,224,111714,1,0,0:0:0:0:
368,224,111999,1,0,0:0:0:0:
368,224,112285,1,0,0:0:0:0:
320,272,115714,5,0,0:0:0:0:
320,272,115999,1,0,0:0:0:0:
272,224,116285,1,0,0:0:0:0:
320,224,117142,1,0,0:0:0:0:
320,224,117285,1,0,0:0:0:0:
320,224,117428,1,0,0:0:0:0:
320,224,117714,1,0,0:0:0:0:
240,224,117857,1,0,0:0:0:0:
240,224,117999,1,0,0:0:0:0:
304,256,118285,1,0,0:0:0:0:
224,240,118571,1,0,0:0:0:0:
240,208,119142,1,0,0:0:0:0:
320,224,119428,1,0,0:0:0:0:
320,224,119714,1,0,0:0:0:0:
256,256,119999,1,0,0:0:0:0:
288,256,120285,1,0,0:0:0:0:
288,256,120571,1,0,0:0:0:0:
288,256,120857,1,0,0:0:0:0:
160,224,121142,1,0,0:0:0:0:
240,224,121428,1,0,0:0:0:0:
144,208,121714,1,0,0:0:0:0:
256,224,121928,1,0,0:0:0:0:
208,224,121999,1,0,0:0:0:0:
320,192,122285,1,0,0:0:0:0:
192,208,122499,1,0,0:0:0:0:
192,208,122571,1,0,0:0:0:0:
224,208,122785,1,0,0:0:0:0:
176,176,123142,1,0,0:0:0:0:
144,192,124857,1,0,0:0:0:0:
144,192,125142,1,0,0:0:0:0:
208,208,125428,1,0,0:0:0:0:
240,224,126285,1,0,0:0:0:0:
240,224,126428,1,0,0:0:0:0:
240,224,126571,1,0,0:0:0:0:
240,224,126857,1,0,0:0:0:0:
320,256,126999,1,0,0:0:0:0:
320,256,127142,1,0,0:0:0:0:
160,224,127428,1,0,0:0:0:0:
160,224,127714,1,0,0:0:0:0:
256,240,128285,1,0,0:0:0:0:
256,128,128571,1,0,0:0:0:0:
256,128,128857,1,0,0:0:0:0:
256,128,129142,1,0,0:0:0:0:
256,128,129428,1,0,0:0:0:0:
272,176,129714,1,0,0:0:0:0:
304,176,129999,1,0,0:0:0:0:
176,176,130285,1,0,0:0:0:0:
336,176,130571,1,0,0:0:0:0:
96,160,130857,1,0,0:0:0:0:
272,176,131142,1,0,0:0:0:0:
208,176,131428,1,0,0:0:0:0:
240,176,131714,1,0,0:0:0:0:
240,176,131999,1,0,0:0:0:0:
112,160,132285,1,0,0:0:0:0:
320,176,132571,1,0,0:0:0:0:
80,160,132857,1,0,0:0:0:0:
416,192,133142,1,0,0:0:0:0:
128,160,133428,1,0,0:0:0:0:
288,176,133714,1,0,0:0:0:0:
176,192,134285,1,0,0:0:0:0:
144,208,134571,1,0,0:0:0:0:
192,208,134857,1,0,0:0:0:0:
192,208,135428,1,0,0:0:0:0:
176,208,135714,1,0,0:0:0:0:
176,208,135857,1,0,0:0:0:0:
176,208,135999,1,0,0:0:0:0:
304,224,136285,1,0,0:0:0:0:
304,224,136428,1,0,0:0:0:0:
144,176,136571,1,0,0:0:0:0:
224,224,136857,1,0,0:0:0:0:
192,240,136999,1,0,0:0:0:0:
192,240,137142,1,0,0:0:0:0:
288,256,137285,1,0,0:0:0:0:
288,256,137428,1,0,0:0:0:0:
288,256,137571,1,0,0:0:0:0:
176,176,137714,5,0,0:0:0:0:
272,192,137785,1,0,0:0:0:0:
272,192,137857,1,0,0:0:0:0:
272,192,137928,1,0,0:0:0:0:
272,192,137999,1,0,0:0:0:0:
256,272,138285,1,0,0:0:0:0:
320,272,138857,1,0,0:0:0:0:
336,256,139428,1,0,0:0:0:0:
288,256,139999,1,0,0:0:0:0:
192,256,140285,1,0,0:0:0:0:
240,256,140571,1,0,0:0:0:0:
176,272,140714,1,0,0:0:0:0:
176,272,141142,1,0,0:0:0:0:
176,272,141714,1,0,0:0:0:0:
288,272,142857,1,0,0:0:0:0:
256,272,143142,1,0,0:0:0:0:
176,272,143285,1,0,0:0:0:0:
144,288,143571,1,0,0:0:0:0:
160,240,144285,1,0,0:0:0:0:
240,256,144571,1,0,0:0:0:0:
240,256,144714,1,0,0:0:0:0:
160,208,145142,1,0,0:0:0:0:
256,240,145428,1,0,0:0:0:0:
192,256,145571,1,0,0:0:0:0:
192,256,145714,1,0,0:0:0:0:
256,256,146857,1,0,0:0:0:0:
256,256,146928,1,0,0:0:0:0:
256,256,146999,1,0,0:0:0:0:
192,224,147071,1,0,0:0:0:0:
256,256,147142,1,0,0:0:0:0:
384,304,147428,1,0,0:0:0:0:
272,288,147571,1,0,0:0:0:0:
272,288,147999,1,0,0:0:0:0:
304,272,148571,1,0,0:0:0:0:
240,272,149142,1,0,0:0:0:0:
288,288,149428,1,0,0:0:0:0:
224,240,149714,1,0,0:0:0:0:
224,240,149857,1,0,0:0:0:0:
144,240,150285,1,0,0:0:0:0:
208,240,150857,1,0,0:0:0:0:
240,192,151999,1,0,0:0:0:0:
176,208,152285,1,0,0:0:0:0:
176,208,152428,1,0,0:0:0:0:
176,208,152714,1,0,0:0:0:0:
256,240,153428,1,0,0:0:0:0:
192,240,153714,1,0,0:0:0:0:
192,240,153857,1,0,0:0:0:0:
320,256,154285,1,0,0:0:0:0:
320,256,154571,1,0,0:0:0:0:
320,256,154714,1,0,0:0:0:0:
320,256,154857,1,0,0:0:0:0:
192,240,155714,1,0,0:0:0:0:
192,240,155999,1,0,0:0:0:0:
272,256,156142,1,0,0:0:0:0:
176,256,156571,1,0,0:0:0:0:
176,256,156857,1,0,0:0:0:0:
240,272,156999,1,0,0:0:0:0:
240,272,157142,1,0,0:0:0:0:
304,160,157714,1,0,0:0:0:0:
224,192,158285,1,0,0:0:0:0:
272,224,158571,1,0,0:0:0:0:
208,224,158857,1,0,0:0:0:0:
208,224,158999,1,0,0:0:0:0:
224,240,159285,1,0,0:0:0:0:
224,240,159428,1,0,0:0:0:0:
176,240,159999,1,0,0:0:0:0:
208,256,160857,1,0,0:0:0:0:
208,256,161142,1,0,0:0:0:0:
208,256,161428,1,0,0:0:0:0:
288,256,161714,1,0,0:0:0:0:
240,224,162285,1,0,0:0:0:0:
176,208,162857,1,0,0:0:0:0:
240,224,164285,1,0,0:0:0:0:
208,240,164571,1,0,0:0:0:0:
240,240,164857,1,0,0:0:0:0:
192,240,165142,1,0,0:0:0:0:
288,272,165285,1,0,0:0:0:0:
224,224,165714,1,0,0:0:0:0:
224,224,165857,1,0,0:0:0:0:
288,240,166142,1,0,0:0:0:0:
288,240,166285,1,0,0:0:0:0:
288,240,166571,1,0,0:0:0:0:
288,240,166857,1,0,0:0:0:0:
288,240,166999,1,0,0:0:0:0:
288,240,167285,1,0,0:0:0:0:
288,240,167428,1,0,0:0:0:0:
288,240,167714,1,0,0:0:0:0:
288,240,167999,1,0,0:0:0:0:
288,240,168142,1,0,0:0:0:0:
288,240,168428,1,0,0:0:0:0:
288,240,168571,1,0,0:0:0:0:
288,240,168857,1,0,0:0:0:0:
288,240,169142,1,0,0:0:0:0:
288,240,169285,1,0,0:0:0:0:
224,240,169571,1,0,0:0:0:0:
304,192,169714,1,0,0:0:0:0:
304,192,169999,1,0,0:0:0:0:
224,240,170285,1,0,0:0:0:0:
224,240,170428,1,0,0:0:0:0:
336,192,170571,1,0,0:0:0:0:
256,160,170857,1,0,0:0:0:0:
256,160,171142,1,0,0:0:0:0:
192,240,171999,1,0,0:0:0:0:
192,240,172142,1,0,0:0:0:0:
128,192,172285,1,0,0:0:0:0:
304,192,172571,1,0,0:0:0:0:
288,256,172714,1,0,0:0:0:0:
288,256,172857,1,0,0:0:0:0:
288,256,173142,1,0,0:0:0:0:
176,224,173428,1,0,0:0:0:0:
304,192,174142,1,0,0:0:0:0:
160,208,174571,1,0,0:0:0:0:
