osu file format v14

[General]
AudioFilename: audio.mp3
AudioLeadIn: 0
PreviewTime: 7880
Countdown: 1
SampleSet: Normal
StackLeniency: 0.7
Mode: 0
LetterboxInBreaks: 0
WidescreenStoryboard: 1

[Editor]
Bookmarks: 107660
DistanceSpacing: 1.8
BeatDivisor: 8
GridSize: 4
TimelineZoom: 2

[Metadata]
Title:Circus Theme Song
TitleUnicode:Circus Theme Song
Artist:
ArtistUnicode:
Creator:Kama
Version:Clownery Remastered! [06.2019]
Source:neymar95you ruspah
Tags:
BeatmapID:2078938
BeatmapSetID:944592

[Difficulty]
HPDrainRate:3
CircleSize:3.5
OverallDifficulty:8.3
ApproachRate:9.5
SliderMultiplier:2.6
SliderTickRate:1

[Events]
//Background and Video events
0,0,"4d5d6w1ukhv21.jpg",0,0
//Break Periods
//Storyboard Layer 0 (Background)
//Storyboard Layer 1 (Fail)
//Storyboard Layer 2 (Pass)
//Storyboard Layer 3 (Foreground)
//Storyboard Sound Samples

[TimingPoints]
200,480,4,1,0,40,1,0
4040,-90.9090909090909,4,1,0,40,0,0
7400,-66.6666666666667,4,1,0,40,0,0
7880,-125,4,1,0,40,0,0
9800,-111.111111111111,4,1,0,40,0,0
10280,-100,4,1,0,40,0,0
10760,-90.9090909090909,4,1,0,40,0,0
11240,-83.3333333333333,4,1,0,40,0,0
11720,-76.9230769230769,4,1,0,60,0,1
17480,-125,4,1,0,60,0,1
18920,-200,4,1,0,60,0,1
19400,-76.9230769230769,4,1,0,60,0,1
23240,-111.111111111111,4,1,0,60,0,1
24200,-76.9230769230769,4,1,0,60,0,1
26120,-166.666666666667,4,1,0,40,0,0
27080,-76.9230769230769,4,1,0,60,0,1
32840,-125,4,1,0,60,0,1
34760,-76.9230769230769,4,1,0,60,0,1
38600,-166.666666666667,4,1,0,60,0,1
40520,-76.9230769230769,4,1,0,60,0,1
41480,-100,4,1,0,40,0,0
42440,-200,4,1,0,40,0,0
55880,-100,4,1,0,40,0,0
65480,-200,4,1,0,40,0,0
69320,-166.666666666667,4,1,0,40,0,0
69800,-142.857142857143,4,1,0,40,0,0
70280,-125,4,1,0,40,0,0
70760,-111.111111111111,4,1,0,40,0,0
71240,-100,4,1,0,40,0,0
72200,-200,4,1,0,40,0,0
72440,-57.1428571428571,4,1,0,40,0,0
72800,-57.1428571428571,4,1,0,40,0,0
73160,-100,4,1,0,40,0,0
77000,-133.333333333333,4,1,0,40,0,0
105800,-1000,4,1,0,40,0,0
107000,-57.1428571428571,4,1,0,60,0,1
107480,-36.3636363636364,4,1,0,60,0,1
107720,-83.3333333333333,4,1,0,60,0,1
111560,-62.5,4,1,0,60,0,1
113480,-76.9230769230769,4,1,0,60,0,1
115400,-100,4,1,0,60,0,1
116360,-111.111111111111,4,1,0,60,0,1
116364,545.454545454546,4,1,0,60,1,1
116909,-200,4,1,0,60,0,1
117454,566.037735849057,4,1,0,40,1,0
117454,-142.857142857143,4,1,0,40,0,0
133303,-100,4,1,0,40,0,0
135001,-47.6190476190476,4,1,0,40,0,0
135567,-142.857142857143,4,1,0,40,0,0
140095,-333.333333333334,4,1,0,40,0,0
141227,-142.857142857143,4,1,0,40,0,0
142359,-333.333333333334,4,1,0,40,0,0
143491,-142.857142857143,4,1,0,40,0,0
148586,631.578947368421,4,1,0,40,1,0
149239,638.297872340426,4,1,0,40,1,0
150994,638.297872340426,4,1,0,40,1,0
151566,521.739130434783,4,1,0,40,1,0
151566,-80,4,1,0,40,0,0
153131,-66.6666666666667,4,1,0,40,0,0
153392,-100,4,1,0,5,0,0

[Colours]
Combo1 : 248,193,67
Combo2 : 242,128,13
Combo3 : 240,90,47
Combo4 : 228,188,27

[HitObjects]
396,128,200,6,0,B|368:112|360:100|360:100|328:104|316:80|280:68|253:68|236:72|216:96|176:88|176:88|156:104|132:104,1,260,8|0,0:0|0:0,0:0:0:0:
120,184,920,2,0,P|136:224|144:260,1,65,8|8,0:0|0:0,0:0:0:0:
168,312,1160,2,0,P|256:252|372:340,1,260
452,296,1880,1,0,0:0:0:0:
452,296,2000,1,0,0:0:0:0:
328,244,2120,6,0,L|404:216,1,65,8|0,0:0|0:0,0:0:0:0:
276,168,2360,2,0,L|333:110,1,65
208,108,2600,2,0,L|235:31,1,65,8|0,0:0|0:0,0:0:0:0:
124,88,2840,2,0,L|116:7,1,65
336,192,3080,2,0,P|296:184|252:184,1,65,8|0,0:0|0:0,0:0:0:0:
152,212,3320,1,8,0:0:0:0:
240,280,3440,1,0,0:0:0:0:
112,336,3560,2,0,P|152:344|196:344,1,65,8|0,0:0|0:0,0:0:0:0:
316,256,3800,2,0,B|340:228|324:196|358:180,1,65,8|0,0:0|0:0,0:0:0:0:
360,144,4040,6,0,P|448:152|384:36,1,286.000008728028,8|0,0:0|0:0,0:0:0:0:
92,84,4760,2,0,L|112:164,1,71.5000021820069,8|8,0:0|0:0,0:0:0:0:
192,148,5000,2,0,B|224:68|304:104|304:104|360:52|360:52|387:81|424:84,1,286.000008728028
208,288,5720,2,0,L|292:256,1,71.5000021820069
152,236,5960,5,2,0:0:0:0:
136,296,6080,1,0,0:0:0:0:
92,344,6200,1,0,0:0:0:0:
32,360,6320,1,0,0:0:0:0:
136,296,6440,5,2,0:0:0:0:
196,324,6560,1,0,0:0:0:0:
256,328,6680,1,0,0:0:0:0:
320,312,6800,1,0,0:0:0:0:
212,208,6920,6,0,P|222:164|199:121,1,71.5000021820069,2|0,0:0|0:0,0:0:0:0:
68,184,7160,2,0,P|56:217|64:252,1,71.5000021820069,8|0,0:0|0:0,0:0:0:0:
340,100,7400,2,0,B|308:56|308:56|268:36,1,97.50000371933,2|0,0:0|0:0,0:0:0:0:
188,228,7640,2,0,B|216:272|216:272|260:292,1,97.50000371933,8|0,0:0|0:0,0:0:0:0:
328,200,7880,6,0,P|376:160|368:252,1,208,8|0,0:0|0:0,0:0:0:0:
224,152,8600,1,0,0:0:0:0:
160,76,8720,1,0,0:0:0:0:
120,168,8840,2,0,B|56:184|64:256|64:256|112:288|160:264,1,208,8|0,0:0|0:0,0:0:0:0:
296,88,9560,5,0,0:0:0:0:
312,100,9680,1,0,0:0:0:0:
328,112,9800,2,0,L|408:108,1,58.4999982147217,8|0,0:0|0:0,0:0:0:0:
236,172,10040,2,0,L|176:176,1,58.4999982147217
460,216,10280,2,0,P|472:264|468:288,1,65,2|0,0:0|0:0,0:0:0:0:
376,344,10520,2,0,P|360:304|368:272,1,65
328,112,10760,6,0,B|356:92|356:92|372:56,1,71.5000021820069,8|0,0:0|0:0,0:0:0:0:
264,36,11000,2,0,B|232:52|232:52|216:96,1,71.5000021820069
172,300,11240,2,0,P|176:256|152:200,1,77.999997619629,2|0,0:0|0:0,0:0:0:0:
76,180,11480,2,0,P|60:220|60:264,1,77.999997619629
236,268,11720,6,0,P|218:335|292:328,1,168.999992263794,6|0,0:0|0:0,0:0:0:0:
384,328,12080,1,0,0:0:0:0:
412,244,12200,2,0,B|432:212|432:212|420:152,1,84.4999961318971,8|0,0:0|0:0,0:0:0:0:
308,88,12440,2,0,B|288:122|288:122|296:166,1,84.4999961318971,8|0,0:0|0:0,0:0:0:0:
276,4,12680,5,8,0:0:0:0:
116,44,12800,1,0,0:0:0:0:
176,116,12920,2,0,P|180:180|192:212,1,84.4999961318971
300,236,13160,2,0,P|296:172|284:140,1,84.4999961318971,8|0,0:0|0:0,0:0:0:0:
364,12,13400,2,0,P|408:4|464:8,1,84.4999961318971
460,24,13640,6,0,P|484:60|388:168,1,168.999992263794,2|0,0:0|0:0,0:0:0:0:
352,84,14000,1,0,0:0:0:0:
180,76,14120,2,0,P|216:110|284:128,1,84.4999961318971,8|0,0:0|0:0,0:0:0:0:
320,300,14360,2,0,P|273:263|249:255,1,84.4999961318971,8|0,0:0|0:0,0:0:0:0:
104,152,14600,5,8,0:0:0:0:
152,264,14720,1,0,0:0:0:0:
224,104,14840,1,0,0:0:0:0:
272,176,14960,1,0,0:0:0:0:
88,196,15080,1,8,0:0:0:0:
160,56,15200,1,0,0:0:0:0:
240,264,15320,2,0,P|248:320|248:368,1,84.4999961318971
372,264,15560,6,0,L|408:296,2,42.2499980659486,2|0|0,0:0|0:0|0:0,0:0:0:0:
240,340,15800,1,0,0:0:0:0:
168,204,15920,1,0,0:0:0:0:
300,128,16040,1,12,0:0:0:0:
460,104,16280,1,8,0:0:0:0:
300,128,16520,6,2,L|324:60,2,42.2499980659486
168,204,16760,1,0,0:0:0:0:
240,340,16880,1,0,0:0:0:0:
372,264,17000,1,12,0:0:0:0:
496,288,17240,1,8,0:0:0:0:
240,340,17480,6,0,P|261:306|260:276,1,52,8|0,0:0|0:0,0:0:0:0:
348,300,17720,2,0,P|369:270|377:231,1,52
447,302,17960,2,0,P|479:298|507:274,1,52,8|0,0:0|0:0,0:0:0:0:
256,244,18200,1,0,0:0:0:0:
216,224,18320,1,0,0:0:0:0:
188,192,18440,1,8,0:0:0:0:
180,152,18560,5,0,0:0:0:0:
184,112,18680,1,8,0:0:0:0:
200,76,18800,1,0,0:0:0:0:
240,64,18920,2,0,L|336:56,1,65,8|0,0:0|0:0,0:0:0:0:
240,260,19400,5,8,0:0:0:0:
284,344,19520,1,0,0:0:0:0:
148,216,19640,1,8,0:0:0:0:
96,296,19760,1,0,0:0:0:0:
167,71,19880,2,0,P|184:104|184:160,1,84.4999961318971,8|0,0:0|0:0,0:0:0:0:
88,252,20120,2,0,P|72:216|72:168,1,84.4999961318971
320,112,20360,6,0,P|336:196|339:207,1,84.4999961318971,8|0,0:0|0:0,0:0:0:0:
356,320,20600,2,0,P|396:336|464:312,1,84.4999961318971
424,112,20840,2,0,P|464:120|504:172,1,84.4999961318971,8|0,0:0|0:0,0:0:0:0:
396,192,21080,6,0,L|376:288,1,84.4999961318971
360,304,21320,1,10,0:0:0:0:
344,124,21440,1,0,0:0:0:0:
268,180,21560,2,0,B|240:184|240:184|208:200|208:200|168:196|136:216|136:216|68:216,1,168.999992263794,0|8,0:0|0:0,0:0:0:0:
72,212,21920,1,0,0:0:0:0:
40,120,22040,1,8,0:0:0:0:
196,36,22160,1,8,0:0:0:0:
184,124,22280,1,0,0:0:0:0:
368,80,22400,1,0,0:0:0:0:
264,160,22520,6,0,L|252:268,1,84.4999961318971,8|0,0:0|0:0,0:0:0:0:
232,256,22760,2,0,P|248:308|360:236,1,168.999992263794,10|0,0:0|0:0,0:0:0:0:
436,36,23240,2,0,L|424:116,1,58.4999982147217,8|0,0:0|0:0,0:0:0:0:
272,128,23480,2,0,L|296:196,1,58.4999982147217,8|0,0:0|0:0,0:0:0:0:
400,288,23720,2,0,P|352:328|280:328,1,116.999996429443,8|0,0:0|0:0,0:0:0:0:
168,104,24200,5,2,0:0:0:0:
104,188,24320,1,0,0:0:0:0:
184,256,24440,1,2,0:0:0:0:
252,168,24560,1,0,0:0:0:0:
168,104,24680,1,2,0:0:0:0:
304,80,24920,5,0,0:0:0:0:
400,32,25040,1,0,0:0:0:0:
468,108,25160,2,0,B|468:160|476:200|476:200|444:280,1,168.999992263794,10|0,0:0|0:0,0:0:0:0:
296,280,25520,1,0,0:0:0:0:
232,144,25640,2,0,B|188:140|156:172|156:172|124:200|72:192,1,168.999992263794,10|0,0:0|0:0,0:0:0:0:
112,288,26000,1,0,0:0:0:0:
112,288,26120,6,0,L|132:340,1,38.9999988098145
176,224,26360,2,0,L|224:264,1,38.9999988098145
232,144,26600,2,0,L|296:160,1,38.9999988098145
256,52,26840,2,0,L|328:40,1,38.9999988098145
348,120,27080,6,0,P|400:136|424:240,1,168.999992263794,6|0,0:0|0:0,0:0:0:0:
348,204,27440,1,0,0:0:0:0:
340,296,27560,2,0,L|224:312,1,84.4999961318971
116,192,27800,2,0,L|232:176,1,84.4999961318971
156,72,28040,2,0,P|188:52|240:52,1,84.4999961318971,8|0,0:0|0:0,0:0:0:0:
400,120,28280,1,0,0:0:0:0:
228,184,28400,1,0,0:0:0:0:
164,308,28520,6,0,B|188:284|224:328|268:292,1,84.4999961318971,8|0,0:0|0:0,0:0:0:0:
356,320,28760,1,0,0:0:0:0:
315,239,28880,1,0,0:0:0:0:
248,128,29000,2,0,P|288:112|344:128,1,84.4999961318971,10|0,0:0|0:0,0:0:0:0:
397,217,29240,2,0,P|356:240|292:224,1,84.4999961318971
244,312,29480,5,8,0:0:0:0:
192,168,29600,1,0,0:0:0:0:
152,276,29720,1,0,0:0:0:0:
288,156,29840,1,0,0:0:0:0:
280,300,29960,2,0,B|304:292|348:284|348:284|380:324|436:320,1,168.999992263794,8|0,0:0|0:0,0:0:0:0:
420,236,30320,1,0,0:0:0:0:
504,244,30440,2,0,P|472:168|356:172,1,168.999992263794,8|0,0:0|0:0,0:0:0:0:
292,240,30920,6,0,L|300:292,2,42.2499980659486,2|0|0,0:0|0:0|0:0,0:0:0:0:
192,176,31160,1,0,0:0:0:0:
284,76,31280,1,0,0:0:0:0:
360,200,31400,2,0,P|384:240|336:364,1,168.999992263794,8|0,0:0|0:0,0:0:0:0:
192,176,31880,6,0,L|172:216,2,42.2499980659486,2|0|0,0:0|0:0|0:0,0:0:0:0:
300,96,32120,1,0,0:0:0:0:
180,56,32240,1,0,0:0:0:0:
380,56,32360,2,0,P|396:116|320:204,1,168.999992263794,8|0,0:0|0:0,0:0:0:0:
156,212,32840,6,0,L|92:232,2,52,2|0|0,0:0|0:0|0:0,0:0:0:0:
216,140,33200,2,0,L|280:120,2,52,2|0|0,0:0|0:0|0:0,0:0:0:0:
244,216,33560,2,0,L|264:280,2,52,2|0|0,0:0|0:0|0:0,0:0:0:0:
156,212,33920,1,2,0:0:0:0:
88,160,34040,2,0,L|56:72,1,52
244,216,34280,2,0,P|296:224|360:192,1,104,2|8,0:0|0:0,0:0:0:0:
288,144,34760,5,12,0:0:0:0:
396,92,34880,1,0,0:0:0:0:
372,216,35000,2,0,L|396:332,2,84.4999961318971,0|0|2,0:0|0:0|0:0,0:0:0:0:
288,144,35360,1,0,0:0:0:0:
212,116,35480,1,0,0:0:0:0:
132,128,35600,1,0,0:0:0:0:
64,172,35720,6,0,B|52:208|56:228|56:228|48:248|68:264|68:264|80:280|64:304|92:340,1,168.999992263794,2|2,0:0|0:0,0:0:0:0:
184,284,36080,1,0,0:0:0:0:
188,108,36200,2,0,P|188:148|212:200,1,84.4999961318971,8|0,0:0|0:0,0:0:0:0:
280,28,36440,2,0,P|288:72|276:128,1,84.4999961318971
296,220,36680,6,0,P|372:212|432:300,1,168.999992263794,8|0,0:0|0:0,0:0:0:0:
344,296,37040,1,0,0:0:0:0:
296,220,37160,2,0,L|184:240,1,84.4999961318971,8|0,0:0|0:0,0:0:0:0:
356,120,37400,2,0,L|448:104,1,84.4999961318971
212,234,37640,2,0,B|140:226|140:226|148:166|116:130,1,168.999992263794,2|8,0:0|0:0,0:0:0:0:
264,124,38000,1,0,0:0:0:0:
316,8,38120,2,0,B|388:16|388:16|380:76|412:112,1,168.999992263794,2|0,0:0|0:0,0:0:0:0:
424,188,38600,5,0,0:0:0:0:
440,228,38720,1,0,0:0:0:0:
440,268,38840,1,0,0:0:0:0:
420,304,38960,1,0,0:0:0:0:
388,324,39080,2,0,P|348:336|292:324,1,77.999997619629,2|0,0:0|0:0,0:0:0:0:
108,104,39560,5,0,0:0:0:0:
144,88,39680,1,0,0:0:0:0:
184,84,39800,1,0,0:0:0:0:
224,96,39920,1,0,0:0:0:0:
260,116,40040,2,0,P|300:120|356:88,1,77.999997619629,2|0,0:0|0:0,0:0:0:0:
204,352,40520,5,8,0:0:0:0:
296,176,40640,1,0,0:0:0:0:
320,344,40760,1,8,0:0:0:0:
216,188,40880,1,0,0:0:0:0:
140,312,41000,1,8,0:0:0:0:
200,116,41120,1,0,0:0:0:0:
396,300,41240,1,8,0:0:0:0:
336,92,41360,1,0,0:0:0:0:
348,112,41480,6,14,B|360:156|360:156|336:208|336:208|344:248,1,130
312,272,41840,1,0,0:0:0:0:
232,316,41960,1,0,0:0:0:0:
136,292,42080,1,0,0:0:0:0:
92,208,42200,1,0,0:0:0:0:
104,120,42320,1,0,0:0:0:0:
168,60,42440,6,0,P|204:52|244:56,1,65,4|0,0:0|0:0,0:0:0:0:
296,132,42800,1,0,0:0:0:0:
200,212,42920,2,0,L|216:284,1,65,8|0,0:0|0:0,0:0:0:0:
348,252,43400,2,0,L|372:328,1,65,8|0,0:0|0:0,0:0:0:0:
472,136,43880,6,0,L|456:208,1,65,8|0,0:0|0:0,0:0:0:0:
303,90,44360,2,0,P|267:78|227:90,1,65,8|0,0:0|0:0,0:0:0:0:
187,106,44720,1,0,0:0:0:0:
147,146,44840,1,8,0:0:0:0:
304,188,45080,5,0,0:0:0:0:
320,220,45200,1,0,0:0:0:0:
332,248,45320,1,0,0:0:0:0:
120,328,45560,1,0,0:0:0:0:
152,336,45680,1,0,0:0:0:0:
192,316,45800,1,0,0:0:0:0:
244,320,45920,1,0,0:0:0:0:
76,228,46040,2,0,P|108:212|148:216,1,65,0|8,0:0|0:0,0:0:0:0:
256,200,46520,6,0,L|236:140,1,32.5
368,128,46760,2,0,L|388:68,2,32.5,8|0|0,0:0|0:0|0:0,0:0:0:0:
364,232,47120,1,0,0:0:0:0:
296,316,47240,2,0,L|316:352,3,32.5,8|0|0|0,0:0|0:0|0:0|0:0,0:0:0:0:
376,216,47720,2,0,L|356:180,3,32.5,8|0|0|0,0:0|0:0|0:0|0:0,0:0:0:0:
380,72,48200,6,0,P|308:56|248:92,1,130,8|8,0:0|0:0,0:0:0:0:
324,168,48920,1,0,0:0:0:0:
388,260,49160,2,0,P|329:284|267:267,1,130,8|8,0:0|0:0,0:0:0:0:
120,136,50120,5,10,0:0:0:0:
208,228,50360,2,0,L|224:304,1,65,0|10,0:0|0:0,0:0:0:0:
344,108,50840,2,0,L|336:180,1,65,0|10,0:0|0:0,0:0:0:0:
432,312,51320,2,0,L|420:260,1,32.5
440,248,51560,1,10,0:0:0:0:
452,216,51680,1,0,0:0:0:0:
452,184,51800,1,0,0:0:0:0:
436,156,51920,1,0,0:0:0:0:
404,128,52040,6,0,P|332:112|276:156,1,130,10|10,0:0|0:0,0:0:0:0:
256,28,52760,1,0,0:0:0:0:
232,60,52880,1,0,0:0:0:0:
196,84,53000,2,0,L|128:96,1,65,10|10,0:0|0:0,0:0:0:0:
160,324,53480,1,8,0:0:0:0:
108,176,53600,1,0,0:0:0:0:
64,272,53720,1,8,0:0:0:0:
200,216,53840,1,0,0:0:0:0:
272,104,53960,6,0,L|280:172,1,65,2|0,0:0|0:0,0:0:0:0:
380,164,54320,1,0,0:0:0:0:
380,164,54440,2,0,L|372:236,1,65,8|0,0:0|0:0,0:0:0:0:
444,328,54800,1,0,0:0:0:0:
444,328,54920,6,0,P|404:332|368:324,1,65,2|0,0:0|0:0,0:0:0:0:
176,96,55280,1,0,0:0:0:0:
176,96,55400,2,0,P|136:92|104:100,1,65,8|0,0:0|0:0,0:0:0:0:
208,292,55760,1,0,0:0:0:0:
272,132,55880,1,14,0:0:0:0:
272,132,56120,2,0,L|288:200,1,65,2|8,0:0|0:0,0:0:0:0:
384,308,56360,2,0,L|398:244,1,65,2|8,0:0|0:0,0:0:0:0:
176,244,56600,2,0,L|192:312,1,65,2|8,0:0|0:0,0:0:0:0:
284,304,56840,6,0,B|264:216|352:144|324:52,1,260,14|0,0:0|0:0,0:0:0:0:
120,104,58040,5,0,0:0:0:0:
148,128,58160,1,0,0:0:0:0:
184,144,58280,2,0,P|224:184|308:168,1,130
400,100,58760,1,0,0:0:0:0:
400,100,59000,2,0,L|396:240,1,130
132,300,59480,2,0,B|168:304|200:312|200:312|225:299|272:288,1,130
56,76,59960,5,0,0:0:0:0:
144,132,60080,1,0,0:0:0:0:
220,72,60200,2,0,P|236:140|208:204,1,130
296,296,60680,2,0,P|328:292|436:304,1,130
432,304,61040,1,0,0:0:0:0:
440,308,61160,1,0,0:0:0:0:
396,92,61400,2,0,B|372:148|372:148|380:220,1,130
116,344,61880,5,0,0:0:0:0:
184,308,62000,1,0,0:0:0:0:
260,324,62120,2,0,P|312:340|372:320,1,97.5
384,312,62360,2,0,P|384:260|420:204,1,97.5
484,184,62600,2,0,L|506:106,3,65
420,112,63080,2,0,L|416:40,3,65
308,104,63560,6,0,P|240:136|184:112,1,130
56,64,64040,1,0,0:0:0:0:
96,196,64280,1,0,0:0:0:0:
208,212,64520,2,0,B|216:256|208:304|208:304|220:348,1,130
356,168,65000,1,0,0:0:0:0:
320,288,65240,1,0,0:0:0:0:
108,124,65480,6,0,P|152:80|232:96,1,130
228,208,66200,1,8,0:0:0:0:
296,324,66440,2,0,L|280:360,3,32.5,2|0|0|0,0:0|0:0|0:0|0:0,0:0:0:0:
304,220,66920,2,0,L|316:184,3,32.5,2|0|0|0,0:0|0:0|0:0|0:0,0:0:0:0:
408,256,67400,6,0,P|452:220|464:144,1,130,2|2,0:0|0:0,0:0:0:0:
376,96,68120,2,0,L|340:100,1,32.5
320,84,68360,2,0,P|292:112|200:100,1,130,10|2,0:0|0:0,0:0:0:0:
120,156,69080,5,0,0:0:0:0:
160,228,69200,1,0,0:0:0:0:
244,252,69320,2,0,P|288:256|332:244,1,77.999997619629,10|0,0:0|0:0,0:0:0:0:
244,252,69800,2,0,P|296:248|344:216,1,90.9999972229005,10|0,0:0|0:0,0:0:0:0:
244,252,70280,2,0,P|296:228|336:172,1,104,10|0,0:0|0:0,0:0:0:0:
244,252,70760,2,0,P|288:208|312:148,1,116.999996429443,10|0,0:0|0:0,0:0:0:0:
376,92,71120,1,8,0:0:0:0:
440,232,71240,6,0,P|444:264|428:300,1,65,14|0,0:0|0:0,0:0:0:0:
304,140,71480,2,0,P|304:176|316:208,1,65
100,52,71720,2,0,L|88:120,1,65,2|0,0:0|0:0,0:0:0:0:
188,240,71960,2,0,L|200:308,1,65
196,96,72200,6,0,P|232:84|268:88,1,65,10|0,0:0|0:0,0:0:0:0:
344,116,72560,1,8,0:0:0:0:
344,116,72680,2,0,B|348:176|376:220|376:220|368:288|392:344,1,227.500002169609,12|0,0:0|0:0,0:0:0:0:
72,108,73160,6,0,B|168:40|216:178|316:96,1,260,8|0,0:0|0:0,0:0:0:0:
144,184,73880,1,2,0:0:0:0:
60,224,74120,2,0,P|104:268|172:276,1,130,8|2,0:0|0:0,0:0:0:0:
236,140,74600,2,0,P|192:96|124:88,1,130,8|2,0:0|0:0,0:0:0:0:
144,184,75080,1,0,0:0:0:0:
284,248,75320,6,0,B|316:240|348:256|348:256|380:268|424:256,2,130
320,128,76040,2,0,P|288:136|260:152,1,65,8|0,0:0|0:0,0:0:0:0:
112,196,76280,2,0,P|144:200|174:215,1,65,2|0,0:0|0:0,0:0:0:0:
400,276,76520,5,2,0:0:0:0:
244,140,76640,1,0,0:0:0:0:
224,348,76760,1,8,0:0:0:0:
384,132,76880,1,0,0:0:0:0:
72,76,77000,2,0,P|128:84|148:212,1,195.00000743866,12|0,0:0|0:0,0:0:0:0:
188,240,77600,2,0,L|252:216,1,48.750001859665
360,96,77960,6,0,P|380:136|348:208,1,97.50000371933,8|0,0:0|0:0,0:0:0:0:
196,184,78440,2,0,P|176:224|208:296,1,97.50000371933,8|0,0:0|0:0,0:0:0:0:
288,140,78920,2,0,P|392:160|448:80,1,195.00000743866,8|0,0:0|0:0,0:0:0:0:
464,116,79520,2,0,L|472:172,1,48.750001859665
300,320,79880,6,0,P|232:336|164:284,1,146.250005578995,8|0,0:0|0:0,0:0:0:0:
252,244,80360,2,0,P|212:204|104:224,1,146.250005578995,8|0,0:0|0:0,0:0:0:0:
328,168,80840,2,0,B|359:211|359:211|363:270,1,97.50000371933,10|0,0:0|0:0,0:0:0:0:
244,112,81320,2,0,B|212:64|212:64|209:10,1,97.50000371933
256,244,81800,6,0,P|300:296|376:304,1,146.250005578995,10|0,0:0|0:0,0:0:0:0:
384,156,82280,2,0,P|340:104|264:96,1,146.250005578995,10|0,0:0|0:0,0:0:0:0:
140,76,82760,2,0,P|112:116|116:172,1,97.50000371933,8|0,0:0|0:0,0:0:0:0:
228,288,83120,2,0,P|256:248|252:192,1,97.50000371933,8|0,0:0|0:0,0:0:0:0:
476,68,83480,1,2,0:0:0:0:
312,24,83720,1,0,0:0:0:0:
152,40,83960,6,0,L|177:127,1,48.750001859665
224,156,84200,1,2,0:0:0:0:
344,60,84440,6,0,L|319:147,1,48.750001859665
194,234,84680,2,0,B|245:256|272:292|272:292|328:296|379:325,1,195.00000743866,2|0,0:0|0:0,0:0:0:0:
152,144,85280,2,0,L|156:81,1,48.750001859665
168,68,85520,1,0,0:0:0:0:
316,96,85640,6,0,P|359:130|416:132,1,97.50000371933,8|0,0:0|0:0,0:0:0:0:
388,40,86000,1,0,0:0:0:0:
400,252,86120,2,0,B|456:240|456:240|500:212,1,97.50000371933,2|0,0:0|0:0,0:0:0:0:
148,332,86600,2,0,P|104:356|48:344,1,97.50000371933
96,24,86960,2,0,P|96:52|104:88,1,48.750001859665
156,136,87200,5,0,0:0:0:0:
180,272,87320,1,2,0:0:0:0:
352,208,87440,1,0,0:0:0:0:
296,344,87560,2,0,P|344:348|406:333,1,97.50000371933,8|0,0:0|0:0,0:0:0:0:
192,132,88040,2,0,P|144:132|82:143,1,97.50000371933
335,78,88520,5,2,0:0:0:0:
348,89,88580,1,0,0:0:0:0:
363,102,88640,2,0,L|379:253,1,146.250005578995
111,81,89240,1,0,0:0:0:0:
102,247,89480,5,2,0:0:0:0:
130,261,89540,1,0,0:0:0:0:
164,280,89600,2,0,L|224:297,1,48.750001859665
376,56,89960,1,2,0:0:0:0:
416,80,90020,1,0,0:0:0:0:
452,120,90080,2,0,L|472:180,1,48.750001859665
408,336,90440,1,2,0:0:0:0:
348,312,90500,1,0,0:0:0:0:
312,260,90560,2,0,L|296:212,1,48.750001859665
104,136,90920,5,2,0:0:0:0:
172,96,90980,1,0,0:0:0:0:
248,112,91040,2,0,L|232:168,1,48.750001859665
464,172,91400,1,2,0:0:0:0:
456,268,91460,1,0,0:0:0:0:
376,308,91520,2,0,L|328:328,1,48.750001859665
104,204,91880,5,8,0:0:0:0:
124,300,92000,1,0,0:0:0:0:
256,108,92120,1,2,0:0:0:0:
244,204,92240,1,0,0:0:0:0:
68,92,92360,2,0,P|212:56|244:208,1,292.50001115799,6|0,0:0|0:0,0:0:0:0:
392,120,93320,2,0,P|404:176|384:232,1,97.50000371933,2|0,0:0|0:0,0:0:0:0:
320,280,93680,2,0,P|320:308|327:342,1,48.750001859665,0|10,0:0|0:0,0:0:0:0:
200,92,94040,2,0,P|152:112|92:88,1,97.50000371933,0|10,0:0|0:0,0:0:0:0:
324,148,94520,5,0,0:0:0:0:
376,136,94640,1,0,0:0:0:0:
424,160,94760,1,0,0:0:0:0:
460,204,94880,2,0,P|460:236|456:257,1,48.750001859665
288,260,95240,2,0,P|248:292|188:312,1,97.50000371933,2|8,0:0|0:0,0:0:0:0:
44,204,95720,2,0,P|84:172|144:152,1,97.50000371933,2|8,0:0|0:0,0:0:0:0:
320,100,96080,2,2,L|348:124,1,24.3750009298325
344,136,96200,2,0,P|340:208|320:180,1,195.00000743866,10|8,0:0|0:0,0:0:0:0:
80,60,96920,5,0,0:0:0:0:
168,104,97040,1,0,0:0:0:0:
220,184,97160,2,0,P|220:236|248:288,1,97.50000371933,2|0,0:0|0:0,0:0:0:0:
392,152,97640,2,0,P|392:100|364:48,1,97.50000371933,2|0,0:0|0:0,0:0:0:0:
128,160,98000,1,8,0:0:0:0:
128,160,98060,1,0,0:0:0:0:
128,160,98120,2,0,L|136:264,1,97.50000371933,2|8,0:0|0:0,0:0:0:0:
288,352,98600,2,0,L|280:248,1,97.50000371933,2|8,0:0|0:0,0:0:0:0:
404,36,99080,6,0,L|396:100,1,48.750001859665
412,112,99320,1,8,0:0:0:0:
260,168,99560,2,0,L|264:104,1,48.750001859665
236,88,99800,1,8,0:0:0:0:
64,272,100040,6,0,P|100:252|152:264,1,97.50000371933
244,328,100520,1,0,0:0:0:0:
212,208,100640,1,0,0:0:0:0:
348,380,100760,1,0,0:0:0:0:
408,220,100880,1,0,0:0:0:0:
388,144,101000,6,0,L|376:208,1,48.750001859665,10|0,0:0|0:0,0:0:0:0:
212,264,101480,2,0,L|228:328,1,48.750001859665,8|0,0:0|0:0,0:0:0:0:
156,116,101960,6,0,L|144:60,1,48.750001859665,10|0,0:0|0:0,0:0:0:0:
168,28,102200,1,0,0:0:0:0:
412,240,102440,2,0,L|404:192,1,48.750001859665,10|0,0:0|0:0,0:0:0:0:
372,164,102680,1,0,0:0:0:0:
72,196,102920,2,0,L|88:252,1,48.750001859665,10|0,0:0|0:0,0:0:0:0:
116,272,103160,1,0,0:0:0:0:
392,352,103400,2,0,L|376:300,1,48.750001859665,10|0,0:0|0:0,0:0:0:0:
352,272,103640,1,0,0:0:0:0:
124,104,103880,6,0,P|168:80|232:96,1,97.50000371933,8|0,0:0|0:0,0:0:0:0:
376,144,104240,1,0,0:0:0:0:
376,144,104360,2,0,B|380:176|380:176|364:208|360:252,1,97.50000371933,2|0,0:0|0:0,0:0:0:0:
104,180,104840,2,0,B|96:160|80:140|80:140|84:120|84:72,1,97.50000371933,8|0,0:0|0:0,0:0:0:0:
216,248,105320,1,2,0:0:0:0:
296,148,105560,1,0,0:0:0:0:
92,220,105800,2,0,L|32:216,1,58.5,6|0,0:0|0:0,0:0:0:0:
88,80,107000,6,0,P|132:52|232:68,1,113.750001084805,6|2,0:0|0:0,0:0:0:0:
432,176,107240,2,0,P|380:200|292:204,1,113.750001084805,6|2,0:0|0:0,0:0:0:0:
120,260,107480,2,0,P|152:232|120:284,1,178.750001704693,14|0,0:0|0:0,0:0:0:0:
292,312,107720,5,8,0:0:0:0:
344,120,107840,1,0,0:0:0:0:
396,352,107960,1,0,0:0:0:0:
224,120,108080,1,0,0:0:0:0:
456,240,108200,1,8,0:0:0:0:
176,268,108320,1,0,0:0:0:0:
420,28,108440,1,0,0:0:0:0:
268,332,108560,1,0,0:0:0:0:
64,80,108680,6,0,P|120:80|160:52,1,77.999997619629,8|0,0:0|0:0,0:0:0:0:
196,344,108920,2,0,L|212:236,1,77.999997619629
280,60,109160,2,0,L|288:156,1,77.999997619629,8|0,0:0|0:0,0:0:0:0:
448,268,109400,2,0,P|424:320|436:356,1,77.999997619629
112,268,109640,5,8,0:0:0:0:
116,276,109760,1,0,0:0:0:0:
236,96,109880,1,0,0:0:0:0:
260,280,110000,1,0,0:0:0:0:
360,120,110120,1,8,0:0:0:0:
364,128,110240,1,0,0:0:0:0:
104,160,110360,1,0,0:0:0:0:
176,368,110480,1,0,0:0:0:0:
336,304,110600,6,0,P|368:320|432:316,2,77.999997619629,8|0|0,0:0|0:0|0:0,0:0:0:0:
72,52,110960,2,0,L|80:148,1,77.999997619629,0|8,0:0|0:0,0:0:0:0:
264,144,111200,2,0,P|301:137|360:140,2,77.999997619629
92,184,111560,5,8,0:0:0:0:
152,320,111680,1,0,0:0:0:0:
216,184,111800,1,0,0:0:0:0:
152,320,111920,1,0,0:0:0:0:
64,140,112040,1,8,0:0:0:0:
152,320,112160,1,0,0:0:0:0:
240,140,112280,1,0,0:0:0:0:
152,320,112400,1,0,0:0:0:0:
144,316,112520,6,0,P|192:340|268:328,1,104,8|0,0:0|0:0,0:0:0:0:
337,162,112760,2,0,P|289:138|213:150,1,104
156,40,113000,2,0,L|172:184,1,104,8|0,0:0|0:0,0:0:0:0:
320,352,113240,2,0,L|328:212,1,104
120,344,113480,5,8,0:0:0:0:
272,324,113600,1,0,0:0:0:0:
176,228,113720,5,0,0:0:0:0:
348,192,113840,1,0,0:0:0:0:
60,136,113960,5,8,0:0:0:0:
284,116,114080,1,0,0:0:0:0:
176,24,114200,5,0,0:0:0:0:
408,16,114320,1,0,0:0:0:0:
368,280,114440,6,0,B|320:288|320:288|268:276,1,84.4999961318971,8|0,0:0|0:0,0:0:0:0:
220,204,114680,1,2,0:0:0:0:
112,184,114800,1,0,0:0:0:0:
164,64,114920,2,0,L|172:164,1,84.4999961318971,8|0,0:0|0:0,0:0:0:0:
296,60,115160,1,2,0:0:0:0:
400,104,115280,1,0,0:0:0:0:
492,68,115400,6,0,L|512:136,1,65,6|0,0:0|0:0,0:0:0:0:
340,288,115640,2,0,L|320:220,1,65,8|0,0:0|0:0,0:0:0:0:
88,120,115880,2,0,B|128:108|128:108|168:112,1,65,10|0,0:0|0:0,0:0:0:0:
340,288,116120,2,0,P|304:296|260:280,1,65,2|0,0:0|0:0,0:0:0:0:
424,88,116364,6,0,P|364:80|300:124,1,130,2|8,0:0|0:0,0:0:0:0:
160,248,116909,2,0,P|192:268|224:272,1,65,2|8,0:0|0:0,0:0:0:0:
280,384,117454,2,0,P|336:336|332:228,1,181.999994445801,14|0,0:0|0:0,0:0:0:0:
228,148,118303,1,0,0:0:0:0:
84,160,118586,2,0,L|100:260,1,90.9999972229005,8|0,0:0|0:0,0:0:0:0:
216,264,119152,2,0,L|200:160,1,90.9999972229005,8|0,0:0|0:0,0:0:0:0:
344,232,119718,6,2,L|372:244,2,22.7499993057251
306,140,120001,1,0,0:0:0:0:
233,245,120142,1,0,0:0:0:0:
189,139,120284,2,0,P|159:102|163:49,1,90.9999972229005,8|0,0:0|0:0,0:0:0:0:
368,92,120850,6,2,L|384:120,2,22.7499993057251
256,128,121133,1,0,0:0:0:0:
144,92,121416,2,2,L|128:120,2,22.7499993057251
256,128,121699,1,0,0:0:0:0:
368,92,121982,2,0,B|376:132|376:132|364:176,1,68.2499979171754,8|0,0:0|0:0,0:0:0:0:
280,248,122265,1,0,0:0:0:0:
252,68,122406,1,0,0:0:0:0:
232,324,122548,2,0,P|200:292|184:228,1,90.9999972229005,2|0,0:0|0:0,0:0:0:0:
140,88,123114,6,0,P|176:80|280:136,1,159.249995140076,8|0,0:0|0:0,0:0:0:0:
336,220,123680,2,0,P|404:212|368:248,1,159.249995140076,8|0,0:0|0:0,0:0:0:0:
76,176,124246,2,0,P|88:224|124:260,1,90.9999972229005,6|0,0:0|0:0,0:0:0:0:
176,188,124670,1,0,0:0:0:0:
308,264,124812,2,0,L|312:320,1,45.4999986114502
404,192,125095,2,0,L|400:136,1,45.4999986114502
148,48,125378,5,0,0:0:0:0:
248,104,125661,2,0,L|264:196,1,90.9999972229005,2|0,0:0|0:0,0:0:0:0:
408,364,126227,2,0,P|424:321|420:276,1,90.9999972229005,2|0,0:0|0:0,0:0:0:0:
328,40,126793,2,0,L|388:44,1,45.4999986114502,8|0,0:0|0:0,0:0:0:0:
172,252,127076,2,0,L|112:248,1,45.4999986114502,8|0,0:0|0:0,0:0:0:0:
260,116,127359,2,0,P|256:156|272:212,1,90.9999972229005,2|0,0:0|0:0,0:0:0:0:
459,360,127925,6,0,P|471:317|468:272,1,90.9999972229005
104,96,128491,2,0,P|140:80|184:80,1,68.2499979171754
184,88,128774,2,0,L|200:196,1,90.9999972229005
284,240,129199,1,0,0:0:0:0:
340,160,129340,2,0,L|392:192,1,45.4999986114502
236,336,129623,2,0,L|180:304,1,45.4999986114502
212,76,129906,22,0,L|316:52,1,90.9999972229005,2|0,0:0|0:0,0:0:0:0:
388,156,130472,2,0,L|292:176,1,90.9999972229005
180,172,131038,1,10,0:0:0:0:
304,304,131321,2,0,L|296:244,1,45.4999986114502,8|0,0:0|0:0,0:0:0:0:
408,144,131604,2,0,L|416:204,1,45.4999986114502,8|0,0:0|0:0,0:0:0:0:
180,172,131887,1,8,0:0:0:0:
372,204,132170,5,2,0:0:0:0:
360,228,132312,1,0,0:0:0:0:
352,248,132454,1,0,0:0:0:0:
248,64,132737,1,2,0:0:0:0:
272,108,132878,1,0,0:0:0:0:
276,160,133020,1,0,0:0:0:0:
124,248,133303,6,0,P|160:240|188:250,1,65,2|0,0:0|0:0,0:0:0:0:
316,364,133586,2,0,P|284:368|243:360,1,65
220,144,133869,2,0,L|155:146,1,65,2|0,0:0|0:0,0:0:0:0:
280,256,134152,2,0,L|352:252,1,65
376,72,134435,5,2,0:0:0:0:
312,236,134576,1,0,0:0:0:0:
424,188,134718,1,0,0:0:0:0:
268,112,134859,1,0,0:0:0:0:
232,208,135001,2,0,P|228:272|288:332,1,136.499995834351,2|0,0:0|0:0,0:0:0:0:
396,276,135284,2,0,P|400:212|340:152,1,136.499995834351,2|0,0:0|0:0,0:0:0:0:
224,200,135567,1,0,0:0:0:0:
224,200,135637,1,0,0:0:0:0:
224,200,135708,6,0,P|104:216|160:324,1,272.999991668701,14|0,0:0|0:0,0:0:0:0:
336,316,136699,2,0,P|372:316|392:304,1,45.4999986114502,8|0,0:0|0:0,0:0:0:0:
428,176,136982,2,0,P|404:176|384:188,1,45.4999986114502
192,16,137265,6,0,L|236:32,1,45.4999986114502,8|0,0:0|0:0,0:0:0:0:
260,168,137548,2,0,L|217:152,1,45.4999986114502
152,236,137831,2,0,L|144:264,2,22.7499993057251,6|0|0,0:0|0:0|0:0,0:0:0:0:
80,136,138114,1,0,0:0:0:0:
188,56,138255,1,0,0:0:0:0:
144,264,138397,2,0,L|132:320,1,45.4999986114502,8|0,0:0|0:0,0:0:0:0:
244,304,138680,2,0,L|253:348,1,45.4999986114502,8|0,0:0|0:0,0:0:0:0:
424,92,138963,6,0,P|360:72|276:120,1,159.249995140076,2|0,0:0|0:0,0:0:0:0:
96,196,139529,2,0,B|84:220|84:220|156:204|236:224,1,159.249995140076
324,228,140095,2,0,L|364:236,1,38.9999988098145,8|0,0:0|0:0,0:0:0:0:
432,292,140520,1,0,0:0:0:0:
196,136,140661,2,0,L|192:112,1,19.4999994049072
316,160,140944,2,0,L|319:179,1,19.4999994049072
96,264,141227,6,0,B|84:284|84:284|144:312|220:268,1,159.249995140076,2|0,0:0|0:0,0:0:0:0:
296,144,141793,2,0,B|276:169|276:169|320:209|336:296,1,159.249995140076,2|0,0:0|0:0,0:0:0:0:
136,112,142359,2,0,L|176:104,1,38.9999988098145,14|0,0:0|0:0,0:0:0:0:
56,188,142784,1,0,0:0:0:0:
128,288,142925,2,0,L|152:296,1,19.4999994049072,8|0,0:0|0:0,0:0:0:0:
284,272,143208,2,0,L|260:264,1,19.4999994049072,8|0,0:0|0:0,0:0:0:0:
116,56,143491,6,0,P|104:120|172:176,1,159.249995140076,2|0,0:0|0:0,0:0:0:0:
268,212,144057,2,0,P|280:148|212:92,1,159.249995140076,2|0,0:0|0:0,0:0:0:0:
340,48,144623,2,0,B|384:44|384:44|424:72,1,90.9999972229005,8|0,0:0|0:0,0:0:0:0:
444,260,145189,2,0,B|400:264|400:264|360:236,1,90.9999972229005
88,288,145755,2,0,B|120:312|120:312|204:288|204:288|236:304,1,159.249995140076,8|0,0:0|0:0,0:0:0:0:
248,224,146321,2,0,B|216:200|216:200|132:224|132:224|100:208,1,159.249995140076
304,152,146887,6,0,B|276:112|276:112|336:132|400:88,1,159.249995140076
396,216,147454,2,0,P|324:244|232:228,1,159.249995140076
92,80,148020,2,0,P|92:128|116:176,1,90.9999972229005,2|0,0:0|0:0,0:0:0:0:
308,208,148586,2,0,B|263:186|218:213|218:213|219:158|182:121,1,195
256,192,149239,12,8,151313,0:0:0:0:
360,188,151552,5,6,0:0:0:0:
344,284,151696,1,0,0:0:0:0:
240,96,151826,2,0,L|248:208,1,81.25,8|0,0:0|0:0,0:0:0:0:
224,200,152087,1,8,0:0:0:0:
200,224,152218,1,0,0:0:0:0:
372,88,152348,6,0,P|420:76|472:88,1,81.25,8|0,0:0|0:0,0:0:0:0:
444,180,152609,1,8,0:0:0:0:
352,244,152739,1,0,0:0:0:0:
228,120,153131,2,0,P|200:96|240:120,1,195.00000743866,14|0,0:0|0:0,0:0:0:0:
