osu file format v14

[General]
AudioFilename: audio.mp3
AudioLeadIn: 0
PreviewTime: 94519
Countdown: 1
SampleSet: None
StackLeniency: 0.7
Mode: 0
LetterboxInBreaks: 0
WidescreenStoryboard: 0

[Editor]
Bookmarks: 7154,13640,20126,36343,63100,68776,81749,94722
DistanceSpacing: 1.2
BeatDivisor: 4
GridSize: 32
TimelineZoom: 2.4

[Metadata]
Title:Our Dance Number
TitleUnicode:Our Dance Number
Artist:
ArtistUnicode:
Creator:Justus
Version:Speed Number
Source:
Tags:
BeatmapID:1190850
BeatmapSetID:563154

[Difficulty]
HPDrainRate:0
CircleSize:4.2
OverallDifficulty:8
ApproachRate:10
SliderMultiplier:2
SliderTickRate:1

[Events]
//Background and Video events
0,0,"rock_and_roll_by_gabo_garabo.jpg",0,0
//Break Periods
2,13637,19518
2,63299,68325
//Storyboard Layer 0 (Background)
//Storyboard Layer 1 (Fail)
//Storyboard Layer 2 (Pass)
//Storyboard Layer 3 (Foreground)
//Storyboard Sound Samples

[TimingPoints]
668,202.702702702703,3,3,0,100,1,0
870,-142.857142857143,3,3,0,100,0,0
3911,202.702702702703,3,3,0,100,1,0
3911,-117.647058823529,3,3,0,100,0,0
7154,202.702702702703,3,3,0,100,1,0
7154,-83.3333333333333,3,3,0,100,0,0
10397,202.702702702703,3,3,0,100,1,0
10397,-100,3,3,0,100,0,0
13640,202.702702702703,4,3,0,100,1,0
20126,-133.333333333333,4,3,0,100,0,0
30667,-117.647058823529,4,3,0,100,0,0
31477,-105.263157894737,4,3,0,100,0,0
32491,-100,4,3,0,100,0,0
36342,-100,4,3,0,100,0,0
46072,-133.333333333333,4,3,0,100,0,0
49315,-90.9090909090909,4,3,0,100,0,0
52558,-90.9090909090909,4,3,0,100,0,0
53369,-86.9565217391304,4,3,0,100,0,0
54180,-90.9090909090909,4,3,0,100,0,0
55802,-133.333333333333,4,3,0,100,0,0
59045,-100,4,3,0,100,0,0
81748,-90.9090909090909,4,3,0,100,0,0
84991,-100,4,3,0,100,0,0
85396,-90.9090909090909,4,3,0,100,0,0
85802,-83.3333333333333,4,3,0,100,0,0
86612,-100,4,3,0,100,0,0
88234,-90.9090909090909,4,3,0,100,0,0
93099,-90.9090909090909,4,3,0,100,0,0
93403,-83.3333333333333,4,3,0,100,0,0
93707,-76.9230769230769,4,3,0,100,0,0
94722,-100,4,1,0,100,0,0
97965,-153.846153846153,4,1,0,100,0,0
98776,-200,4,1,0,100,0,0
99586,-100,4,1,0,100,0,0
100093,-100,4,1,0,5,0,0
100195,-100,4,1,0,100,0,0
101005,-100,4,3,0,100,0,0
104451,-90.9090909090909,4,3,0,100,0,0
106073,-83.3333333333333,4,3,0,100,0,0
107695,-83.3333333333333,4,3,0,100,0,0
114181,-133.333333333333,4,3,0,100,0,0
114992,-111.111111111111,4,3,0,100,0,0
115803,-83.3333333333333,4,3,0,100,0,0
117424,-100,4,3,0,100,0,0
120667,-200,4,3,0,100,0,0

[HitObjects]
352,91,668,5,0,0:0:0:0:
348,116,870,1,0,0:0:0:0:
343,136,972,1,0,0:0:0:0:
339,156,1073,1,0,0:0:0:0:
139,147,1276,5,0,0:0:0:0:
159,162,1478,1,0,0:0:0:0:
174,176,1580,1,0,0:0:0:0:
190,188,1681,1,0,0:0:0:0:
421,257,1884,5,0,0:0:0:0:
397,248,2086,1,0,0:0:0:0:
379,239,2188,1,0,0:0:0:0:
360,232,2289,1,0,0:0:0:0:
79,186,2492,6,0,L|199:267,1,139.999995727539
211,277,2796,1,0,0:0:0:0:
228,289,2897,1,0,0:0:0:0:
265,180,3100,6,0,B|264:177|275:159|279:146|279:146|300:124|314:98,1,69.9999978637696
263,182,3303,2,0,B|318:178|354:180|354:180|373:147|398:114,2,139.999995727539
58,190,3911,6,0,L|83:93,2,85.0000016212464
58,190,4215,2,0,L|160:152,1,85.0000016212464
126,251,4519,6,0,L|151:154,2,85.0000016212464
126,251,4823,2,0,L|228:213,1,85.0000016212464
194,312,5127,6,0,L|219:215,2,85.0000016212464
194,312,5431,2,0,L|296:274,1,85.0000016212464
272,349,5735,2,0,L|313:154,2,170.000003242493
391,288,6343,6,0,L|431:191,1,85.0000016212464
391,288,6546,2,0,L|336:85,2,170.000003242493
255,45,7154,6,0,B|196:57|152:69|152:69|90:54|19:52,2,239.999992675781
174,133,7762,6,0,B|233:121|277:109|277:109|339:124|409:125,2,239.999992675781
408,196,8370,6,0,B|344:192|279:180|279:180|217:196|171:203,2,239.999992675781
53,364,8978,6,0,B|111:243|111:243|74:143,2,239.999992675781
225,80,9586,6,0,B|167:201|167:201|203:301,1,239.999992675781
233,66,9991,1,0,0:0:0:0:
203,301,10194,1,0,0:0:0:0:
396,227,10397,5,0,0:0:0:0:
390,277,10498,1,0,0:0:0:0:
384,328,10599,2,0,L|206:180,1,200
393,234,11005,5,0,0:0:0:0:
385,289,11106,1,0,0:0:0:0:
376,339,11207,2,0,L|208:178,1,200
95,267,11613,5,0,0:0:0:0:
49,241,11714,1,0,0:0:0:0:
5,215,11815,2,0,L|212:112,1,200
79,269,12221,5,0,0:0:0:0:
39,234,12322,1,0,0:0:0:0:
0,200,12423,2,0,L|223:139,1,200
306,106,12829,5,0,0:0:0:0:
352,144,12931,1,0,0:0:0:0:
396,183,13032,1,0,0:0:0:0:
80,202,13235,1,0,0:0:0:0:
339,303,13437,1,0,0:0:0:0:
128,29,20126,6,0,B|126:103|105:186|105:186|172:216|226:277|226:277|303:239|392:238|392:238|397:175|424:114,1,600.000022888185
71,279,21748,6,0,B|93:229|98:166|98:166|187:165|264:127|264:127|318:188|385:218|385:218|364:301|362:375,1,600.000022888185
250,274,22761,1,0,0:0:0:0:
196,151,22964,1,0,0:0:0:0:
114,51,23167,1,0,0:0:0:0:
114,51,23369,6,0,B|176:89|204:127|204:127|301:116|386:122,1,300.000011444092
480,224,23977,1,0,0:0:0:0:
480,288,24079,1,0,0:0:0:0:
480,352,24180,2,0,B|395:346|298:357|298:357|270:319|208:281,1,300.000011444092
247,76,24788,5,0,0:0:0:0:
314,76,24890,1,0,0:0:0:0:
381,78,24991,2,0,B|356:164|356:164|229:162|229:162|192:252,1,300.000011444092
273,239,25599,5,0,0:0:0:0:
340,239,25700,1,0,0:0:0:0:
399,302,25802,2,0,L|94:299,1,300.000011444092
399,302,26410,1,0,0:0:0:0:
250,366,26612,6,0,L|311:191,1,150.000005722046
228,60,27221,6,0,B|200:116|200:116|200:162,1,75.0000028610231
300,72,27423,2,0,B|267:132|267:132|264:367,1,300.000011444092
46,155,28234,1,0,0:0:0:0:
265,364,28437,1,0,0:0:0:0:
414,199,28842,2,0,L|350:252,1,75.0000028610231
466,155,29045,2,0,B|287:302|287:302|262:366,1,300.000011444092
219,51,29856,6,0,B|181:83|148:93|148:93|138:118|113:140|113:140|105:195|93:239|93:239|140:224|185:221|185:221|223:242|279:246|279:246|316:226|399:214,1,525.000020027161
377,135,30667,2,0,B|280:168|280:168|254:173|213:158|213:158|167:163|167:163|197:127|197:128|248:114|296:62|296:62|445:42|445:42|496:89,1,595.000011348725
471,176,31477,2,0,B|375:134|375:134|287:167|251:167|163:162|163:162|114:280|217:307|217:307|259:268|389:311,1,664.999982242585
415,257,32288,5,0,0:0:0:0:
415,257,32390,1,0,0:0:0:0:
415,257,32491,2,0,B|372:238|333:227|286:222|228:226|210:241,2,200
256,192,33099,12,0,35937,0:0:0:0:
119,86,36342,6,0,B|122:89|81:114|81:114|53:174,1,100
119,86,36545,2,0,B|116:89|157:114|157:114|185:174,1,100
119,86,36748,2,0,L|97:290,1,200
275,376,37153,2,0,L|296:177,1,200
265,81,37457,1,0,0:0:0:0:
265,81,37558,2,0,B|231:142|231:142|212:274,1,200
412,291,37964,5,0,0:0:0:0:
217,241,38167,1,0,0:0:0:0:
392,147,38369,1,0,0:0:0:0:
198,94,38572,1,0,0:0:0:0:
391,41,38775,2,0,L|384:284,2,200
98,72,39585,5,0,0:0:0:0:
74,104,39687,1,0,0:0:0:0:
66,143,39788,1,0,0:0:0:0:
276,224,39991,2,0,L|252:330,2,100
448,251,40396,5,0,0:0:0:0:
472,219,40498,1,0,0:0:0:0:
480,180,40599,1,0,0:0:0:0:
297,97,40802,2,0,L|321:-9,2,100
147,304,41207,5,0,0:0:0:0:
297,97,41410,1,0,0:0:0:0:
297,353,41612,1,0,0:0:0:0:
147,146,41815,1,0,0:0:0:0:
390,225,42018,1,0,0:0:0:0:
147,304,42221,1,0,0:0:0:0:
297,97,42423,1,0,0:0:0:0:
363,296,42829,6,0,L|232:275,1,100
207,198,43031,2,0,L|76:177,1,100
387,232,43234,2,0,L|256:211,1,100
231,134,43436,2,0,L|100:113,1,100
351,41,43640,5,0,0:0:0:0:
233,202,43843,1,0,0:0:0:0:
395,320,44046,1,0,0:0:0:0:
512,158,44248,1,0,0:0:0:0:
351,41,44450,2,0,L|149:8,1,200
123,192,44856,1,0,0:0:0:0:
340,291,45058,1,0,0:0:0:0:
396,57,45261,1,0,0:0:0:0:
123,192,45464,1,0,0:0:0:0:
153,9,45667,2,0,L|351:41,1,200
182,167,46072,6,0,L|111:216,1,75.0000028610231
58,252,46275,2,0,L|119:209,1,75.0000028610231
181,252,46477,2,0,L|119:209,1,75.0000028610231
57,166,46680,2,0,L|118:208,1,75.0000028610231
145,295,46883,5,0,0:0:0:0:
320,257,47085,1,0,0:0:0:0:
185,137,47288,1,0,0:0:0:0:
365,129,47491,1,0,0:0:0:0:
218,234,47694,1,0,0:0:0:0:
392,276,47896,1,0,0:0:0:0:
213,301,48099,1,0,0:0:0:0:
340,173,48302,1,0,0:0:0:0:
163,140,48504,2,0,P|140:120|248:119,1,300.000011444092
239,133,49315,5,0,0:0:0:0:
239,133,49417,1,0,0:0:0:0:
239,133,49518,2,0,B|240:175|240:175|276:233,1,110.000003356934
348,212,49721,1,0,0:0:0:0:
348,212,49822,1,0,0:0:0:0:
348,212,49923,2,0,B|312:154|312:154|312:113,1,110.000003356934
381,89,50126,2,0,B|381:130|381:130|417:188,1,110.000003356934
483,304,50329,2,0,L|243:336,2,220.000006713867
127,242,50937,5,0,0:0:0:0:
127,242,51038,1,0,0:0:0:0:
127,242,51140,2,0,L|130:95,1,110.000003356934
224,41,51342,5,0,0:0:0:0:
224,41,51443,1,0,0:0:0:0:
224,41,51545,2,0,L|221:150,1,110.000003356934
301,257,51748,5,0,0:0:0:0:
301,257,51849,1,0,0:0:0:0:
301,257,51951,2,0,L|304:110,1,110.000003356934
383,42,52153,2,0,L|380:381,1,330.000010070801
237,374,52558,6,0,B|204:270|202:193|202:193|135:235|67:257,1,330.000010070801
71,256,52964,1,0,0:0:0:0:
237,374,53167,1,0,0:0:0:0:
292,332,53369,6,0,B|278:200|313:129|313:129|228:169|150:148,1,345.000006580353
178,153,53775,1,0,0:0:0:0:
292,332,53977,1,0,0:0:0:0:
363,112,54180,6,0,L|132:125,1,220.000006713867
168,157,54484,1,0,0:0:0:0:
213,171,54585,1,0,0:0:0:0:
256,180,54687,1,0,0:0:0:0:
293,189,54788,2,0,L|539:202,1,220.000006713867
375,343,55194,1,0,0:0:0:0:
375,343,55295,2,0,B|309:329|259:295|259:295|194:306|142:276|142:276|174:239|179:200|179:200|240:213|323:169,1,440.000013427735
314,102,55802,6,0,L|246:65,1,75.0000028610231
182,30,56004,2,0,L|247:65,1,75.0000028610231
313,30,56207,2,0,L|247:65,1,75.0000028610231
181,101,56410,2,0,L|246:65,1,75.0000028610231
314,102,56612,2,0,L|246:65,1,75.0000028610231
182,30,56814,2,0,L|247:65,1,75.0000028610231
411,237,57018,1,0,0:0:0:0:
411,237,57119,2,0,L|293:145,1,150.000005722046
227,281,57423,6,0,L|159:244,1,75.0000028610231
95,209,57625,2,0,L|160:244,1,75.0000028610231
226,209,57828,2,0,L|160:244,1,75.0000028610231
94,280,58031,2,0,L|159:244,1,75.0000028610231
314,102,58234,2,0,L|246:65,1,75.0000028610231
182,30,58436,2,0,L|247:65,1,75.0000028610231
313,30,58639,2,0,L|102:142,1,225.000008583069
96,224,59045,6,0,L|292:120,1,200
391,108,59349,1,0,0:0:0:0:
508,83,59450,6,0,L|331:176,1,200
205,184,59754,1,0,0:0:0:0:
80,178,59856,2,0,L|255:276,1,200
452,198,60261,1,0,0:0:0:0:
97,144,60464,1,0,0:0:0:0:
428,51,60667,6,0,P|413:73|379:93,1,50
142,45,60971,1,0,0:0:0:0:
301,164,61173,1,0,0:0:0:0:
101,178,61376,2,0,P|76:198|50:228,1,50
213,241,61579,2,0,B|257:253|285:266|285:266|333:257|414:257,1,200
382,159,61883,2,0,L|367:104,1,50
218,109,62085,2,0,L|258:145,1,50
256,192,62288,12,0,63099,0:0:0:0:
154,67,68775,6,0,L|64:250,1,200
163,270,69079,1,0,0:0:0:0:
163,270,69180,2,0,L|251:90,1,200
351,94,69484,1,0,0:0:0:0:
351,94,69585,2,0,L|262:273,1,200
363,281,69890,1,0,0:0:0:0:
363,281,69991,2,0,L|451:101,1,200
260,38,70396,5,0,0:0:0:0:
95,152,70599,1,0,0:0:0:0:
271,247,70802,1,0,0:0:0:0:
320,53,71004,1,0,0:0:0:0:
120,73,71207,1,0,0:0:0:0:
205,254,71410,1,0,0:0:0:0:
327,96,71612,1,0,0:0:0:0:
402,231,71917,5,0,0:0:0:0:
402,231,72018,2,0,L|277:225,1,100
247,141,72221,2,0,L|381:144,1,100
422,78,72423,2,0,L|281:71,1,100
246,72,72626,2,0,B|190:71|190:71|171:146,1,100
161,188,72829,2,0,B|156:215|156:215|230:216,1,100
233,294,73031,2,0,L|118:293,1,100
61,290,73234,2,0,L|106:64,1,200
305,56,73640,5,0,0:0:0:0:
152,228,73842,1,0,0:0:0:0:
370,154,74045,1,0,0:0:0:0:
140,133,74248,1,0,0:0:0:0:
357,208,74450,1,0,0:0:0:0:
182,57,74653,1,0,0:0:0:0:
286,273,74856,1,0,0:0:0:0:
419,65,75261,6,0,B|418:129|418:129|380:178,1,100
338,102,75464,2,0,B|315:130|315:130|314:194,1,100
407,171,75667,6,0,B|342:172|342:172|314:194,1,100
369,252,75870,2,0,B|340:274|340:274|276:275,1,100
299,367,76072,6,0,B|298:302|298:302|275:274,1,100
218,329,76275,2,0,B|195:300|195:300|196:181|196:181|167:143,2,200
330,163,76883,5,0,0:0:0:0:
111,182,77085,1,0,0:0:0:0:
317,258,77288,1,0,0:0:0:0:
98,285,77491,1,0,0:0:0:0:
409,196,77694,1,0,0:0:0:0:
191,170,77896,1,0,0:0:0:0:
418,314,78099,1,0,0:0:0:0:
407,56,78504,6,0,P|391:113|359:154,1,100
268,194,78707,2,0,P|267:125|283:66,1,100
264,279,78910,2,0,P|319:262|351:215,1,100
201,216,79112,2,0,P|174:263|199:334,1,100
369,283,79315,5,0,0:0:0:0:
426,265,79518,1,0,0:0:0:0:
99,282,79721,1,0,0:0:0:0:
48,243,79924,1,0,0:0:0:0:
364,47,80126,6,0,L|215:205,1,200
202,80,80531,2,0,L|385:235,1,200
415,144,80937,6,0,L|266:302,1,200
201,184,81342,2,0,L|403:321,1,200
443,168,81748,5,0,0:0:0:0:
443,168,81849,1,0,0:0:0:0:
443,168,81950,2,0,L|405:57,1,110.000003356934
334,89,82153,2,0,B|346:131|346:131|275:147,1,110.000003356934
299,220,82356,2,0,B|365:208|365:208|380:265,1,110.000003356934
389,325,82558,2,0,B|457:311|457:311|443:229,1,110.000003356934
432,195,82761,2,0,L|199:234,2,220.000006713867
310,99,83369,5,0,0:0:0:0:
234,80,83471,1,0,0:0:0:0:
158,64,83572,1,0,0:0:0:0:
83,46,83673,1,0,0:0:0:0:
80,123,83775,1,0,0:0:0:0:
78,199,83876,1,0,0:0:0:0:
73,275,83977,2,0,B|67:313|67:313|164:313,1,110.000003356934
243,259,84180,5,0,0:0:0:0:
316,237,84281,1,0,0:0:0:0:
386,204,84383,2,0,B|411:186|447:169|447:169|389:112|347:54|347:54|273:59|228:52,1,330.000010070801
266,302,84991,6,0,B|311:212|311:212|241:195|203:155,1,200
266,302,85396,2,0,B|310:174|310:174|254:167|208:135,1,220.000006713867
266,302,85802,2,0,B|336:132|336:132|272:124|241:99,1,239.999992675781
266,302,86207,1,0,0:0:0:0:
365,68,86410,1,0,0:0:0:0:
183,150,86612,5,0,0:0:0:0:
133,184,86714,1,0,0:0:0:0:
83,218,86815,1,0,0:0:0:0:
137,243,86917,1,0,0:0:0:0:
193,262,87018,1,0,0:0:0:0:
250,278,87119,1,0,0:0:0:0:
307,295,87221,2,0,L|407:7,1,300
239,82,87829,5,0,0:0:0:0:
436,207,88031,1,0,0:0:0:0:
420,274,88234,5,0,0:0:0:0:
356,269,88335,1,0,0:0:0:0:
291,266,88437,1,0,0:0:0:0:
229,262,88538,1,0,0:0:0:0:
169,255,88640,5,0,0:0:0:0:
195,221,88741,1,0,0:0:0:0:
224,183,88842,1,0,0:0:0:0:
252,144,88944,1,0,0:0:0:0:
279,105,89045,5,0,0:0:0:0:
259,114,89146,1,0,0:0:0:0:
239,123,89248,1,0,0:0:0:0:
219,133,89349,1,0,0:0:0:0:
200,142,89450,2,0,B|116:187|116:187|111:319,1,220.000006713867
200,142,89856,2,0,B|289:174|289:174|391:89,1,220.000006713867
385,94,90261,2,0,B|414:215|414:215|346:281,1,220.000006713867
346,281,90667,2,0,B|283:209|283:209|160:232,1,220.000006713867
160,232,91072,2,0,B|176:138|176:138|80:57,1,220.000006713867
287,115,91477,6,0,L|286:226,1,110.000003356934
207,261,91680,2,0,L|207:151,1,110.000003356934
369,75,91883,2,0,L|368:184,1,110.000003356934
143,309,92085,2,0,L|146:184,1,110.000003356934
296,73,92491,5,0,0:0:0:0:
110,261,92694,1,0,0:0:0:0:
371,291,92896,1,0,0:0:0:0:
371,36,93099,6,0,P|324:153|394:279,1,275.000008392334
138,184,93403,2,0,P|244:287|391:307,1,299.999990844727
249,218,93707,2,0,B|125:193|125:193|300:68|445:308,1,519.99997619629
0,49,94722,6,10,B|63:52|114:46|114:46|153:53|203:52,1,200,14|2,3:0|3:0,3:0:0:0:
512,265,95127,2,2,B|449:268|398:262|398:262|359:269|309:268,1,200,10|2,3:0|3:0,3:0:0:0:
96,231,95431,1,0,3:0:0:0:
96,231,95532,2,0,P|63:269|64:318,1,100,10|0,3:0|3:0,3:0:0:0:
214,311,95735,1,0,3:0:0:0:
214,311,95836,2,0,B|249:307|288:320|288:320|327:284|429:250,1,200,10|10,3:0|3:0,3:0:0:0:
440,219,96140,6,0,P|437:161|396:132,1,100
369,201,96343,2,0,B|307:221|277:243|277:243|231:235|178:244,1,200,10|0,3:0|3:0,3:0:0:0:
64,199,96647,1,0,0:0:0:0:
64,199,96749,2,0,B|61:217|60:150|138:145|138:145|137:89|150:45,1,200,10|0,3:0|3:0,3:0:0:0:
363,51,97154,2,0,B|375:89|374:145|374:145|452:150|451:217|448:199,1,200,10|0,3:0|3:0,3:0:0:0:
320,266,97458,2,0,L|128:321,2,200,10|10|0,3:0|3:0|3:0,3:0:0:0:
124,175,97965,6,2,L|173:133,1,64.9999970245363,2|2,3:0|3:0,3:0:0:0:
173,133,98168,2,2,L|221:90,1,64.9999970245363,2|2,3:0|3:0,3:0:0:0:
339,142,98370,2,2,L|280:116,1,64.9999970245363,2|2,3:0|3:0,3:0:0:0:
280,116,98573,2,2,L|220:89,1,64.9999970245363,2|2,3:0|3:0,3:0:0:0:
321,194,98776,6,2,B|402:124,1,100,2|2,3:0|3:0,3:0:0:0:
321,194,99181,2,2,B|245:259,1,100,2|2,3:0|3:0,3:0:0:0:
321,194,99586,6,2,B|269:177|241:162|241:162|173:154|125:144|125:144|158:229|135:287|135:287|204:286|311:346,1,500
395,308,100195,1,2,0:0:0:0:
395,308,100296,2,2,B|294:254|199:222|199:222|157:163|65:90,1,400
178,45,101107,6,0,B|231:89|321:121|321:121|334:145|358:158,1,200,4|0,0:0|0:0,0:0:0:0:
227,259,101411,1,0,0:0:0:0:
227,259,101512,2,0,B|216:263|203:287|203:287|113:319|60:363,1,200,4|0,0:0|0:0,0:0:0:0:
38,25,101816,2,0,B|69:57|69:57|99:103,1,100,4|0,0:0|0:0,0:0:0:0:
82,203,102019,2,0,B|131:179|131:179|193:133,1,100,4|0,0:0|0:0,0:0:0:0:
281,37,102222,2,0,B|272:81|272:81|252:132,1,100,6|0,0:0|0:0,0:0:0:0:
202,283,102424,2,0,B|243:247|243:247|293:188,1,100,6|0,0:0|0:0,0:0:0:0:
365,80,102627,2,0,B|365:109|374:137|374:137|349:169|344:223|344:223,1,100,6|0,0:0|0:0,0:0:0:0:
262,142,102830,6,2,L|243:240,1,100,6|2,0:0|0:0,0:0:0:0:
84,240,103032,2,2,L|102:142,1,100,6|2,0:0|0:0,0:0:0:0:
183,136,103235,2,2,L|164:235,1,100,6|2,0:0|0:0,0:0:0:0:
0,234,103438,2,2,L|36:37,1,200,14|2,0:0|0:0,0:0:0:0:
262,142,103843,2,14,L|225:338,1,200,14|14,0:0|0:1,0:1:0:0:
290,24,104451,6,2,B|323:69|370:86|370:86|345:138|371:200,1,220.000006713867
374,200,104755,2,2,B|316:191|287:245|287:245|219:214|184:261,1,220.000006713867
186,263,105059,2,2,B|158:202|102:185|102:185|121:139|105:86,1,220.000006713867
289,23,105363,2,6,B|234:34|190:10|190:10|168:64|104:84|104:84|118:137|103:185|103:185|161:209|188:271,1,440.000013427735
211,159,106073,6,0,L|279:141,1,59.9999981689454,8|0,0:0|0:0,0:0:0:0:
263,202,106174,2,0,L|215:283,1,59.9999981689454,8|0,0:0|0:0,0:0:0:0:
382,192,106377,1,8,0:0:0:0:
456,97,106580,1,8,0:0:0:0:
340,128,106782,2,0,B|313:149|281:153|281:153|284:212|240:204|274:261,1,179.999994506836,8|0,0:0|0:0,0:0:0:0:
381,318,107086,1,8,0:0:0:0:
274,261,107289,1,8,0:0:0:0:
69,73,107695,6,2,B|91:116|75:146|75:146|118:170|118:170|84:211|84:211|114:229|109:301,1,239.999992675781,10|2,0:0|0:0,0:0:0:0:
229,270,107999,1,10,0:0:0:0:
348,272,108100,6,2,B|352:236|322:218|322:218|356:177|356:177|313:153|313:153|329:123|307:80,1,239.999992675781,10|2,0:0|0:0,0:0:0:0:
179,116,108404,1,10,0:0:0:0:
55,160,108505,2,2,B|83:217|83:217|138:282,1,119.999996337891,10|2,0:0|0:0,0:0:0:0:
270,240,108708,2,2,B|247:184|247:184|195:132,1,119.999996337891,10|2,0:0|0:0,0:0:0:0:
52,342,108911,1,10,0:0:0:0:
52,342,109113,6,2,B|85:276|85:276|52:205,1,119.999996337891,10|2,0:0|0:0,0:0:0:0:
169,295,109316,2,2,B|136:229|136:229|169:158,1,119.999996337891,10|2,0:0|0:0,0:0:0:0:
241,271,109519,2,2,B|274:205|274:205|241:134,1,119.999996337891,10|2,0:0|0:0,0:0:0:0:
334,162,109722,2,2,B|301:96|301:96|320:55|320:55|405:56|405:56|435:75,1,239.999992675781,10|6,0:0|0:0,0:0:0:0:
347,269,110026,1,6,0:0:0:0:
347,269,110127,2,2,B|314:203|314:203|334:162,1,119.999996337891,10|2,0:0|0:0,0:0:0:0:
457,220,110330,2,0,L|209:196,1,239.999992675781,8|0,0:0|0:0,0:0:0:0:
22,57,110735,6,10,L|110:149,1,119.999996337891
192,227,110938,2,10,L|309:252,1,119.999996337891
469,74,111140,1,10,0:0:0:0:
469,74,111242,2,10,L|333:46,1,119.999996337891
78,276,111445,1,0,0:0:0:0:
78,276,111546,2,10,L|239:327,1,119.999996337891
512,190,111749,6,10,L|376:162,1,119.999996337891,10|2,0:0|0:0,0:0:0:0:
162,108,111951,1,10,0:0:0:0:
436,56,112154,1,10,0:0:0:0:
37,325,112357,1,10,0:0:0:0:
231,337,112559,6,2,B|292:325|341:351|341:351|366:291|438:270|438:270|422:211|439:157|439:157|374:131|344:62,1,479.999985351563,14|10,0:0|0:0,0:0:0:0:
145,145,113168,1,10,0:0:0:0:
351,77,113269,2,2,B|290:89|241:63|241:63|216:123|145:145|145:145|160:204|143:257|143:257|208:284|231:338,1,479.999985351563,14|2,0:0|0:0,0:0:0:0:
176,131,114181,6,2,B|267:131|267:131|323:87,1,150.000005722046,10|2,0:0|0:0,0:0:0:0:
336,253,114586,2,2,B|245:253|245:253|189:297,1,150.000005722046,10|2,0:0|0:0,0:0:0:0:
18,161,114992,2,10,B|53:118|53:118|67:69,1,89.9999972534181
18,161,115195,2,10,B|16:204|16:204|36:255,1,89.9999972534181
18,161,115397,2,10,B|67:192|117:199|117:199|176:221|236:201,1,224.999993133545,10|2,0:0|0:0,0:0:0:0:
423,34,115803,6,2,B|382:8|382:8|378:62|417:101|417:101|387:141|390:203,1,239.999992675781,10|2,0:0|0:0,0:0:0:0:
73,356,116208,2,2,L|171:249,1,119.999996337891,10|2,0:0|0:0,0:0:0:0:
235,179,116411,2,2,L|137:286,1,119.999996337891,10|2,0:0|0:0,0:0:0:0:
66,185,116613,2,2,L|153:267,1,119.999996337891,10|2,0:0|0:0,0:0:0:0:
241,349,116816,2,6,B|154:266|154:266|248:164|248:164|166:87,1,359.999989013672,14|0,0:0|0:0,0:0:0:0:
469,43,117424,6,0,B|421:93|384:123|384:123|389:167|384:214,1,200
283,210,117728,2,0,B|280:162|283:126|283:126|223:123|163:90,1,200
132,164,118032,2,0,B|166:181|207:189|207:189|205:278|239:322,2,200
225,29,118640,2,0,B|217:70|206:96|206:96|215:139|206:189|206:189|200:230|240:309,1,250
362,103,119046,2,2,L|448:42,1,100
362,103,119249,2,2,L|273:168,1,100
335,247,119451,2,2,L|278:157,1,100
335,247,119654,2,2,L|388:331,1,100
327,339,119857,5,10,0:2:0:0:
283,342,119958,1,10,0:2:0:0:
248,360,120059,2,10,L|162:360,1,50,10|10,0:2|0:2,0:2:0:0:
198,360,120161,2,10,L|133:354,1,50,10|10,0:2|0:2,0:2:0:0:
148,355,120262,2,10,L|92:330,1,50,10|10,0:2|0:2,0:2:0:0:
103,335,120363,2,10,L|54:298,1,50,10|10,0:2|0:2,0:2:0:0:
63,304,120465,2,2,B|71:265|82:243|82:243|70:225|66:192,1,100,10|2,0:0|0:0,0:0:0:0:
264,256,120668,2,2,B|244:282|231:304|231:304|194:292|144:285|144:285|165:246|175:213|175:213|159:182|136:130,1,300
256,192,121325,12,0,123099,0:0:0:0:
