osu file format v14

[General]
AudioFilename: audio.mp3
AudioLeadIn: 0
PreviewTime: 2200
Countdown: 0
SampleSet: Normal
StackLeniency: 0.7
Mode: 1
LetterboxInBreaks: 0
WidescreenStoryboard: 1

[Editor]
DistanceSpacing: 0.8
BeatDivisor: 16
GridSize: 16
TimelineZoom: 5.299997

[Metadata]
Title:wow
TitleUnicode:wow
Artist:
ArtistUnicode:
Creator:Jerry
Version:wow
Source:wow
Tags:wow
BeatmapID:1598183
BeatmapSetID:759816

[Difficulty]
HPDrainRate:0
CircleSize:5
OverallDifficulty:0
ApproachRate:5
SliderMultiplier:1.4
SliderTickRate:1

[Events]
//Background and Video events
0,0,"maxresdefault.jpg",0,0
//Break Periods
//Storyboard Layer 0 (Background)
//Storyboard Layer 1 (Fail)
//Storyboard Layer 2 (Pass)
//Storyboard Layer 3 (Foreground)
//Storyboard Sound Samples

[TimingPoints]
0,200,4,1,0,100,1,0
2300,-133.333333333333,4,1,0,100,0,0
39700,-1,4,1,0,100,0,0
39725,-133.333333333333,4,1,0,100,0,0

[HitObjects]
256,192,2300,5,0,0:0:0:0:
256,192,2350,1,8,0:0:0:0:
256,192,2400,1,0,0:0:0:0:
256,192,2450,1,0,0:0:0:0:
256,192,2500,1,8,0:0:0:0:
256,192,2550,1,0,0:0:0:0:
256,192,2600,1,8,0:0:0:0:
256,192,2650,1,8,0:0:0:0:
256,192,2700,1,0,0:0:0:0:
256,192,4000,1,8,0:0:0:0:
256,192,4050,1,0,0:0:0:0:
256,192,4100,1,0,0:0:0:0:
256,192,4150,1,0,0:0:0:0:
256,192,4200,1,8,0:0:0:0:
256,192,4250,1,0,0:0:0:0:
256,192,4300,1,8,0:0:0:0:
256,192,4350,1,8,0:0:0:0:
256,192,4400,1,0,0:0:0:0:
256,192,5600,1,0,0:0:0:0:
256,192,5650,1,0,0:0:0:0:
256,192,5700,1,0,0:0:0:0:
256,192,5750,1,0,0:0:0:0:
256,192,5800,1,8,0:0:0:0:
256,192,5850,1,8,0:0:0:0:
256,192,5900,1,0,0:0:0:0:
256,192,5950,1,8,0:0:0:0:
256,192,6000,1,0,0:0:0:0:
256,192,7200,1,8,0:0:0:0:
256,192,7250,1,8,0:0:0:0:
256,192,7300,1,0,0:0:0:0:
256,192,7350,1,0,0:0:0:0:
256,192,7400,1,8,0:0:0:0:
256,192,7450,1,8,0:0:0:0:
256,192,7500,1,0,0:0:0:0:
256,192,7550,1,8,0:0:0:0:
256,192,7600,1,0,0:0:0:0:
256,192,8800,1,0,0:0:0:0:
256,192,8850,1,0,0:0:0:0:
256,192,8900,1,0,0:0:0:0:
256,192,8950,1,0,0:0:0:0:
256,192,9000,1,8,0:0:0:0:
256,192,9050,1,8,0:0:0:0:
256,192,9100,1,8,0:0:0:0:
256,192,9150,1,8,0:0:0:0:
256,192,9200,1,0,0:0:0:0:
256,192,10400,1,8,0:0:0:0:
256,192,10450,1,0,0:0:0:0:
256,192,10500,1,0,0:0:0:0:
256,192,10550,1,8,0:0:0:0:
256,192,10600,1,8,0:0:0:0:
256,192,10650,1,0,0:0:0:0:
256,192,10700,1,8,0:0:0:0:
256,192,10750,1,8,0:0:0:0:
256,192,10800,1,0,0:0:0:0:
256,192,11600,1,0,0:0:0:0:
256,192,11650,1,0,0:0:0:0:
256,192,11700,1,0,0:0:0:0:
256,192,11750,1,0,0:0:0:0:
256,192,11800,1,8,0:0:0:0:
256,192,11850,1,0,0:0:0:0:
256,192,11900,1,8,0:0:0:0:
256,192,11950,1,8,0:0:0:0:
256,192,12000,1,0,0:0:0:0:
256,192,13100,1,0,0:0:0:0:
256,192,13150,1,0,0:0:0:0:
256,192,13200,1,8,0:0:0:0:
256,192,13250,1,8,0:0:0:0:
256,192,13300,1,8,0:0:0:0:
256,192,13350,1,0,0:0:0:0:
256,192,13400,1,8,0:0:0:0:
256,192,13450,1,8,0:0:0:0:
256,192,13500,1,0,0:0:0:0:
256,192,14400,1,8,0:0:0:0:
256,192,14450,1,0,0:0:0:0:
256,192,14500,1,8,0:0:0:0:
256,192,14550,1,0,0:0:0:0:
256,192,14600,1,8,0:0:0:0:
256,192,14650,1,0,0:0:0:0:
256,192,14700,1,8,0:0:0:0:
256,192,14750,1,8,0:0:0:0:
256,192,14800,1,0,0:0:0:0:
256,192,15800,1,8,0:0:0:0:
256,192,15850,1,8,0:0:0:0:
256,192,15900,1,8,0:0:0:0:
256,192,15950,1,8,0:0:0:0:
256,192,16000,1,8,0:0:0:0:
256,192,16050,1,8,0:0:0:0:
256,192,16100,1,8,0:0:0:0:
256,192,16150,1,8,0:0:0:0:
256,192,16200,1,0,0:0:0:0:
256,192,17000,1,0,0:0:0:0:
256,192,17050,1,0,0:0:0:0:
256,192,17100,1,0,0:0:0:0:
256,192,17150,1,0,0:0:0:0:
256,192,17200,1,0,0:0:0:0:
256,192,17250,1,0,0:0:0:0:
256,192,17300,1,0,0:0:0:0:
256,192,17350,1,0,0:0:0:0:
256,192,17400,1,8,0:0:0:0:
256,192,18200,1,8,0:0:0:0:
256,192,18250,1,8,0:0:0:0:
256,192,18300,1,8,0:0:0:0:
256,192,18350,1,8,0:0:0:0:
256,192,18400,1,8,0:0:0:0:
256,192,18450,1,8,0:0:0:0:
256,192,18500,1,8,0:0:0:0:
256,192,18550,1,8,0:0:0:0:
256,192,18600,1,0,0:0:0:0:
256,192,19400,1,0,0:0:0:0:
256,192,19450,1,8,0:0:0:0:
256,192,19500,1,0,0:0:0:0:
256,192,19550,1,8,0:0:0:0:
256,192,19600,1,0,0:0:0:0:
256,192,19650,1,8,0:0:0:0:
256,192,19700,1,0,0:0:0:0:
256,192,19750,1,8,0:0:0:0:
256,192,19800,1,0,0:0:0:0:
256,192,20400,1,8,0:0:0:0:
256,192,20450,1,8,0:0:0:0:
256,192,20500,1,8,0:0:0:0:
256,192,20550,1,8,0:0:0:0:
256,192,20600,1,8,0:0:0:0:
256,192,20650,1,8,0:0:0:0:
256,192,20700,1,8,0:0:0:0:
256,192,20750,1,8,0:0:0:0:
256,192,20800,1,0,0:0:0:0:
256,192,21500,1,8,0:0:0:0:
256,192,21550,1,8,0:0:0:0:
256,192,21600,1,8,0:0:0:0:
256,192,21650,1,8,0:0:0:0:
256,192,21700,1,8,0:0:0:0:
256,192,21750,1,8,0:0:0:0:
256,192,21800,1,8,0:0:0:0:
256,192,21850,1,8,0:0:0:0:
256,192,21900,1,0,0:0:0:0:
256,192,22600,1,8,0:0:0:0:
256,192,22650,1,8,0:0:0:0:
256,192,22700,1,8,0:0:0:0:
256,192,22750,1,8,0:0:0:0:
256,192,22800,1,8,0:0:0:0:
256,192,22850,1,8,0:0:0:0:
256,192,22900,1,8,0:0:0:0:
256,192,22950,1,8,0:0:0:0:
256,192,23000,1,0,0:0:0:0:
256,192,23600,1,8,0:0:0:0:
256,192,23650,1,8,0:0:0:0:
256,192,23700,1,8,0:0:0:0:
256,192,23750,1,8,0:0:0:0:
256,192,23800,1,8,0:0:0:0:
256,192,23850,1,8,0:0:0:0:
256,192,23900,1,8,0:0:0:0:
256,192,23950,1,8,0:0:0:0:
256,192,24000,1,0,0:0:0:0:
256,192,24600,1,8,0:0:0:0:
256,192,24650,1,8,0:0:0:0:
256,192,24700,1,8,0:0:0:0:
256,192,24750,1,8,0:0:0:0:
256,192,24800,1,8,0:0:0:0:
256,192,24850,1,8,0:0:0:0:
256,192,24900,1,8,0:0:0:0:
256,192,24950,1,8,0:0:0:0:
256,192,25000,1,0,0:0:0:0:
256,192,25400,1,8,0:0:0:0:
256,192,25450,1,8,0:0:0:0:
256,192,25500,1,8,0:0:0:0:
256,192,25550,1,8,0:0:0:0:
256,192,25600,1,8,0:0:0:0:
256,192,25650,1,8,0:0:0:0:
256,192,25700,1,8,0:0:0:0:
256,192,25750,1,8,0:0:0:0:
256,192,25800,1,0,0:0:0:0:
256,192,26200,1,8,0:0:0:0:
256,192,26250,1,8,0:0:0:0:
256,192,26300,1,8,0:0:0:0:
256,192,26350,1,8,0:0:0:0:
256,192,26400,1,8,0:0:0:0:
256,192,26450,1,8,0:0:0:0:
256,192,26500,1,8,0:0:0:0:
256,192,26550,1,8,0:0:0:0:
256,192,26600,1,0,0:0:0:0:
256,192,27000,1,8,0:0:0:0:
256,192,27050,1,8,0:0:0:0:
256,192,27100,1,8,0:0:0:0:
256,192,27150,1,8,0:0:0:0:
256,192,27200,1,8,0:0:0:0:
256,192,27250,1,8,0:0:0:0:
256,192,27300,1,8,0:0:0:0:
256,192,27350,1,8,0:0:0:0:
256,192,27400,1,0,0:0:0:0:
256,192,27800,1,8,0:0:0:0:
256,192,27850,1,8,0:0:0:0:
256,192,27900,1,8,0:0:0:0:
256,192,27950,1,8,0:0:0:0:
256,192,28000,1,8,0:0:0:0:
256,192,28050,1,8,0:0:0:0:
256,192,28100,1,8,0:0:0:0:
256,192,28150,1,8,0:0:0:0:
256,192,28200,1,0,0:0:0:0:
256,192,28500,1,8,0:0:0:0:
256,192,28550,1,8,0:0:0:0:
256,192,28600,1,8,0:0:0:0:
256,192,28650,1,8,0:0:0:0:
256,192,28700,1,8,0:0:0:0:
256,192,28750,1,8,0:0:0:0:
256,192,28800,1,8,0:0:0:0:
256,192,28850,1,8,0:0:0:0:
256,192,28900,1,0,0:0:0:0:
256,192,29200,1,8,0:0:0:0:
256,192,29250,1,8,0:0:0:0:
256,192,29300,1,8,0:0:0:0:
256,192,29350,1,8,0:0:0:0:
256,192,29400,1,8,0:0:0:0:
256,192,29450,1,8,0:0:0:0:
256,192,29500,1,8,0:0:0:0:
256,192,29550,1,8,0:0:0:0:
256,192,29600,1,0,0:0:0:0:
256,192,29900,1,8,0:0:0:0:
256,192,29950,1,8,0:0:0:0:
256,192,30000,1,8,0:0:0:0:
256,192,30050,1,8,0:0:0:0:
256,192,30100,1,8,0:0:0:0:
256,192,30150,1,8,0:0:0:0:
256,192,30200,1,8,0:0:0:0:
256,192,30250,1,8,0:0:0:0:
256,192,30300,1,0,0:0:0:0:
256,192,30600,1,8,0:0:0:0:
256,192,30650,1,8,0:0:0:0:
256,192,30700,1,8,0:0:0:0:
256,192,30750,1,8,0:0:0:0:
256,192,30800,1,8,0:0:0:0:
256,192,30850,1,8,0:0:0:0:
256,192,30900,1,8,0:0:0:0:
256,192,30950,1,8,0:0:0:0:
256,192,31000,1,0,0:0:0:0:
256,192,31200,1,8,0:0:0:0:
256,192,31250,1,8,0:0:0:0:
256,192,31300,1,8,0:0:0:0:
256,192,31350,1,8,0:0:0:0:
256,192,31400,1,8,0:0:0:0:
256,192,31450,1,8,0:0:0:0:
256,192,31500,1,8,0:0:0:0:
256,192,31550,1,8,0:0:0:0:
256,192,31600,1,0,0:0:0:0:
256,192,31800,1,8,0:0:0:0:
256,192,31850,1,8,0:0:0:0:
256,192,31900,1,8,0:0:0:0:
256,192,31950,1,8,0:0:0:0:
256,192,32000,1,8,0:0:0:0:
256,192,32050,1,8,0:0:0:0:
256,192,32100,1,8,0:0:0:0:
256,192,32150,1,8,0:0:0:0:
256,192,32200,1,0,0:0:0:0:
256,192,32400,1,8,0:0:0:0:
256,192,32450,1,8,0:0:0:0:
256,192,32500,1,8,0:0:0:0:
256,192,32550,1,8,0:0:0:0:
256,192,32600,1,8,0:0:0:0:
256,192,32650,1,8,0:0:0:0:
256,192,32700,1,8,0:0:0:0:
256,192,32750,1,8,0:0:0:0:
256,192,32800,1,0,0:0:0:0:
256,192,33000,1,8,0:0:0:0:
256,192,33050,1,8,0:0:0:0:
256,192,33100,1,8,0:0:0:0:
256,192,33150,1,8,0:0:0:0:
256,192,33200,1,8,0:0:0:0:
256,192,33250,1,8,0:0:0:0:
256,192,33300,1,8,0:0:0:0:
256,192,33350,1,8,0:0:0:0:
256,192,33400,1,0,0:0:0:0:
256,192,33500,1,8,0:0:0:0:
256,192,33550,1,8,0:0:0:0:
256,192,33600,1,8,0:0:0:0:
256,192,33650,1,8,0:0:0:0:
256,192,33700,1,8,0:0:0:0:
256,192,33750,1,8,0:0:0:0:
256,192,33800,1,8,0:0:0:0:
256,192,33850,1,8,0:0:0:0:
256,192,33900,1,0,0:0:0:0:
256,192,34000,1,8,0:0:0:0:
256,192,34050,1,8,0:0:0:0:
256,192,34100,1,8,0:0:0:0:
256,192,34150,1,8,0:0:0:0:
256,192,34200,1,8,0:0:0:0:
256,192,34250,1,8,0:0:0:0:
256,192,34300,1,8,0:0:0:0:
256,192,34350,1,8,0:0:0:0:
256,192,34400,1,0,0:0:0:0:
256,192,34450,1,8,0:0:0:0:
256,192,34500,1,8,0:0:0:0:
256,192,34550,1,8,0:0:0:0:
256,192,34600,1,8,0:0:0:0:
256,192,34650,1,8,0:0:0:0:
256,192,34700,1,8,0:0:0:0:
256,192,34750,1,8,0:0:0:0:
256,192,34800,1,8,0:0:0:0:
256,192,34850,1,0,0:0:0:0:
256,192,34900,1,8,0:0:0:0:
256,192,34950,1,8,0:0:0:0:
256,192,35000,1,8,0:0:0:0:
256,192,35050,1,8,0:0:0:0:
256,192,35100,1,8,0:0:0:0:
256,192,35150,1,8,0:0:0:0:
256,192,35200,1,8,0:0:0:0:
256,192,35250,1,8,0:0:0:0:
256,192,35300,1,0,0:0:0:0:
256,192,35350,1,8,0:0:0:0:
256,192,35400,1,8,0:0:0:0:
256,192,35450,1,8,0:0:0:0:
256,192,35500,1,8,0:0:0:0:
256,192,35550,1,8,0:0:0:0:
256,192,35600,1,8,0:0:0:0:
256,192,35650,1,8,0:0:0:0:
256,192,35700,1,8,0:0:0:0:
256,192,35750,1,0,0:0:0:0:
256,192,35800,1,8,0:0:0:0:
256,192,35850,1,8,0:0:0:0:
256,192,35900,1,8,0:0:0:0:
256,192,35950,1,8,0:0:0:0:
256,192,36000,1,8,0:0:0:0:
256,192,36050,1,8,0:0:0:0:
256,192,36100,1,8,0:0:0:0:
256,192,36150,1,8,0:0:0:0:
256,192,36200,1,0,0:0:0:0:
256,192,36250,1,8,0:0:0:0:
256,192,36300,1,8,0:0:0:0:
256,192,36350,1,8,0:0:0:0:
256,192,36400,1,8,0:0:0:0:
256,192,36450,1,8,0:0:0:0:
256,192,36500,1,8,0:0:0:0:
256,192,36550,1,8,0:0:0:0:
256,192,36600,1,8,0:0:0:0:
256,192,36650,1,8,0:0:0:0:
256,192,36675,1,8,0:0:0:0:
256,192,36700,1,8,0:0:0:0:
256,192,36725,1,8,0:0:0:0:
256,192,36750,1,8,0:0:0:0:
256,192,36775,1,8,0:0:0:0:
256,192,36800,1,8,0:0:0:0:
256,192,36825,1,8,0:0:0:0:
256,192,36850,1,8,0:0:0:0:
256,192,36875,1,8,0:0:0:0:
256,192,36900,1,8,0:0:0:0:
256,192,36925,1,8,0:0:0:0:
256,192,36950,1,8,0:0:0:0:
256,192,36975,1,8,0:0:0:0:
256,192,37000,1,8,0:0:0:0:
256,192,37025,1,8,0:0:0:0:
256,192,37050,1,8,0:0:0:0:
256,192,37075,1,8,0:0:0:0:
256,192,37100,1,8,0:0:0:0:
256,192,37125,1,8,0:0:0:0:
256,192,37150,1,8,0:0:0:0:
256,192,37175,1,8,0:0:0:0:
256,192,37200,1,8,0:0:0:0:
256,192,37225,1,8,0:0:0:0:
256,192,37250,1,8,0:0:0:0:
256,192,37275,1,8,0:0:0:0:
256,192,37300,1,8,0:0:0:0:
256,192,37325,1,8,0:0:0:0:
256,192,37350,1,8,0:0:0:0:
256,192,37375,1,8,0:0:0:0:
256,192,37400,1,8,0:0:0:0:
256,192,37425,1,8,0:0:0:0:
256,192,37450,1,8,0:0:0:0:
256,192,37475,1,8,0:0:0:0:
256,192,37500,1,8,0:0:0:0:
256,192,37525,1,8,0:0:0:0:
256,192,37550,1,8,0:0:0:0:
256,192,37575,1,8,0:0:0:0:
256,192,37600,1,8,0:0:0:0:
256,192,37625,1,8,0:0:0:0:
256,192,37650,1,8,0:0:0:0:
256,192,37675,1,8,0:0:0:0:
256,192,37687,1,8,0:0:0:0:
256,192,37700,1,8,0:0:0:0:
256,192,37712,1,8,0:0:0:0:
256,192,37725,1,8,0:0:0:0:
256,192,37737,1,8,0:0:0:0:
256,192,37750,1,8,0:0:0:0:
256,192,37762,1,8,0:0:0:0:
256,192,37775,1,8,0:0:0:0:
256,192,37787,1,8,0:0:0:0:
256,192,37800,1,8,0:0:0:0:
256,192,37812,1,8,0:0:0:0:
256,192,37825,1,8,0:0:0:0:
256,192,37837,1,8,0:0:0:0:
256,192,37850,1,8,0:0:0:0:
256,192,37862,1,8,0:0:0:0:
256,192,37875,1,8,0:0:0:0:
256,192,37887,1,8,0:0:0:0:
256,192,37900,1,8,0:0:0:0:
256,192,37912,1,8,0:0:0:0:
256,192,37925,1,8,0:0:0:0:
256,192,37937,1,8,0:0:0:0:
256,192,37950,1,8,0:0:0:0:
256,192,37962,1,8,0:0:0:0:
256,192,37975,1,8,0:0:0:0:
256,192,37987,1,8,0:0:0:0:
256,192,38000,1,8,0:0:0:0:
256,192,38012,1,8,0:0:0:0:
256,192,38025,1,8,0:0:0:0:
256,192,38037,1,8,0:0:0:0:
256,192,38050,1,8,0:0:0:0:
256,192,38062,1,8,0:0:0:0:
256,192,38075,1,8,0:0:0:0:
256,192,38087,1,8,0:0:0:0:
256,192,38100,1,8,0:0:0:0:
256,192,38112,1,8,0:0:0:0:
256,192,38125,1,8,0:0:0:0:
256,192,38137,1,8,0:0:0:0:
256,192,38150,1,8,0:0:0:0:
256,192,38162,1,8,0:0:0:0:
256,192,38175,1,8,0:0:0:0:
256,192,38187,1,8,0:0:0:0:
256,192,38200,1,8,0:0:0:0:
256,192,38212,1,8,0:0:0:0:
256,192,38225,1,8,0:0:0:0:
256,192,38237,1,8,0:0:0:0:
256,192,38250,1,8,0:0:0:0:
256,192,38262,1,8,0:0:0:0:
256,192,38275,1,8,0:0:0:0:
256,192,38287,1,8,0:0:0:0:
256,192,38300,1,8,0:0:0:0:
256,192,38312,1,8,0:0:0:0:
256,192,38325,1,8,0:0:0:0:
256,192,38337,1,8,0:0:0:0:
256,192,38350,1,8,0:0:0:0:
256,192,38362,1,8,0:0:0:0:
256,192,38375,1,8,0:0:0:0:
256,192,38387,1,8,0:0:0:0:
256,192,38400,1,8,0:0:0:0:
256,192,38412,1,8,0:0:0:0:
256,192,38425,1,8,0:0:0:0:
256,192,38437,1,8,0:0:0:0:
256,192,38450,1,8,0:0:0:0:
256,192,38462,1,8,0:0:0:0:
256,192,38475,1,8,0:0:0:0:
256,192,38487,1,8,0:0:0:0:
256,192,38500,1,8,0:0:0:0:
256,192,38512,1,8,0:0:0:0:
256,192,38525,1,8,0:0:0:0:
256,192,38537,1,8,0:0:0:0:
256,192,38550,1,8,0:0:0:0:
256,192,38562,1,8,0:0:0:0:
256,192,38575,1,8,0:0:0:0:
256,192,38587,1,8,0:0:0:0:
256,192,38600,1,8,0:0:0:0:
256,192,38612,1,8,0:0:0:0:
256,192,38625,1,8,0:0:0:0:
256,192,38637,1,8,0:0:0:0:
256,192,38650,1,8,0:0:0:0:
256,192,38662,1,8,0:0:0:0:
256,192,38675,1,8,0:0:0:0:
256,192,38687,1,8,0:0:0:0:
256,192,38700,1,8,0:0:0:0:
256,192,38712,1,8,0:0:0:0:
256,192,38725,1,8,0:0:0:0:
256,192,38737,1,8,0:0:0:0:
256,192,38750,1,8,0:0:0:0:
256,192,38762,1,8,0:0:0:0:
256,192,38775,1,8,0:0:0:0:
256,192,38787,1,8,0:0:0:0:
256,192,38800,1,8,0:0:0:0:
256,192,38812,1,8,0:0:0:0:
256,192,38825,1,8,0:0:0:0:
256,192,38837,1,8,0:0:0:0:
256,192,38850,1,8,0:0:0:0:
256,192,38862,1,8,0:0:0:0:
256,192,38874,1,8,0:0:0:0:
256,192,38887,1,8,0:0:0:0:
256,192,38899,1,8,0:0:0:0:
256,192,38912,1,8,0:0:0:0:
256,192,38924,1,8,0:0:0:0:
256,192,38937,1,8,0:0:0:0:
256,192,38949,1,8,0:0:0:0:
256,192,38962,1,8,0:0:0:0:
256,192,38974,1,8,0:0:0:0:
256,192,38987,1,8,0:0:0:0:
256,192,38999,1,8,0:0:0:0:
256,192,39012,1,8,0:0:0:0:
256,192,39024,1,8,0:0:0:0:
256,192,39037,1,8,0:0:0:0:
256,192,39049,1,8,0:0:0:0:
256,192,39062,1,8,0:0:0:0:
256,192,39074,1,8,0:0:0:0:
256,192,39087,1,8,0:0:0:0:
256,192,39099,1,8,0:0:0:0:
256,192,39112,1,8,0:0:0:0:
256,192,39124,1,8,0:0:0:0:
256,192,39137,1,8,0:0:0:0:
256,192,39149,1,8,0:0:0:0:
256,192,39150,1,8,0:0:0:0:
256,192,39162,1,8,0:0:0:0:
256,192,39175,1,8,0:0:0:0:
256,192,39187,1,8,0:0:0:0:
256,192,39200,1,8,0:0:0:0:
256,192,39212,1,8,0:0:0:0:
256,192,39225,1,8,0:0:0:0:
256,192,39237,1,8,0:0:0:0:
256,192,39250,1,8,0:0:0:0:
256,192,39262,1,8,0:0:0:0:
256,192,39275,1,8,0:0:0:0:
256,192,39287,1,8,0:0:0:0:
256,192,39300,1,8,0:0:0:0:
256,192,39312,1,8,0:0:0:0:
256,192,39325,1,8,0:0:0:0:
256,192,39337,1,8,0:0:0:0:
256,192,39350,1,8,0:0:0:0:
256,192,39362,1,8,0:0:0:0:
256,192,39375,1,8,0:0:0:0:
256,192,39387,1,8,0:0:0:0:
256,192,39400,1,8,0:0:0:0:
256,192,39412,1,8,0:0:0:0:
256,192,39425,1,8,0:0:0:0:
256,192,39437,1,8,0:0:0:0:
256,192,39450,1,8,0:0:0:0:
256,192,39462,1,8,0:0:0:0:
256,192,39475,1,8,0:0:0:0:
256,192,39487,1,8,0:0:0:0:
256,192,39500,1,8,0:0:0:0:
256,192,39512,1,8,0:0:0:0:
256,192,39525,1,8,0:0:0:0:
256,192,39537,1,8,0:0:0:0:
256,192,39550,1,8,0:0:0:0:
256,192,39562,1,8,0:0:0:0:
256,192,39575,1,8,0:0:0:0:
256,192,39587,1,8,0:0:0:0:
256,192,39600,1,8,0:0:0:0:
256,192,39612,1,8,0:0:0:0:
256,192,39625,1,8,0:0:0:0:
256,192,39637,1,8,0:0:0:0:
256,192,39650,1,8,0:0:0:0:
256,192,39662,1,8,0:0:0:0:
256,192,39675,1,8,0:0:0:0:
256,192,39687,1,8,0:0:0:0:
256,192,39700,1,4,0:0:0:0:
256,192,39712,1,8,0:0:0:0:
256,192,39724,1,8,0:0:0:0:
256,192,39737,1,8,0:0:0:0:
256,192,39749,1,8,0:0:0:0:
256,192,39762,1,8,0:0:0:0:
256,192,39774,1,8,0:0:0:0:
256,192,39787,1,8,0:0:0:0:
256,192,39799,1,8,0:0:0:0:
256,192,39812,1,8,0:0:0:0:
256,192,39824,1,8,0:0:0:0:
256,192,39837,1,8,0:0:0:0:
256,192,39849,1,8,0:0:0:0:
256,192,39862,1,8,0:0:0:0:
256,192,39874,1,8,0:0:0:0:
256,192,39887,1,8,0:0:0:0:
256,192,39899,1,8,0:0:0:0:
256,192,39912,1,8,0:0:0:0:
256,192,39924,1,8,0:0:0:0:
256,192,39937,1,8,0:0:0:0:
256,192,39949,1,8,0:0:0:0:
256,192,39962,1,8,0:0:0:0:
256,192,39974,1,8,0:0:0:0:
256,192,39987,1,8,0:0:0:0:
256,192,39999,1,8,0:0:0:0:
256,192,40012,1,8,0:0:0:0:
256,192,40024,1,8,0:0:0:0:
256,192,40037,1,8,0:0:0:0:
256,192,40049,1,8,0:0:0:0:
256,192,40062,1,8,0:0:0:0:
256,192,40074,1,8,0:0:0:0:
256,192,40087,1,8,0:0:0:0:
256,192,40099,1,8,0:0:0:0:
256,192,40112,1,8,0:0:0:0:
256,192,40124,1,8,0:0:0:0:
256,192,40137,1,8,0:0:0:0:
256,192,40149,1,8,0:0:0:0:
256,192,40162,1,8,0:0:0:0:
256,192,40174,1,8,0:0:0:0:
256,192,40187,1,8,0:0:0:0:
256,192,40199,1,8,0:0:0:0:
256,192,40212,1,8,0:0:0:0:
256,192,40224,1,8,0:0:0:0:
256,192,40237,1,8,0:0:0:0:
256,192,40249,1,8,0:0:0:0:
256,192,40262,1,8,0:0:0:0:
256,192,40274,1,8,0:0:0:0:
256,192,40287,1,8,0:0:0:0:
256,192,40299,1,8,0:0:0:0:
256,192,40333,1,4,0:0:0:0:
256,192,40400,1,4,0:0:0:0:
256,192,40466,1,4,0:0:0:0:
256,192,40533,1,4,0:0:0:0:
256,192,40600,1,4,0:0:0:0:
256,192,40666,1,4,0:0:0:0:
256,192,40733,1,4,0:0:0:0:
256,192,40800,1,4,0:0:0:0:
256,192,40866,1,4,0:0:0:0:
256,192,40933,1,4,0:0:0:0:
256,192,41000,1,4,0:0:0:0:
256,192,41066,1,4,0:0:0:0:
256,192,41133,1,4,0:0:0:0:
256,192,41200,1,4,0:0:0:0:
256,192,41266,1,4,0:0:0:0:
256,192,41333,1,4,0:0:0:0:
256,192,41400,1,4,0:0:0:0:
256,192,41466,1,4,0:0:0:0:
256,192,41533,1,4,0:0:0:0:
256,192,41600,1,4,0:0:0:0:
256,192,41666,1,4,0:0:0:0:
256,192,41733,1,4,0:0:0:0:
256,192,41800,1,4,0:0:0:0:
256,192,41866,1,4,0:0:0:0:
256,192,41933,1,4,0:0:0:0:
256,192,42000,1,4,0:0:0:0:
256,192,42066,1,4,0:0:0:0:
256,192,42133,1,4,0:0:0:0:
256,192,42200,1,4,0:0:0:0:
256,192,42266,1,4,0:0:0:0:
256,192,42333,1,4,0:0:0:0:
256,192,42400,1,4,0:0:0:0:
