osu file format v14

[General]
AudioFilename: audio.mp3
AudioLeadIn: 0
PreviewTime: -1
Countdown: 1
SampleSet: Normal
StackLeniency: 0.2
Mode: 0
LetterboxInBreaks: 0
WidescreenStoryboard: 0

[Editor]
DistanceSpacing: 6
BeatDivisor: 4
GridSize: 32
TimelineZoom: 1.1

[Metadata]
Title:Sayonara Moon Town
TitleUnicode:Sayonara Moon Town
Artist:
ArtistUnicode:
Creator:Idrise
Version:Sayonara
Source:
Tags:
BeatmapID:1588675
BeatmapSetID:754623

[Difficulty]
HPDrainRate:6
CircleSize:4
OverallDifficulty:6
ApproachRate:9.5
SliderMultiplier:1.4
SliderTickRate:1

[Events]
//Background and Video events
//Break Periods
//Storyboard Layer 0 (Background)
//Storyboard Layer 1 (Fail)
//Storyboard Layer 2 (Pass)
//Storyboard Layer 3 (Foreground)
//Storyboard Sound Samples

[TimingPoints]
-75.9013928165502,304.568527918782,4,1,0,100,1,0
8256,-66.6666666666667,4,1,0,100,0,0
12563,-200,4,1,0,100,0,0

[HitObjects]
192,64,833,6,0,L|128:160,1,105
105,232,1307,1,0,0:0:0:0:
276,169,1465,1,0,0:0:0:0:
287,289,1623,1,0,0:0:0:0:
162,154,1781,1,0,0:0:0:0:
324,177,1939,1,0,0:0:0:0:
146,305,2096,1,0,0:0:0:0:
397,267,2254,1,0,0:0:0:0:
373,41,2412,1,0,0:0:0:0:
257,106,2570,1,0,0:0:0:0:
359,150,2728,2,0,L|258:229,1,105
216,57,3281,6,0,P|161:58|113:103,1,105
98,319,3731,1,0,0:0:0:0:
263,240,3883,1,0,0:0:0:0:
101,175,4035,1,0,0:0:0:0:
263,240,4188,1,0,0:0:0:0:
94,249,4340,1,0,0:0:0:0:
255,170,4492,1,0,0:0:0:0:
264,314,4644,1,0,0:0:0:0:
94,249,4797,1,0,0:0:0:0:
261,169,4949,1,0,0:0:0:0:
315,255,5101,5,0,0:0:0:0:
373,204,5254,1,0,0:0:0:0:
379,127,5406,1,0,0:0:0:0:
319,78,5558,1,0,0:0:0:0:
242,79,5710,6,0,L|139:144,1,105
170,248,6167,1,0,0:0:0:0:
345,299,6320,1,0,0:0:0:0:
206,119,6472,1,0,0:0:0:0:
144,348,6624,1,0,0:0:0:0:
390,196,6776,1,0,0:0:0:0:
76,185,6929,1,0,0:0:0:0:
317,336,7081,1,0,0:0:0:0:
195,97,7233,1,0,0:0:0:0:
384,279,7386,1,0,0:0:0:0:
94,235,7538,1,0,0:0:0:0:
390,94,7690,1,0,0:0:0:0:
281,318,7842,1,0,0:0:0:0:
153,97,7995,1,0,0:0:0:0:
87,316,8147,5,0,0:0:0:0:
87,316,8299,2,0,L|190:266,1,105.000004005432
251,227,8604,1,0,0:0:0:0:
304,151,8756,2,0,L|312:39,1,105.000004005432
231,42,9061,1,0,0:0:0:0:
144,33,9213,2,0,L|97:141,1,105.000004005432
69,201,9518,1,0,0:0:0:0:
60,289,9670,2,0,L|175:329,1,105.000004005432
244,324,9974,1,0,0:0:0:0:
339,301,10127,2,0,L|441:243,1,105.000004005432
460,166,10431,1,0,0:0:0:0:
456,70,10583,2,0,B|394:46|394:46|324:131,1,157.500006008148
94,137,11040,1,0,0:0:0:0:
215,214,11193,1,0,0:0:0:0:
86,284,11345,1,0,0:0:0:0:
94,137,11497,1,0,0:0:0:0:
228,71,11649,1,0,0:0:0:0:
215,214,11802,1,0,0:0:0:0:
341,189,11954,1,0,0:0:0:0:
423,312,12106,1,0,0:0:0:0:
275,307,12259,1,0,0:0:0:0:
341,189,12411,1,0,0:0:0:0:
341,189,12563,1,0,0:0:0:0:
270,104,12716,5,0,0:0:0:0:
270,104,12791,1,0,0:0:0:0:
270,104,12868,1,0,0:0:0:0:
270,104,12944,2,0,P|209:144|206:187,1,105.000004005432
119,275,13705,1,0,0:0:0:0:
323,320,13934,1,0,0:0:0:0:
255,120,14162,1,0,0:0:0:0:
