osu file format v14

[General]
AudioFilename: audio.mp3
AudioLeadIn: 0
PreviewTime: -1
Countdown: 1
SampleSet: None
StackLeniency: 0.7
Mode: 3
LetterboxInBreaks: 0
SpecialStyle: 0
WidescreenStoryboard: 1

[Editor]
DistanceSpacing: 0.5
BeatDivisor: 4
GridSize: 16
TimelineZoom: 2.999999

[Metadata]
Title:Seth Rollins -The Second Coming- (Adam Massacre cover).
TitleUnicode:Seth Rollins -The Second Coming- (Adam Massacre cover).
Artist:
ArtistUnicode:
Creator:Grundle
Version:hi
Source:
Tags:
BeatmapID:1108143
BeatmapSetID:433056

[Difficulty]
HPDrainRate:5
CircleSize:4
OverallDifficulty:5
ApproachRate:10
SliderMultiplier:2.3
SliderTickRate:1

[Events]
//Background and Video events
//Break Periods
//Storyboard Layer 0 (Background)
//Storyboard Layer 1 (Fail)
//Storyboard Layer 2 (Pass)
//Storyboard Layer 3 (Foreground)
//Storyboard Sound Samples

[TimingPoints]
0,307.692307692308,4,1,0,100,1,0
230,307.692307692308,4,1,0,100,1,0
4076,307.692307692308,4,1,0,100,1,0
13922,-100,4,1,0,100,0,0
15152,307.692307692308,4,1,0,100,1,1
34844,-100,4,1,0,100,0,0
47152,-100,4,1,0,100,0,1
66844,-100,4,1,0,100,0,0

[HitObjects]
64,192,230,1,0,0:0:0:0:
192,192,269,1,0,0:0:0:0:
320,192,307,128,0,3692:0:0:0:0:
64,192,4076,1,0,0:0:0:0:
448,192,4152,1,0,0:0:0:0:
320,192,4229,1,0,0:0:0:0:
192,192,4306,1,0,0:0:0:0:
64,192,4383,1,0,0:0:0:0:
192,192,4691,1,0,0:0:0:0:
64,192,4768,1,0,0:0:0:0:
192,192,4845,1,0,0:0:0:0:
320,192,4922,1,0,0:0:0:0:
448,192,4999,1,0,0:0:0:0:
448,192,5614,1,0,0:0:0:0:
320,192,5691,1,0,0:0:0:0:
192,192,5768,1,0,0:0:0:0:
320,192,5845,1,0,0:0:0:0:
448,192,5922,1,0,0:0:0:0:
64,192,6229,1,0,0:0:0:0:
192,192,6306,1,0,0:0:0:0:
320,192,6383,1,0,0:0:0:0:
192,192,6460,1,0,0:0:0:0:
64,192,6537,1,0,0:0:0:0:
320,192,6845,1,0,0:0:0:0:
448,192,6922,1,0,0:0:0:0:
320,192,6999,1,0,0:0:0:0:
192,192,7076,1,0,0:0:0:0:
64,192,7152,1,0,0:0:0:0:
64,192,7460,1,0,0:0:0:0:
192,192,7537,1,0,0:0:0:0:
320,192,7614,1,0,0:0:0:0:
448,192,7691,1,0,0:0:0:0:
320,192,7768,1,0,0:0:0:0:
64,192,8383,1,0,0:0:0:0:
192,192,8460,1,0,0:0:0:0:
320,192,8537,1,0,0:0:0:0:
64,192,8614,1,0,0:0:0:0:
192,192,8691,1,0,0:0:0:0:
448,192,8999,1,0,0:0:0:0:
320,192,9076,1,0,0:0:0:0:
192,192,9152,1,0,0:0:0:0:
448,192,9229,1,0,0:0:0:0:
320,192,9306,1,0,0:0:0:0:
64,192,9614,1,0,0:0:0:0:
192,192,9691,1,0,0:0:0:0:
448,192,9768,1,0,0:0:0:0:
320,192,9845,1,0,0:0:0:0:
192,192,9922,1,0,0:0:0:0:
448,192,10537,1,0,0:0:0:0:
192,192,10614,1,0,0:0:0:0:
320,192,10691,1,0,0:0:0:0:
192,192,10768,1,0,0:0:0:0:
64,192,10845,1,0,0:0:0:0:
64,192,11152,1,0,0:0:0:0:
320,192,11229,1,0,0:0:0:0:
192,192,11306,1,0,0:0:0:0:
320,192,11383,1,0,0:0:0:0:
448,192,11460,1,0,0:0:0:0:
448,192,11768,1,0,0:0:0:0:
320,192,11845,1,0,0:0:0:0:
192,192,11922,1,0,0:0:0:0:
64,192,11999,1,0,0:0:0:0:
192,192,12076,1,0,0:0:0:0:
64,192,12383,1,0,0:0:0:0:
192,192,12460,1,0,0:0:0:0:
320,192,12537,1,0,0:0:0:0:
448,192,12614,1,0,0:0:0:0:
320,192,12691,1,0,0:0:0:0:
64,192,13306,1,0,0:0:0:0:
192,192,13383,1,0,0:0:0:0:
320,192,13460,1,0,0:0:0:0:
448,192,13537,1,0,0:0:0:0:
192,192,13614,1,0,0:0:0:0:
320,192,13691,1,0,0:0:0:0:
192,192,13768,1,0,0:0:0:0:
320,192,13845,1,0,0:0:0:0:
448,192,15152,128,0,15459:0:0:0:0:
320,192,15152,1,0,0:0:0:0:
192,192,15152,1,0,0:0:0:0:
64,192,15459,1,0,0:0:0:0:
192,192,15459,1,0,0:0:0:0:
320,192,15613,1,0,0:0:0:0:
192,192,15767,1,0,0:0:0:0:
448,192,15767,1,0,0:0:0:0:
64,192,15921,1,0,0:0:0:0:
448,192,16075,1,0,0:0:0:0:
320,192,16075,1,0,0:0:0:0:
192,192,16228,1,0,0:0:0:0:
64,192,16382,128,0,16690:0:0:0:0:
320,192,16382,1,0,0:0:0:0:
448,192,16690,1,0,0:0:0:0:
320,192,16690,1,0,0:0:0:0:
192,192,16844,1,0,0:0:0:0:
