osu file format v14

[General]
AudioFilename: audio.mp3
AudioLeadIn: 0
PreviewTime: -1
Countdown: 1
SampleSet: None
StackLeniency: 0.7
Mode: 0
LetterboxInBreaks: 0
WidescreenStoryboard: 0

[Editor]
DistanceSpacing: 1.5
BeatDivisor: 8
GridSize: 4
TimelineZoom: 1

[Metadata]
Title:Jellyfish Jam
TitleUnicode:Jellyfish Jam
Artist:
ArtistUnicode:
Creator:GothemCloud
Version:Insane
Source:
Tags:Spongebob
BeatmapID:1711393
BeatmapSetID:816075

[Difficulty]
HPDrainRate:5
CircleSize:4
OverallDifficulty:5
ApproachRate:9
SliderMultiplier:1.4
SliderTickRate:1

[Events]
//Background and Video events
//Break Periods
//Storyboard Layer 0 (Background)
//Storyboard Layer 1 (Fail)
//Storyboard Layer 2 (Pass)
//Storyboard Layer 3 (Foreground)
//Storyboard Sound Samples

[TimingPoints]
349,480.000967741934,4,1,0,100,1,0
15589,-66.6666666666667,4,1,0,100,0,0
15689,-52.6315789473684,4,1,0,100,0,0
31309,-57.1428571428571,4,1,0,100,0,0
46549,-44.4444444444445,4,1,0,100,0,0
54589,-33.3333333333333,4,1,0,100,0,0
58069,-25,4,1,0,100,0,0
69590,-66.6666666666667,4,1,0,100,0,0
84469,-33.3333333333333,4,1,0,100,0,0

[HitObjects]
124,94,349,5,8,0:0:0:0:
332,65,829,1,8,0:0:0:0:
376,270,1309,1,8,0:0:0:0:
170,310,1789,1,8,0:0:0:0:
252,116,2269,5,8,0:0:0:0:
330,310,2749,1,8,0:0:0:0:
148,204,3229,1,8,0:0:0:0:
357,192,3709,1,8,0:0:0:0:
170,289,4189,1,8,0:0:0:0:
204,195,4429,5,4,0:0:0:0:
214,161,4549,1,4,0:0:0:0:
226,128,4669,1,4,0:0:0:0:
239,95,4789,1,4,0:0:0:0:
343,96,5149,5,4,0:0:0:0:
353,129,5269,1,4,0:0:0:0:
366,161,5389,1,4,0:0:0:0:
380,193,5509,1,4,0:0:0:0:
164,187,6349,5,4,0:0:0:0:
198,187,6469,1,4,0:0:0:0:
232,187,6589,1,4,0:0:0:0:
266,187,6709,1,4,0:0:0:0:
334,266,7069,1,4,0:0:0:0:
299,267,7189,1,4,0:0:0:0:
264,267,7309,1,4,0:0:0:0:
229,267,7429,1,4,0:0:0:0:
126,44,8269,5,4,0:0:0:0:
150,69,8389,1,4,0:0:0:0:
120,88,8509,1,4,0:0:0:0:
97,61,8629,1,4,0:0:0:0:
115,164,8989,5,4,0:0:0:0:
116,198,9109,1,4,0:0:0:0:
117,232,9229,1,4,0:0:0:0:
119,266,9349,1,4,0:0:0:0:
399,352,10189,5,4,0:0:0:0:
431,325,10309,1,4,0:0:0:0:
403,293,10429,1,4,0:0:0:0:
429,260,10549,1,4,0:0:0:0:
303,249,10909,5,4,0:0:0:0:
269,274,11029,1,4,0:0:0:0:
238,245,11149,1,4,0:0:0:0:
205,272,11269,1,4,0:0:0:0:
96,52,12109,5,4,0:0:0:0:
119,78,12229,1,4,0:0:0:0:
119,112,12349,1,4,0:0:0:0:
93,136,12469,1,4,0:0:0:0:
197,145,12829,5,4,0:0:0:0:
172,120,12949,1,4,0:0:0:0:
175,85,13069,1,4,0:0:0:0:
203,64,13189,1,4,0:0:0:0:
375,238,14029,5,4,0:0:0:0:
375,238,14149,1,4,0:0:0:0:
375,238,14269,1,4,0:0:0:0:
375,238,14389,1,4,0:0:0:0:
258,191,14749,5,6,0:0:0:0:
345,121,14989,1,6,0:0:0:0:
232,29,15229,1,6,0:0:0:0:
92,183,15469,1,6,0:0:0:0:
329,359,15709,5,12,0:0:0:0:
411,188,16069,1,0,0:0:0:0:
352,76,16309,1,0,0:0:0:0:
295,47,16429,1,0,0:0:0:0:
171,69,16669,1,0,0:0:0:0:
82,158,16909,1,0,0:0:0:0:
63,282,17149,5,0,0:0:0:0:
73,303,17389,1,0,0:0:0:0:
83,325,17629,1,0,0:0:0:0:
244,207,17989,1,0,0:0:0:0:
146,283,18229,1,0,0:0:0:0:
199,241,18349,1,0,0:0:0:0:
305,159,18589,1,0,0:0:0:0:
201,238,18829,1,0,0:0:0:0:
201,238,19069,1,0,0:0:0:0:
255,190,19549,5,0,0:0:0:0:
92,93,19909,1,0,0:0:0:0:
53,213,20149,2,0,L|71:301,1,52.5000020027161
166,336,20509,1,0,0:0:0:0:
291,324,20749,1,0,0:0:0:0:
180,263,20989,5,0,0:0:0:0:
326,199,21229,1,0,0:0:0:0:
138,150,21469,1,0,0:0:0:0:
370,75,21829,1,0,0:0:0:0:
421,189,22069,1,0,0:0:0:0:
419,213,22189,1,0,0:0:0:0:
326,298,22429,1,0,0:0:0:0:
208,343,22669,1,0,0:0:0:0:
82,332,22909,1,0,0:0:0:0:
256,193,23389,5,0,0:0:0:0:
91,99,23749,1,0,0:0:0:0:
216,85,23989,1,0,0:0:0:0:
249,31,24109,1,0,0:0:0:0:
369,66,24349,1,0,0:0:0:0:
441,168,24589,1,0,0:0:0:0:
315,181,24829,5,0,0:0:0:0:
251,72,25069,1,0,0:0:0:0:
315,181,25309,1,0,0:0:0:0:
143,101,25669,1,0,0:0:0:0:
63,198,25909,1,0,0:0:0:0:
102,247,26029,1,0,0:0:0:0:
172,351,26269,1,0,0:0:0:0:
297,356,26509,1,0,0:0:0:0:
172,351,26749,1,0,0:0:0:0:
255,192,27229,5,0,0:0:0:0:
428,266,27589,1,0,0:0:0:0:
315,322,27829,1,0,0:0:0:0:
240,276,27949,1,0,0:0:0:0:
118,243,28189,1,0,0:0:0:0:
25,328,28429,1,0,0:0:0:0:
44,145,28669,5,0,0:0:0:0:
286,58,28909,1,0,0:0:0:0:
464,238,29149,1,0,0:0:0:0:
201,238,29509,1,0,0:0:0:0:
244,356,29749,2,0,L|346:339,1,52.5000020027161
418,319,30109,1,0,0:0:0:0:
423,33,30349,1,0,0:0:0:0:
201,238,30589,1,0,0:0:0:0:
255,192,31069,1,0,0:0:0:0:
255,52,31429,5,0,0:0:0:0:
108,175,31669,2,0,L|210:158,1,52.5000020027161
358,331,32029,1,0,0:0:0:0:
423,33,32269,1,0,0:0:0:0:
49,305,32509,1,0,0:0:0:0:
255,191,32989,1,0,0:0:0:0:
447,298,33349,5,0,0:0:0:0:
439,151,33589,1,0,0:0:0:0:
511,146,33709,1,0,0:0:0:0:
289,17,33949,1,0,0:0:0:0:
42,72,34189,1,0,0:0:0:0:
97,162,34309,1,0,0:0:0:0:
153,245,34429,1,0,0:0:0:0:
213,333,34549,1,0,0:0:0:0:
256,190,34909,1,0,0:0:0:0:
426,333,35269,5,0,0:0:0:0:
396,188,35509,1,0,0:0:0:0:
329,156,35629,1,0,0:0:0:0:
166,45,35869,1,0,0:0:0:0:
70,285,36109,1,0,0:0:0:0:
477,333,36349,1,0,0:0:0:0:
256,190,36829,1,0,0:0:0:0:
423,46,37189,5,0,0:0:0:0:
431,192,37429,1,0,0:0:0:0:
426,265,37549,1,0,0:0:0:0:
189,363,37789,1,0,0:0:0:0:
23,63,38029,1,0,0:0:0:0:
123,44,38149,1,0,0:0:0:0:
226,21,38269,1,0,0:0:0:0:
327,1,38389,1,0,0:0:0:0:
255,190,38749,1,0,0:0:0:0:
444,77,39109,5,0,0:0:0:0:
443,250,39349,1,0,0:0:0:0:
438,274,39469,1,0,0:0:0:0:
161,348,39709,1,0,0:0:0:0:
15,22,39949,1,0,0:0:0:0:
483,355,40189,1,0,0:0:0:0:
256,191,40669,1,0,0:0:0:0:
43,188,41029,5,0,0:0:0:0:
154,359,41269,1,0,0:0:0:0:
227,359,41389,1,0,0:0:0:0:
426,264,41629,1,0,0:0:0:0:
351,42,41869,1,0,0:0:0:0:
287,134,41989,1,0,0:0:0:0:
226,42,42109,1,0,0:0:0:0:
175,134,42229,1,0,0:0:0:0:
255,190,42589,1,0,0:0:0:0:
255,377,42949,5,0,0:0:0:0:
384,307,43189,1,0,0:0:0:0:
253,265,43309,1,0,0:0:0:0:
12,356,43549,1,0,0:0:0:0:
112,20,43789,1,0,0:0:0:0:
478,369,44029,1,0,0:0:0:0:
255,191,44509,1,0,0:0:0:0:
460,42,44869,5,0,0:0:0:0:
184,39,45109,1,0,0:0:0:0:
365,154,45229,1,0,0:0:0:0:
452,359,45469,1,0,0:0:0:0:
355,36,45709,1,0,0:0:0:0:
206,362,45949,1,0,0:0:0:0:
70,15,46189,1,0,0:0:0:0:
254,188,46429,1,0,0:0:0:0:
20,349,46789,5,0,0:0:0:0:
330,295,47029,1,0,0:0:0:0:
178,252,47149,1,0,0:0:0:0:
405,33,47389,1,0,0:0:0:0:
400,347,47629,1,0,0:0:0:0:
195,107,47869,1,0,0:0:0:0:
484,231,48109,1,0,0:0:0:0:
190,344,48349,5,0,0:0:0:0:
25,192,48709,1,0,0:0:0:0:
280,7,48949,1,0,0:0:0:0:
470,301,49069,1,0,0:0:0:0:
16,280,49309,1,0,0:0:0:0:
471,142,49549,1,0,0:0:0:0:
15,163,49789,1,0,0:0:0:0:
255,192,50269,5,0,0:0:0:0:
27,122,50629,1,0,0:0:0:0:
395,17,50869,1,0,0:0:0:0:
478,346,50989,1,0,0:0:0:0:
22,194,51229,1,0,0:0:0:0:
375,225,51469,1,0,0:0:0:0:
81,88,51709,1,0,0:0:0:0:
54,166,51949,5,0,0:0:0:0:
112,342,52189,1,0,0:0:0:0:
497,127,52549,1,0,0:0:0:0:
49,32,52789,1,0,0:0:0:0:
373,276,52909,1,0,0:0:0:0:
40,331,53149,1,0,0:0:0:0:
458,36,53389,1,0,0:0:0:0:
460,361,53629,1,0,0:0:0:0:
255,191,54109,5,0,0:0:0:0:
102,58,55309,6,0,L|103:309,1,210.000008010865
470,270,55669,2,0,L|470:41,1,210.000008010865
138,276,56269,6,0,L|310:107,1,210.000008010865
152,22,56629,2,0,L|315:193,1,210.000008010865
449,338,57229,6,0,L|449:115,1,210.000008010865
66,327,57709,1,0,0:0:0:0:
369,52,57949,1,0,0:0:0:0:
51,36,58189,6,0,L|253:261,1,280
107,1,58549,2,0,L|301:216,1,280
454,337,59149,6,0,B|294:295|294:295|451:222,1,280
157,332,59509,2,0,B|158:178|158:178|303:93,1,280
66,117,60109,6,0,P|154:0|292:129,1,280
75,131,60469,2,0,P|227:151|198:260,1,280
467,343,61069,6,0,L|467:54,1,280
34,347,61549,1,0,0:0:0:0:
477,14,61789,1,0,0:0:0:0:
158,265,62029,5,0,0:0:0:0:
157,105,62149,1,0,0:0:0:0:
325,103,62269,1,0,0:0:0:0:
330,262,62389,1,0,0:0:0:0:
65,335,62749,5,0,0:0:0:0:
159,205,62869,1,0,0:0:0:0:
106,334,62989,1,0,0:0:0:0:
30,203,63109,1,0,0:0:0:0:
25,30,63469,5,0,0:0:0:0:
487,35,63709,1,0,0:0:0:0:
449,353,63949,5,0,0:0:0:0:
418,216,64069,1,0,0:0:0:0:
307,121,64189,1,0,0:0:0:0:
163,129,64309,1,0,0:0:0:0:
90,325,64669,5,0,0:0:0:0:
179,176,64789,1,0,0:0:0:0:
226,316,64909,1,0,0:0:0:0:
54,200,65029,1,0,0:0:0:0:
482,353,65389,5,0,0:0:0:0:
17,22,65629,1,0,0:0:0:0:
192,24,65869,5,0,0:0:0:0:
191,166,65989,1,0,0:0:0:0:
187,296,66109,1,0,0:0:0:0:
313,298,66229,1,0,0:0:0:0:
443,142,66589,5,0,0:0:0:0:
284,50,66709,1,0,0:0:0:0:
361,212,66829,1,0,0:0:0:0:
203,122,66949,1,0,0:0:0:0:
17,355,67309,5,0,0:0:0:0:
490,21,67549,1,0,0:0:0:0:
255,302,67789,5,0,0:0:0:0:
374,190,67909,1,0,0:0:0:0:
256,85,68029,1,0,0:0:0:0:
143,192,68149,1,0,0:0:0:0:
256,192,68509,12,0,69469,0:0:0:0:
323,129,69709,5,0,0:0:0:0:
384,214,69829,1,0,0:0:0:0:
252,301,70069,2,0,L|75:304,1,157.500006008148
55,151,70669,1,0,0:0:0:0:
202,205,70909,1,0,0:0:0:0:
350,151,71149,1,0,0:0:0:0:
350,151,71269,1,0,0:0:0:0:
350,151,71389,6,0,L|439:222,1,105.000004005432
429,295,71749,2,0,L|291:338,1,105.000004005432
250,317,72109,1,0,0:0:0:0:
172,302,72229,1,0,0:0:0:0:
99,271,72349,1,0,0:0:0:0:
54,143,72589,1,0,0:0:0:0:
52,111,72649,1,0,0:0:0:0:
60,75,72709,1,0,0:0:0:0:
138,45,72829,6,0,L|224:113,1,105.000004005432
377,111,73309,1,0,0:0:0:0:
453,248,73549,1,0,0:0:0:0:
451,273,73669,1,0,0:0:0:0:
447,292,73789,1,0,0:0:0:0:
291,317,74029,1,0,0:0:0:0:
291,317,74149,2,0,L|177:282,1,105.000004005432
122,246,74509,1,0,0:0:0:0:
71,185,74629,1,0,0:0:0:0:
67,106,74749,1,0,0:0:0:0:
210,40,74989,5,0,0:0:0:0:
255,41,75109,2,0,L|334:45,1,52.5000020027161
223,176,75469,1,0,0:0:0:0:
366,110,75709,1,0,0:0:0:0:
409,127,75829,1,0,0:0:0:0:
440,156,75949,1,0,0:0:0:0:
442,220,76189,2,0,L|407:233,4,26.2500010013581
309,305,76669,5,0,0:0:0:0:
155,339,76909,1,0,0:0:0:0:
59,213,77269,1,0,0:0:0:0:
137,204,77389,1,0,0:0:0:0:
28,89,77629,1,0,0:0:0:0:
36,10,77749,1,0,0:0:0:0:
105,86,77869,1,0,0:0:0:0:
105,7,77989,1,0,0:0:0:0:
190,47,78109,1,0,0:0:0:0:
271,39,78349,5,0,0:0:0:0:
309,47,78409,1,0,0:0:0:0:
333,78,78469,2,0,L|379:137,1,52.5000020027161
489,215,78829,1,0,0:0:0:0:
355,298,79069,1,0,0:0:0:0:
219,300,79309,2,0,P|157:279|155:273,1,52.5000020027161
51,191,79669,1,0,0:0:0:0:
41,112,79789,1,0,0:0:0:0:
87,48,79909,1,0,0:0:0:0:
163,68,80029,2,0,L|209:79,2,26.2500010013581
206,133,80269,5,0,0:0:0:0:
362,118,80509,1,0,0:0:0:0:
362,118,80749,2,0,P|336:59|282:52,1,105.000004005432
143,56,81229,1,0,0:0:0:0:
74,94,81349,1,0,0:0:0:0:
231,86,81589,1,0,0:0:0:0:
168,133,81709,1,0,0:0:0:0:
164,211,81829,1,0,0:0:0:0:
222,263,81949,2,0,L|258:289,2,26.2500010013581
299,278,82189,1,0,0:0:0:0:
406,162,82429,5,0,0:0:0:0:
354,102,82549,1,0,0:0:0:0:
284,64,82669,1,0,0:0:0:0:
187,67,82789,1,0,0:0:0:0:
106,116,82909,1,0,0:0:0:0:
83,271,83149,1,0,0:0:0:0:
398,245,83389,1,0,0:0:0:0:
36,40,83629,1,0,0:0:0:0:
486,93,83869,1,0,0:0:0:0:
136,282,84109,5,0,0:0:0:0:
103,304,84169,1,0,0:0:0:0:
64,296,84229,1,0,0:0:0:0:
36,267,84289,1,0,0:0:0:0:
36,227,84349,1,0,0:0:0:0:
280,28,84589,1,0,0:0:0:0:
484,267,84829,1,0,0:0:0:0:
180,351,85069,5,0,0:0:0:0:
261,243,85189,1,0,0:0:0:0:
346,137,85309,1,0,0:0:0:0:
422,33,85429,1,0,0:0:0:0:
452,346,85669,1,0,0:0:0:0:
138,317,85909,1,0,0:0:0:0:
85,168,86029,1,0,0:0:0:0:
79,89,86089,1,0,0:0:0:0:
136,35,86149,1,0,0:0:0:0:
293,42,86269,5,0,0:0:0:0:
436,107,86509,1,0,0:0:0:0:
451,253,86749,1,0,0:0:0:0:
313,348,86989,1,0,0:0:0:0:
206,341,87109,1,0,0:0:0:0:
206,341,87169,1,0,0:0:0:0:
206,341,87229,2,0,L|16:227,1,210.000008010865
138,33,87709,2,0,L|363:79,1,210.000008010865
492,126,88069,1,0,0:0:0:0:
232,304,88309,5,0,0:0:0:0:
379,249,88429,1,0,0:0:0:0:
233,189,88549,1,0,0:0:0:0:
485,26,88669,1,0,0:0:0:0:
