osu file format v14

[General]
AudioFilename: audio.mp3
AudioLeadIn: 0
PreviewTime: -1
Countdown: 0
SampleSet: Normal
StackLeniency: 0.7
Mode: 0
LetterboxInBreaks: 0
WidescreenStoryboard: 0

[Editor]
DistanceSpacing: 1.3
BeatDivisor: 2
GridSize: 16
TimelineZoom: 1

[Metadata]
Title:rap god
TitleUnicode:rap god
Artist:
ArtistUnicode:
Creator:Future God
Version:
Source:
Tags:
BeatmapID:2490099
BeatmapSetID:1195327

[Difficulty]
HPDrainRate:10
CircleSize:6
OverallDifficulty:10
ApproachRate:10
SliderMultiplier:1.4
SliderTickRate:1

[Events]
//Background and Video events
Video,0,"video0-u1CGtd7.mp4"
//Break Periods
//Storyboard Layer 0 (Background)
//Storyboard Layer 1 (Fail)
//Storyboard Layer 2 (Pass)
//Storyboard Layer 3 (Foreground)
//Storyboard Layer 4 (Overlay)
//Storyboard Sound Samples

[TimingPoints]
0,75,4,1,0,100,1,0

[Colours]
Combo1 : 255,0,255
Combo2 : 255,0,0

[HitObjects]
240,151,374,6,0,L|236:145,6,8.75
168,272,375,1,0,0:0:0:0:
256,192,379,12,0,613,0:0:0:0:
238,217,416,6,0,L|281:306,1,96.25
402,236,445,2,0,L|227:151,1,140
265,233,468,2,0,L|139:126,1,166.25
159,184,524,2,0,L|322:247,1,175
245,130,525,1,0,0:0:0:0:
256,192,567,12,0,8611,0:0:0:0:
309,51,585,6,0,L|204:85,1,105
256,192,637,12,0,688,0:0:0:0:
401,318,637,5,0,0:0:0:0:
256,192,656,12,0,8611,0:0:0:0:
256,192,670,12,0,787,0:0:0:0:
268,53,698,6,0,L|107:120,1,175
244,251,712,1,0,0:0:0:0:
256,192,731,12,0,838,0:0:0:0:
178,172,759,6,0,L|300:110,1,131.25
403,98,787,1,0,0:0:0:0:
256,192,820,12,0,862,0:0:0:0:
256,192,871,12,0,899,0:0:0:0:
262,244,876,6,0,L|352:241,1,87.5
256,192,881,12,0,942,0:0:0:0:
194,221,900,5,0,0:0:0:0:
256,192,923,12,0,1059,0:0:0:0:
321,223,946,6,0,L|157:17,1,262.5
256,192,970,12,0,1110,0:0:0:0:
358,133,975,5,0,0:0:0:0:
256,192,979,12,0,1017,0:0:0:0:
248,69,1007,6,0,L|344:118,1,70
256,192,1035,12,0,1101,0:0:0:0:
343,195,1045,6,0,L|255:266,1,70
348,339,1050,1,0,0:0:0:0:
256,192,1073,12,0,1185,0:0:0:0:
101,179,1077,6,0,L|258:165,1,157.5
222,273,1082,2,0,L|111:198,2,70
256,192,1120,12,0,1302,0:0:0:0:
256,192,1134,12,0,1176,0:0:0:0:
288,169,1138,6,0,L|216:241,1,96.25
132,142,1157,2,0,L|185:84,1,70
118,222,1162,1,0,0:0:0:0:
256,192,1181,12,0,1321,0:0:0:0:
202,246,1190,6,0,L|236:114,1,131.25
237,99,1195,2,0,L|300:182,1,70
256,192,1223,12,0,1335,0:0:0:0:
333,218,1237,5,0,0:0:0:0:
230,97,1251,2,0,L|180:222,1,131.25
256,192,1321,12,0,1443,0:0:0:0:
256,192,1335,12,0,1396,0:0:0:0:
419,318,1349,6,0,L|300:268,1,122.5
59,205,1350,1,0,0:0:0:0:
256,192,1373,12,0,1532,0:0:0:0:
256,192,1382,12,0,3018,0:0:0:0:
202,187,1401,6,0,B|354:181|72:215|252:225,2,175
276,282,1425,1,0,0:0:0:0:
256,192,1434,12,0,1663,0:0:0:0:
227,275,1457,6,0,L|167:119,1,140
256,192,1471,12,0,1593,0:0:0:0:
197,71,1495,6,0,L|270:67,2,70
161,149,1500,1,0,0:0:0:0:
269,193,1555,2,0,L|230:60,1,131.25
294,88,1570,2,0,L|307:213,1,70
256,192,1574,12,0,1617,0:0:0:0:
296,254,1575,5,0,0:0:0:0:
165,246,1612,1,0,0:0:0:0:
256,192,1621,12,0,1682,0:0:0:0:
256,192,1682,12,0,1738,0:0:0:0:
256,192,1720,12,0,2052,0:0:0:0:
256,192,1724,12,0,1865,0:0:0:0:
444,250,1725,5,0,0:0:0:0:
312,154,1780,2,0,L|136:140,1,175
256,192,1785,12,0,1827,0:0:0:0:
353,213,1795,6,0,L|253:298,1,70
255,216,1800,1,0,0:0:0:0:
139,124,1832,2,0,L|175:108,2,35
256,192,1837,12,0,1926,0:0:0:0:
256,192,1874,12,0,1954,0:0:0:0:
197,104,1888,6,0,L|336:95,1,140
234,117,1912,1,0,0:0:0:0:
256,192,1931,12,0,2001,0:0:0:0:
336,94,1935,6,0,P|117:57|213:181,1,533.75
354,187,1945,2,0,L|364:295,1,70
256,192,1973,12,0,2029,0:0:0:0:
338,353,1982,6,0,P|218:316|267:145,1,280
321,276,1987,1,0,0:0:0:0:
256,192,2034,12,0,2174,0:0:0:0:
225,251,2066,6,0,L|219:170,1,78.75
256,192,2071,12,0,2113,0:0:0:0:
270,156,2095,6,0,L|277:247,1,70
194,128,2113,2,0,L|380:125,1,183.75
256,192,2118,12,0,2198,0:0:0:0:
299,277,2132,6,0,B|195:185|233:168|385:196,2,210
256,192,2170,12,0,2226,0:0:0:0:
361,138,2174,6,0,P|173:182|260:220,1,542.5
256,192,2184,12,0,2249,0:0:0:0:
256,192,2221,12,0,2287,0:0:0:0:
256,192,2268,12,0,2296,0:0:0:0:
256,192,2282,12,0,2413,0:0:0:0:
228,184,2305,6,0,L|232:92,1,87.5
256,192,2320,12,0,2460,0:0:0:0:
216,251,2357,6,0,L|303:69,1,140
237,137,2362,2,0,L|285:232,1,105
256,192,2418,12,0,2451,0:0:0:0:
256,192,2432,12,0,2662,0:0:0:0:
348,167,2437,5,0,0:0:0:0:
256,192,2470,12,0,2535,0:0:0:0:
256,192,2474,12,0,2540,0:0:0:0:
355,229,2493,6,0,P|231:218|138:172,1,227.5
178,206,2545,2,0,L|237:140,1,70
85,166,2550,1,0,0:0:0:0:
256,192,2568,12,0,2629,0:0:0:0:
256,192,2573,12,0,2695,0:0:0:0:
306,143,2582,6,0,L|231:181,2,70
348,167,2625,1,0,0:0:0:0:
142,210,2657,2,0,L|294:257,1,140
218,234,2666,2,0,L|241:142,2,87.5
256,192,2671,12,0,2695,0:0:0:0:
256,192,2685,12,0,2751,0:0:0:0:
364,266,2695,6,0,L|244:231,2,70
186,196,2700,1,0,0:0:0:0:
256,192,2718,12,0,2784,0:0:0:0:
284,244,2737,5,0,0:0:0:0:
202,97,2746,2,0,L|161:149,2,61.25
218,190,2770,2,0,L|237:70,1,70
278,132,2775,1,0,0:0:0:0:
256,192,2784,12,0,2924,0:0:0:0:
174,251,2807,6,0,L|229:274,2,52.5
221,115,2812,1,0,0:0:0:0:
256,192,2821,12,0,2859,0:0:0:0:
107,153,2850,5,0,0:0:0:0:
256,192,2868,12,0,2943,0:0:0:0:
256,192,2873,12,0,2952,0:0:0:0:
332,245,2882,6,0,L|135:162,1,210
108,165,2887,1,0,0:0:0:0:
237,181,2920,2,0,L|190:203,2,52.5
164,270,2925,1,0,0:0:0:0:
256,192,2934,12,0,3009,0:0:0:0:
172,133,2957,6,0,L|354:142,1,140
176,269,2962,1,0,0:0:0:0:
256,192,2971,12,0,3206,0:0:0:0:
189,228,2976,6,0,L|263:217,2,70
331,147,2995,2,0,L|140:238,1,210
298,245,3000,1,0,0:0:0:0:
256,192,3032,12,0,3088,0:0:0:0:
370,201,3037,5,0,0:0:0:0:
244,189,3051,2,0,L|191:121,1,78.75
256,192,3070,12,0,3187,0:0:0:0:
423,155,3075,5,0,0:0:0:0:
449,212,3112,1,0,0:0:0:0:
256,192,3135,12,0,3252,0:0:0:0:
249,128,3154,6,0,P|80:158|185:117,1,980
349,277,3187,1,0,0:0:0:0:
256,192,3220,12,0,3285,0:0:0:0:
256,192,3224,12,0,3295,0:0:0:0:
234,238,3225,5,0,0:0:0:0:
229,133,3266,2,0,L|241:202,1,70
256,192,3281,12,0,3346,0:0:0:0:
203,210,3295,6,0,L|282:95,2,140
255,142,3300,1,0,0:0:0:0:
256,192,3318,12,0,3360,0:0:0:0:
241,202,3323,6,0,P|208:192|317:141,1,350
256,192,3337,12,0,3510,0:0:0:0:
256,192,3370,12,0,3454,0:0:0:0:
151,62,3375,5,0,0:0:0:0:
256,192,3384,12,0,3721,0:0:0:0:
138,94,3412,5,0,0:0:0:0:
237,125,3450,1,0,0:0:0:0:
256,192,3468,12,0,3538,0:0:0:0:
256,192,3473,12,0,3529,0:0:0:0:
130,185,3477,6,0,L|165:147,2,52.5
205,203,3482,6,0,P|343:220|241:221,1,910
219,130,3487,1,0,0:0:0:0:
254,170,3525,1,0,0:0:0:0:
256,192,3529,12,0,3613,0:0:0:0:
314,182,3562,5,0,0:0:0:0:
256,192,3571,12,0,3707,0:0:0:0:
206,197,3595,6,0,B|161:244|216:189,4,70
449,212,3600,1,0,0:0:0:0:
256,192,3618,12,0,3693,0:0:0:0:
256,192,3632,12,0,3749,0:0:0:0:
363,201,3637,5,0,0:0:0:0:
332,184,3675,1,0,0:0:0:0:
307,206,3707,2,0,L|223:295,1,70
246,174,3712,1,0,0:0:0:0:
256,192,3721,12,0,3782,0:0:0:0:
247,172,3730,6,0,L|310:166,2,61.25
173,342,3745,2,0,L|188:207,2,70
182,170,3750,1,0,0:0:0:0:
256,192,3782,12,0,3904,0:0:0:0:
194,194,3787,5,0,0:0:0:0:
256,251,3796,2,0,B|93:244|238:5|390:190|131:343|112:136,2,393.75
256,192,3820,12,0,3867,0:0:0:0:
203,191,3820,6,0,L|311:278,2,70
171,185,3825,1,0,0:0:0:0:
199,179,3862,1,0,0:0:0:0:
256,192,3871,12,0,3965,0:0:0:0:
157,174,3900,5,0,0:0:0:0:
176,283,3932,6,0,B|388:230|115:263,2,210
256,192,3932,12,0,4045,0:0:0:0:
328,197,3937,5,0,0:0:0:0:
256,192,3970,12,0,4012,0:0:0:0:
256,192,3974,12,0,4063,0:0:0:0:
255,188,3975,5,0,0:0:0:0:
173,172,4012,1,0,0:0:0:0:
256,192,4021,12,0,4092,0:0:0:0:
221,55,4045,6,0,P|155:294|21:144,1,551.25
274,240,4050,1,0,0:0:0:0:
256,192,4073,12,0,4124,0:0:0:0:
256,192,4087,12,0,4213,0:0:0:0:
280,339,4087,5,0,0:0:0:0:
256,192,4120,12,0,4148,0:0:0:0:
138,249,4120,6,0,L|271:88,1,140
158,360,4125,1,0,0:0:0:0:
138,88,4157,2,0,L|201:192,1,122.5
75,350,4162,1,0,0:0:0:0:
256,192,4171,12,0,4199,0:0:0:0:
285,95,4195,6,0,L|380:244,1,140
50,232,4200,1,0,0:0:0:0:
256,192,4223,12,0,4274,0:0:0:0:
211,222,4223,6,0,L|375:298,1,175
256,192,4232,12,0,4279,0:0:0:0:
366,261,4232,6,0,B|106:188|299:54|323:240,2,280
67,148,4237,1,0,0:0:0:0:
158,74,4275,1,0,0:0:0:0:
256,192,4284,12,0,4368,0:0:0:0:
351,131,4312,6,0,L|206:78,1,148.75
269,67,4312,1,0,0:0:0:0:
256,192,4321,12,0,4392,0:0:0:0:
385,101,4350,5,0,0:0:0:0:
167,143,4359,2,0,L|207:293,1,148.75
256,192,4382,12,0,4523,0:0:0:0:
458,193,4387,5,0,0:0:0:0:
256,192,4420,12,0,4513,0:0:0:0:
417,294,4425,5,0,0:0:0:0:
279,351,4434,2,0,L|319:212,1,140
309,323,4462,1,0,0:0:0:0:
199,145,4499,2,0,L|160:138,3,35
209,253,4500,1,0,0:0:0:0:
256,192,4518,12,0,4715,0:0:0:0:
256,192,4523,12,0,4607,0:0:0:0:
256,192,4532,12,0,4598,0:0:0:0:
122,147,4537,5,0,0:0:0:0:
181,264,4555,2,0,L|318:263,1,131.25
286,357,4570,2,0,L|331:193,1,140
88,171,4575,1,0,0:0:0:0:
320,222,4607,2,0,L|167:67,1,218.75
77,177,4612,1,0,0:0:0:0:
256,192,4621,12,0,4687,0:0:0:0:
256,192,4631,12,0,4724,0:0:0:0:
46,284,4650,5,0,0:0:0:0:
140,119,4659,2,0,L|236:303,1,201.25
131,335,4687,1,0,0:0:0:0:
256,192,4720,12,0,4884,0:0:0:0:
351,307,4720,6,0,L|245:153,1,183.75
256,192,4724,12,0,4785,0:0:0:0:
240,342,4725,5,0,0:0:0:0:
256,192,4734,12,0,4790,0:0:0:0:
309,323,4762,5,0,0:0:0:0:
206,156,4776,2,0,L|236:247,2,96.25
394,239,4800,1,0,0:0:0:0:
256,192,4823,12,0,5001,0:0:0:0:
256,192,4837,12,0,4879,0:0:0:0:
268,262,4837,6,0,B|131:87|503:171,4,376.25
382,138,4837,1,0,0:0:0:0:
374,131,4875,1,0,0:0:0:0:
256,192,4888,12,0,4963,0:0:0:0:
222,189,4907,6,0,L|365:170,2,140
296,102,4912,1,0,0:0:0:0:
256,192,4917,12,0,5052,0:0:0:0:
171,113,4950,5,0,0:0:0:0:
256,192,4982,12,0,5099,0:0:0:0:
360,170,4982,6,0,B|182:232|191:263|-43:205,1,350
88,171,4987,1,0,0:0:0:0:
256,192,5024,12,0,5132,0:0:0:0:
102,224,5025,5,0,0:0:0:0:
165,275,5062,1,0,0:0:0:0:
256,192,5067,12,0,5132,0:0:0:0:
283,287,5100,5,0,0:0:0:0:
256,192,5137,12,0,5226,0:0:0:0:
403,250,5137,5,0,0:0:0:0:
256,192,5165,12,0,5212,0:0:0:0:
256,192,5174,12,0,5310,0:0:0:0:
428,150,5175,5,0,0:0:0:0:
96,48,5207,2,0,L|210:107,2,70
373,97,5212,1,0,0:0:0:0:
256,192,5217,12,0,5287,0:0:0:0:
256,192,5235,12,0,5301,0:0:0:0:
215,62,5250,5,0,0:0:0:0:
237,178,5282,2,0,P|141:297|89:213,1,280
132,75,5287,1,0,0:0:0:0:
256,192,5320,12,0,5362,0:0:0:0:
256,192,5324,12,0,5385,0:0:0:0:
81,140,5325,5,0,0:0:0:0:
256,192,5338,12,0,5451,0:0:0:0:
95,208,5362,5,0,0:0:0:0:
256,192,5367,12,0,5442,0:0:0:0:
57,140,5400,5,0,0:0:0:0:
256,192,5418,12,0,5488,0:0:0:0:
121,120,5432,6,0,L|294:101,1,140
94,48,5437,1,0,0:0:0:0:
256,192,5465,12,0,5535,0:0:0:0:
322,183,5470,6,0,B|249:233|140:201|325:218,3,140
197,33,5475,1,0,0:0:0:0:
256,192,5488,12,0,5521,0:0:0:0:
272,63,5512,5,0,0:0:0:0:
256,192,5521,12,0,5559,0:0:0:0:
256,192,5535,12,0,5606,0:0:0:0:
329,122,5550,5,0,0:0:0:0:
256,192,5568,12,0,5690,0:0:0:0:
256,192,5573,12,0,5648,0:0:0:0:
280,222,5587,5,0,0:0:0:0:
163,222,5625,1,0,0:0:0:0:
256,192,5638,12,0,5676,0:0:0:0:
210,131,5662,5,0,0:0:0:0:
256,192,5671,12,0,5732,0:0:0:0:
256,192,5681,12,0,5770,0:0:0:0:
280,112,5700,5,0,0:0:0:0:
256,192,5718,12,0,5854,0:0:0:0:
332,195,5737,5,0,0:0:0:0:
373,159,5770,2,0,L|310:129,1,70
256,192,5774,12,0,5910,0:0:0:0:
283,287,5775,5,0,0:0:0:0:
256,192,5784,12,0,5854,0:0:0:0:
180,195,5788,6,0,P|210:49|555:207,2,691.25
165,275,5812,1,0,0:0:0:0:
296,140,5845,2,0,L|234:248,2,70
150,198,5850,1,0,0:0:0:0:
256,192,5868,12,0,5924,0:0:0:0:
256,192,5882,12,0,5934,0:0:0:0:
280,112,5887,5,0,0:0:0:0:
256,192,5924,12,0,6009,0:0:0:0:
380,184,5925,5,0,0:0:0:0:
384,267,5962,1,0,0:0:0:0:
256,192,5967,12,0,6009,0:0:0:0:
256,192,5981,12,0,6365,0:0:0:0:
350,307,6000,5,0,0:0:0:0:
256,192,6018,12,0,6093,0:0:0:0:
256,192,6023,12,0,6098,0:0:0:0:
46,177,6032,6,0,P|206:243|237:174,1,280
268,322,6037,1,0,0:0:0:0:
147,293,6075,1,0,0:0:0:0:
59,202,6112,1,0,0:0:0:0:
256,192,6121,12,0,6182,0:0:0:0:
161,231,6145,6,0,L|244:241,2,70
49,83,6150,1,0,0:0:0:0:
94,48,6187,1,0,0:0:0:0:
256,192,6220,12,0,6252,0:0:0:0:
246,228,6220,6,0,B|142:232|306:246|122:278,2,140
256,192,6224,12,0,6360,0:0:0:0:
154,8,6225,5,0,0:0:0:0:
236,3,6262,1,0,0:0:0:0:
256,192,6271,12,0,6327,0:0:0:0:
355,28,6300,5,0,0:0:0:0:
463,93,6337,1,0,0:0:0:0:
256,192,6365,12,0,6426,0:0:0:0:
256,192,6374,12,0,6449,0:0:0:0:
478,141,6375,5,0,0:0:0:0:
256,192,6379,12,0,6440,0:0:0:0:
491,199,6412,5,0,0:0:0:0:
279,95,6445,2,0,P|253:262|228:92,1,490
459,302,6450,1,0,0:0:0:0:
256,192,6468,12,0,6524,0:0:0:0:
256,192,6482,12,0,6515,0:0:0:0:
449,309,6487,5,0,0:0:0:0:
256,192,6520,12,0,6656,0:0:0:0:
336,357,6525,5,0,0:0:0:0:
256,192,6534,12,0,6595,0:0:0:0:
253,365,6562,5,0,0:0:0:0:
256,192,6571,12,0,6604,0:0:0:0:
103,194,6571,6,0,L|384:112,1,288.75
168,362,6600,1,0,0:0:0:0:
256,192,6618,12,0,6688,0:0:0:0:
256,192,6632,12,0,6763,0:0:0:0:
100,313,6637,5,0,0:0:0:0:
256,192,6665,12,0,6754,0:0:0:0:
88,231,6675,5,0,0:0:0:0:
121,155,6712,1,0,0:0:0:0:
256,192,6721,12,0,6792,0:0:0:0:
219,81,6750,5,0,0:0:0:0:
317,128,6763,2,0,P|219:232|151:146,1,288.75
256,192,6768,12,0,7002,0:0:0:0:
256,192,6787,12,0,6838,0:0:0:0:
288,58,6787,5,0,0:0:0:0:
256,192,6820,12,0,6946,0:0:0:0:
343,82,6825,5,0,0:0:0:0:
402,97,6862,1,0,0:0:0:0:
151,112,6876,2,0,P|54:191|193:245,1,332.5
256,192,6881,12,0,7096,0:0:0:0:
402,156,6900,5,0,0:0:0:0:
396,215,6937,1,0,0:0:0:0:
256,192,6970,12,0,7031,0:0:0:0:
333,287,6975,5,0,0:0:0:0:
279,292,7012,1,0,0:0:0:0:
256,192,7017,12,0,7087,0:0:0:0:
229,112,7035,6,0,L|341:151,2,113.75
218,300,7050,1,0,0:0:0:0:
256,192,7068,12,0,7101,0:0:0:0:
173,265,7087,5,0,0:0:0:0:
256,192,7120,12,0,7152,0:0:0:0:
256,192,7124,12,0,7176,0:0:0:0:
196,206,7125,5,0,0:0:0:0:
256,192,7134,12,0,7368,0:0:0:0:
315,50,7148,6,0,L|310:43,10,8.75
224,138,7162,1,0,0:0:0:0:
256,192,7171,12,0,7242,0:0:0:0:
233,178,7200,5,0,0:0:0:0:
256,192,7223,12,0,7265,0:0:0:0:
247,288,7237,5,0,0:0:0:0:
256,192,7265,12,0,7565,0:0:0:0:
256,192,7270,12,0,7359,0:0:0:0:
239,306,7275,5,0,0:0:0:0:
213,224,7312,1,0,0:0:0:0:
180,208,7350,1,0,0:0:0:0:
256,192,7373,12,0,7579,0:0:0:0:
256,192,7382,12,0,7617,0:0:0:0:
307,24,7382,6,0,L|289:73,1,52.5
213,224,7387,1,0,0:0:0:0:
270,114,7425,1,0,0:0:0:0:
333,95,7462,1,0,0:0:0:0:
321,176,7500,1,0,0:0:0:0:
64,111,7537,6,0,L|93:102,2,26.25
198,147,7537,1,0,0:0:0:0:
108,98,7560,2,0,B|135:81|145:78|149:78,2,43.75
256,192,7565,12,0,7640,0:0:0:0:
95,144,7575,5,0,0:0:0:0:
153,79,7598,2,0,L|138:71,2,17.5
95,240,7612,1,0,0:0:0:0:
256,192,7621,12,0,7701,0:0:0:0:
256,192,7635,12,0,7696,0:0:0:0:
144,71,7649,6,0,B|170:91|286:184|308:211|306:225|293:234|287:237,1,236.25
209,229,7650,1,0,0:0:0:0:
256,192,7668,12,0,7799,0:0:0:0:
271,174,7687,5,0,0:0:0:0:
256,192,7724,12,0,8015,0:0:0:0:
273,242,7724,6,0,P|265:239|261:237,4,8.75
358,222,7725,1,0,0:0:0:0:
256,192,7734,12,0,7874,0:0:0:0:
243,234,7762,6,0,B|198:217|168:186|164:178,1,96.25
349,286,7762,1,0,0:0:0:0:
258,199,7800,1,0,0:0:0:0:
153,168,7813,2,0,P|152:152|155:141,2,26.25
256,192,7818,12,0,7893,0:0:0:0:
157,136,7837,6,0,B|185:123|230:124|316:119|345:120,1,183.75
201,139,7837,1,0,0:0:0:0:
128,230,7875,1,0,0:0:0:0:
256,192,7884,12,0,8010,0:0:0:0:
350,121,7888,6,0,B|373:130|423:162|436:178,1,96.25
140,249,7912,1,0,0:0:0:0:
256,192,7917,12,0,7963,0:0:0:0:
437,181,7926,6,0,B|418:198|395:208|328:224|268:232|263:232|250:228|184:208|181:207|166:199|159:189,1,288.75
205,143,7950,1,0,0:0:0:0:
256,192,7968,12,0,8052,0:0:0:0:
283,155,7987,5,0,0:0:0:0:
256,192,8020,12,0,8104,0:0:0:0:
158,187,8024,6,0,L|135:166,1,26.25
318,231,8025,1,0,0:0:0:0:
256,192,8034,12,0,8090,0:0:0:0:
135,165,8038,6,0,P|130:152|124:148,2,17.5
123,144,8062,2,0,B|138:123|140:121|174:109|176:109,2,61.25
213,224,8062,1,0,0:0:0:0:
256,192,8071,12,0,8123,0:0:0:0:
157,109,8100,5,0,0:0:0:0:
256,192,8118,12,0,8249,0:0:0:0:
185,109,8127,6,0,B|225:117|269:119|271:122,1,87.5
256,192,8132,12,0,8221,0:0:0:0:
119,59,8137,5,0,0:0:0:0:
279,125,8160,2,0,B|289:132|287:140|271:169,2,43.75
256,192,8170,12,0,8235,0:0:0:0:
141,290,8175,5,0,0:0:0:0:
267,185,8198,2,0,B|247:220|231:232|190:241|166:231|166:227,1,122.5
141,290,8212,1,0,0:0:0:0:
256,192,8231,12,0,8315,0:0:0:0:
270,114,8250,5,0,0:0:0:0:
166,205,8263,2,0,B|171:156|158:142|161:136|161:137,2,61.25
256,192,8268,12,0,8310,0:0:0:0:
256,192,8273,12,0,8338,0:0:0:0:
283,155,8287,5,0,0:0:0:0:
161,156,8310,2,0,B|183:218|210:249|240:261|280:247|290:239,1,175
256,192,8320,12,0,8371,0:0:0:0:
330,279,8325,5,0,0:0:0:0:
256,192,8334,12,0,8390,0:0:0:0:
300,332,8362,5,0,0:0:0:0:
256,192,8371,12,0,8512,0:0:0:0:
315,211,8376,6,0,B|330:187|323:155|310:135|284:116|250:112|219:122,1,166.25
225,231,8400,1,0,0:0:0:0:
256,192,8418,12,0,8460,0:0:0:0:
256,192,8432,12,0,8554,0:0:0:0:
176,163,8437,5,0,0:0:0:0:
200,127,8451,2,0,B|178:136|173:146|179:163|194:179,2,61.25
256,192,8470,12,0,8545,0:0:0:0:
223,260,8475,5,0,0:0:0:0:
196,182,8498,2,0,B|226:206|269:205|299:179|306:153|306:147,1,131.25
332,192,8512,1,0,0:0:0:0:
256,192,8521,12,0,8587,0:0:0:0:
310,131,8550,5,0,0:0:0:0:
303,137,8563,2,0,B|304:113|286:71|245:53|209:54|205:58,1,140
256,192,8568,12,0,8611,0:0:0:0:
256,192,8582,12,0,8611,0:0:0:0:
216,162,8587,5,0,0:0:0:0:
256,192,8624,12,0,8611,0:0:0:0:
181,81,8624,6,0,B|157:104|125:133|110:157|118:168|123:171,1,113.75
211,212,8625,1,0,0:0:0:0:
150,187,8657,2,0,B|184:202|-74:115,1,245
