osu file format v14

[General]
AudioFilename: audio.mp3
AudioLeadIn: 0
PreviewTime: -1
Countdown: 1
SampleSet: Soft
StackLeniency: 0.6
Mode: 0
LetterboxInBreaks: 0
WidescreenStoryboard: 1

[Editor]
DistanceSpacing: 0.8
BeatDivisor: 4
GridSize: 16
TimelineZoom: 1.9

[Metadata]
Title:Duck running in the 90's
TitleUnicode:Duck running in the 90's
Artist:
ArtistUnicode:
Creator:EliasGaming
Version:Duckness
Source:
Tags:Duck running in the 90's quack.mp4
BeatmapID:1373653
BeatmapSetID:647215

[Difficulty]
HPDrainRate:5
CircleSize:3
OverallDifficulty:3
ApproachRate:8
SliderMultiplier:3
SliderTickRate:1

[Events]
//Background and Video events
0,0,"gCRduJf7RfE84vXp53ahAxuymm0.jpg",0,0
//Break Periods
//Storyboard Layer 0 (Background)
//Storyboard Layer 1 (Fail)
//Storyboard Layer 2 (Pass)
//Storyboard Layer 3 (Foreground)
//Storyboard Sound Samples

[TimingPoints]
197,355.029585798817,4,2,0,100,1,0
1617,-100,4,2,0,100,0,0

[HitObjects]
256,112,197,5,0,0:0:0:0:
336,192,374,1,0,0:0:0:0:
256,272,552,1,0,0:0:0:0:
176,192,729,1,0,0:0:0:0:
256,96,907,5,0,0:0:0:0:
352,192,1084,1,0,0:0:0:0:
256,288,1262,1,0,0:0:0:0:
160,192,1439,1,0,0:0:0:0:
48,96,1617,6,0,P|96:64|192:64,6,150
336,80,2859,1,0,0:0:0:0:
416,176,3125,1,0,0:0:0:0:
416,176,3214,1,0,0:0:0:0:
288,176,3303,5,0,0:0:0:0:
288,176,3392,1,0,0:0:0:0:
256,304,3481,1,0,0:0:0:0:
256,304,3569,1,0,0:0:0:0:
160,192,3658,5,0,0:0:0:0:
160,192,3747,1,0,0:0:0:0:
224,48,3836,1,0,0:0:0:0:
224,48,3924,1,0,0:0:0:0:
352,48,4102,5,0,0:0:0:0:
352,48,4191,1,0,0:0:0:0:
416,176,4279,1,0,0:0:0:0:
272,304,4457,2,0,P|368:336|448:320,6,150
448,192,5877,5,0,0:0:0:0:
448,192,5966,1,0,0:0:0:0:
368,64,6143,1,0,0:0:0:0:
368,64,6232,1,0,0:0:0:0:
304,192,6410,5,0,0:0:0:0:
304,192,6498,1,0,0:0:0:0:
144,192,6676,1,0,0:0:0:0:
144,192,6765,1,0,0:0:0:0:
224,64,6942,5,0,0:0:0:0:
224,64,7031,1,0,0:0:0:0:
352,64,7208,1,0,0:0:0:0:
448,144,7386,2,0,P|384:224|448:272,7,150
304,336,8806,5,0,0:0:0:0:
304,336,8895,1,0,0:0:0:0:
240,208,9072,1,0,0:0:0:0:
240,208,9161,1,0,0:0:0:0:
368,208,9339,5,0,0:0:0:0:
368,208,9427,1,0,0:0:0:0:
448,336,9605,1,0,0:0:0:0:
448,336,9694,1,0,0:0:0:0:
320,336,9871,5,0,0:0:0:0:
320,336,9960,1,0,0:0:0:0:
80,288,10137,2,0,P|176:320|256:304,7,150
304,160,11557,1,0,0:0:0:0:
432,32,11735,5,0,0:0:0:0:
464,208,11912,1,0,0:0:0:0:
304,160,12090,1,0,0:0:0:0:
432,32,12268,1,0,0:0:0:0:
464,208,12445,5,0,0:0:0:0:
304,160,12623,1,0,0:0:0:0:
432,32,12800,1,0,0:0:0:0:
