osu file format v14

[General]
AudioFilename: audio.mp3
AudioLeadIn: 0
PreviewTime: -1
Countdown: 1
SampleSet: None
StackLeniency: 0.7
Mode: 2
LetterboxInBreaks: 0
WidescreenStoryboard: 0

[Editor]
DistanceSpacing: 0.8
BeatDivisor: 1
GridSize: 32
TimelineZoom: 1

[Metadata]
Title:
TitleUnicode:
Artist:
ArtistUnicode:
Creator:Dohland
Version:
Source:
Tags:
BeatmapID:1320560
BeatmapSetID:626578

[Difficulty]
HPDrainRate:5
CircleSize:5
OverallDifficulty:5
ApproachRate:5
SliderMultiplier:1.5
SliderTickRate:4

[Events]
//Background and Video events
//Break Periods
//Storyboard Layer 0 (Background)
//Storyboard Layer 1 (Fail)
//Storyboard Layer 2 (Pass)
//Storyboard Layer 3 (Foreground)
//Storyboard Sound Samples

[TimingPoints]
10,250,4,1,0,100,1,0

[HitObjects]
256,192,510,12,0,2010,0:0:0:0:
256,192,3760,12,0,6260,0:0:0:0:
256,192,7010,12,0,9510,0:0:0:0:
160,160,11510,5,0,0:0:0:0:
352,128,11760,1,0,0:0:0:0:
256,192,14510,1,0,0:0:0:0:
416,160,16760,1,0,0:0:0:0:
96,160,17260,1,0,0:0:0:0:
320,192,17510,1,0,0:0:0:0:
192,192,17760,1,0,0:0:0:0:
320,256,18010,1,0,0:0:0:0:
224,256,18510,1,0,0:0:0:0:
256,160,18760,1,0,0:0:0:0:
192,128,19010,1,0,0:0:0:0:
320,96,19260,1,0,0:0:0:0:
192,96,19760,1,0,0:0:0:0:
256,128,20010,1,0,0:0:0:0:
224,192,20260,1,0,0:0:0:0:
256,224,20510,1,0,0:0:0:0:
256,224,20760,1,0,0:0:0:0:
256,128,21260,1,0,0:0:0:0:
192,128,21510,1,0,0:0:0:0:
352,128,21760,1,0,0:0:0:0:
256,192,22010,1,0,0:0:0:0:
192,224,22510,1,0,0:0:0:0:
320,224,22760,1,0,0:0:0:0:
224,128,23010,1,0,0:0:0:0:
448,160,23510,1,0,0:0:0:0:
352,160,23760,1,0,0:0:0:0:
224,160,24010,1,0,0:0:0:0:
416,128,24260,1,0,0:0:0:0:
64,128,24760,1,0,0:0:0:0:
320,160,25010,1,0,0:0:0:0:
160,160,25260,1,0,0:0:0:0:
224,160,25760,1,0,0:0:0:0:
384,160,26010,1,0,0:0:0:0:
64,160,26260,1,0,0:0:0:0:
384,160,26510,1,0,0:0:0:0:
224,192,26760,1,0,0:0:0:0:
288,192,27260,1,0,0:0:0:0:
160,192,27510,1,0,0:0:0:0:
352,192,27760,1,0,0:0:0:0:
224,224,28010,1,0,0:0:0:0:
384,192,28510,1,0,0:0:0:0:
320,192,28760,1,0,0:0:0:0:
288,192,29010,1,0,0:0:0:0:
32,192,29260,1,0,0:0:0:0:
288,192,29760,1,0,0:0:0:0:
416,192,30010,1,0,0:0:0:0:
256,192,30510,1,0,0:0:0:0:
0,192,31010,1,0,0:0:0:0:
192,224,31760,1,0,0:0:0:0:
288,224,32010,1,0,0:0:0:0:
352,224,32260,1,0,0:0:0:0:
192,160,32510,1,0,0:0:0:0:
128,160,32760,1,0,0:0:0:0:
64,160,33010,1,0,0:0:0:0:
64,96,33260,1,0,0:0:0:0:
224,96,33510,1,0,0:0:0:0:
384,128,33760,1,0,0:0:0:0:
128,192,34260,1,0,0:0:0:0:
448,192,34510,1,0,0:0:0:0:
192,256,34760,1,0,0:0:0:0:
320,256,35010,1,0,0:0:0:0:
224,192,35510,1,0,0:0:0:0:
224,128,35760,1,0,0:0:0:0:
320,96,36010,1,0,0:0:0:0:
320,160,36260,1,0,0:0:0:0:
192,160,36510,1,0,0:0:0:0:
192,192,36760,1,0,0:0:0:0:
320,224,37260,1,0,0:0:0:0:
192,224,37510,1,0,0:0:0:0:
320,224,38010,1,0,0:0:0:0:
192,192,38260,1,0,0:0:0:0:
288,128,38510,1,0,0:0:0:0:
160,128,38760,1,0,0:0:0:0:
320,128,39010,1,0,0:0:0:0:
160,160,39510,1,0,0:0:0:0:
288,192,39760,1,0,0:0:0:0:
192,192,40010,1,0,0:0:0:0:
384,192,40260,1,0,0:0:0:0:
64,192,40760,1,0,0:0:0:0:
160,192,41010,1,0,0:0:0:0:
256,192,41260,1,0,0:0:0:0:
448,192,41510,1,0,0:0:0:0:
160,96,42010,1,0,0:0:0:0:
288,160,42260,1,0,0:0:0:0:
128,192,42760,1,0,0:0:0:0:
320,192,43260,1,0,0:0:0:0:
448,160,43510,1,0,0:0:0:0:
64,128,44010,1,0,0:0:0:0:
32,128,44260,1,0,0:0:0:0:
160,192,44510,1,0,0:0:0:0:
64,160,46510,1,0,0:0:0:0:
224,192,46760,1,0,0:0:0:0:
320,192,47010,1,0,0:0:0:0:
160,128,47260,1,0,0:0:0:0:
320,128,47760,1,0,0:0:0:0:
192,192,48010,1,0,0:0:0:0:
320,224,48260,1,0,0:0:0:0:
160,160,48510,1,0,0:0:0:0:
192,192,48760,1,0,0:0:0:0:
320,128,49010,1,0,0:0:0:0:
192,128,49260,1,0,0:0:0:0:
384,192,49510,1,0,0:0:0:0:
32,192,51010,5,0,0:0:0:0:
224,192,51260,1,0,0:0:0:0:
128,192,51760,1,0,0:0:0:0:
192,192,52010,1,0,0:0:0:0:
448,192,52510,1,0,0:0:0:0:
96,192,53010,1,0,0:0:0:0:
352,192,53260,1,0,0:0:0:0:
224,192,53510,1,0,0:0:0:0:
224,192,53760,1,0,0:0:0:0:
288,192,54010,1,0,0:0:0:0:
128,128,54260,1,0,0:0:0:0:
224,128,54510,1,0,0:0:0:0:
288,192,55010,1,0,0:0:0:0:
96,224,55260,1,0,0:0:0:0:
256,224,55510,1,0,0:0:0:0:
352,224,55760,1,0,0:0:0:0:
416,192,56010,1,0,0:0:0:0:
320,192,56260,1,0,0:0:0:0:
256,192,56510,1,0,0:0:0:0:
64,192,56760,1,0,0:0:0:0:
64,192,57010,1,0,0:0:0:0:
64,192,57260,1,0,0:0:0:0:
128,192,57510,1,0,0:0:0:0:
64,192,57760,1,0,0:0:0:0:
160,192,58010,1,0,0:0:0:0:
480,160,58260,1,0,0:0:0:0:
448,192,58510,1,0,0:0:0:0:
352,192,58760,1,0,0:0:0:0:
416,192,59010,1,0,0:0:0:0:
192,192,59260,1,0,0:0:0:0:
160,192,59510,1,0,0:0:0:0:
160,192,59760,1,0,0:0:0:0:
288,160,60010,1,0,0:0:0:0:
160,192,60260,1,0,0:0:0:0:
192,192,60510,1,0,0:0:0:0:
32,192,61510,1,0,0:0:0:0:
320,192,61760,1,0,0:0:0:0:
256,192,62260,1,0,0:0:0:0:
192,192,62510,1,0,0:0:0:0:
288,192,62760,1,0,0:0:0:0:
320,192,63010,1,0,0:0:0:0:
384,192,63260,1,0,0:0:0:0:
96,192,63510,1,0,0:0:0:0:
160,192,63760,1,0,0:0:0:0:
64,192,64010,1,0,0:0:0:0:
128,192,64260,1,0,0:0:0:0:
64,160,64510,1,0,0:0:0:0:
192,160,64760,1,0,0:0:0:0:
288,160,65010,1,0,0:0:0:0:
416,192,65510,1,0,0:0:0:0:
352,192,65760,1,0,0:0:0:0:
64,192,66010,1,0,0:0:0:0:
128,192,66260,1,0,0:0:0:0:
288,192,66510,1,0,0:0:0:0:
352,192,66760,1,0,0:0:0:0:
32,192,67010,1,0,0:0:0:0:
96,192,67260,1,0,0:0:0:0:
224,192,67510,1,0,0:0:0:0:
384,192,68010,1,0,0:0:0:0:
352,192,68260,1,0,0:0:0:0:
416,192,68510,1,0,0:0:0:0:
352,192,68760,1,0,0:0:0:0:
256,160,69010,1,0,0:0:0:0:
192,192,69510,1,0,0:0:0:0:
192,192,69760,1,0,0:0:0:0:
320,192,70010,1,0,0:0:0:0:
96,160,70260,1,0,0:0:0:0:
192,160,70510,1,0,0:0:0:0:
160,160,70760,1,0,0:0:0:0:
96,160,71010,1,0,0:0:0:0:
192,160,71260,1,0,0:0:0:0:
192,224,71510,1,0,0:0:0:0:
256,224,71760,1,0,0:0:0:0:
480,192,72510,1,0,0:0:0:0:
32,192,72760,1,0,0:0:0:0:
224,192,73010,1,0,0:0:0:0:
352,192,73760,1,0,0:0:0:0:
64,192,74260,1,0,0:0:0:0:
416,160,74510,1,0,0:0:0:0:
160,192,74760,1,0,0:0:0:0:
320,192,75010,1,0,0:0:0:0:
64,192,75510,1,0,0:0:0:0:
160,192,75760,1,0,0:0:0:0:
448,192,76010,1,0,0:0:0:0:
288,192,76260,1,0,0:0:0:0:
64,192,76760,1,0,0:0:0:0:
128,192,77010,1,0,0:0:0:0:
192,192,77260,1,0,0:0:0:0:
416,192,77760,1,0,0:0:0:0:
32,192,78010,1,0,0:0:0:0:
448,192,78260,1,0,0:0:0:0:
288,192,78510,1,0,0:0:0:0:
96,192,78760,1,0,0:0:0:0:
160,192,79260,1,0,0:0:0:0:
256,192,79510,1,0,0:0:0:0:
384,192,79760,1,0,0:0:0:0:
448,192,80010,1,0,0:0:0:0:
384,192,80510,1,0,0:0:0:0:
192,224,80760,1,0,0:0:0:0:
320,192,81010,1,0,0:0:0:0:
128,192,81260,1,0,0:0:0:0:
384,192,81760,1,0,0:0:0:0:
96,160,82010,1,0,0:0:0:0:
128,160,82510,1,0,0:0:0:0:
256,160,83010,1,0,0:0:0:0:
192,192,83760,1,0,0:0:0:0:
224,192,84010,1,0,0:0:0:0:
192,192,84260,1,0,0:0:0:0:
224,192,84510,1,0,0:0:0:0:
192,192,85010,1,0,0:0:0:0:
224,192,85260,1,0,0:0:0:0:
192,192,85510,1,0,0:0:0:0:
224,192,85760,1,0,0:0:0:0:
192,192,86010,1,0,0:0:0:0:
224,192,86510,1,0,0:0:0:0:
192,192,86760,1,0,0:0:0:0:
224,192,87010,1,0,0:0:0:0:
192,192,87510,1,0,0:0:0:0:
224,192,87760,1,0,0:0:0:0:
192,192,88010,1,0,0:0:0:0:
160,192,88260,1,0,0:0:0:0:
160,192,88510,1,0,0:0:0:0:
192,192,88760,1,0,0:0:0:0:
224,192,89010,1,0,0:0:0:0:
160,192,89260,1,0,0:0:0:0:
160,192,89510,1,0,0:0:0:0:
192,192,89760,1,0,0:0:0:0:
192,192,90010,1,0,0:0:0:0:
192,192,90260,1,0,0:0:0:0:
192,192,90510,1,0,0:0:0:0:
192,192,90760,1,0,0:0:0:0:
288,192,91010,1,0,0:0:0:0:
384,192,91760,1,0,0:0:0:0:
32,192,92260,1,0,0:0:0:0:
512,192,92760,1,0,0:0:0:0:
448,192,93510,2,0,B|-64:160|32:192,4,450
128,192,97260,1,0,0:0:0:0:
288,192,97760,1,0,0:0:0:0:
256,128,98010,1,0,0:0:0:0:
160,128,98260,1,0,0:0:0:0:
224,160,98510,1,0,0:0:0:0:
352,160,98760,1,0,0:0:0:0:
192,160,99010,1,0,0:0:0:0:
320,160,99260,1,0,0:0:0:0:
64,192,99760,1,0,0:0:0:0:
256,192,100010,1,0,0:0:0:0:
192,192,100260,1,0,0:0:0:0:
96,192,100510,1,0,0:0:0:0:
128,160,100760,1,0,0:0:0:0:
192,160,101010,1,0,0:0:0:0:
96,192,101260,1,0,0:0:0:0:
192,192,101510,1,0,0:0:0:0:
128,192,101760,1,0,0:0:0:0:
160,192,102010,1,0,0:0:0:0:
0,192,103010,1,0,0:0:0:0:
512,192,103510,1,0,0:0:0:0:
160,192,103760,1,0,0:0:0:0:
224,192,104010,1,0,0:0:0:0:
256,160,104510,1,0,0:0:0:0:
160,160,104760,1,0,0:0:0:0:
192,192,105010,1,0,0:0:0:0:
480,192,105260,1,0,0:0:0:0:
320,192,105510,1,0,0:0:0:0:
224,192,105760,1,0,0:0:0:0:
352,160,106010,1,0,0:0:0:0:
128,192,106260,1,0,0:0:0:0:
192,160,106510,1,0,0:0:0:0:
160,128,106760,1,0,0:0:0:0:
288,128,107010,1,0,0:0:0:0:
64,192,107260,1,0,0:0:0:0:
192,224,107510,1,0,0:0:0:0:
224,192,108010,1,0,0:0:0:0:
320,192,108260,1,0,0:0:0:0:
96,192,108510,1,0,0:0:0:0:
288,160,108760,1,0,0:0:0:0:
416,160,109010,1,0,0:0:0:0:
96,160,109260,1,0,0:0:0:0:
320,192,109510,1,0,0:0:0:0:
192,192,109760,1,0,0:0:0:0:
96,192,110010,1,0,0:0:0:0:
448,160,110260,1,0,0:0:0:0:
320,160,110510,1,0,0:0:0:0:
288,192,110760,1,0,0:0:0:0:
64,160,111010,1,0,0:0:0:0:
288,160,111260,1,0,0:0:0:0:
448,160,111510,1,0,0:0:0:0:
384,160,111760,1,0,0:0:0:0:
320,224,112010,1,0,0:0:0:0:
128,192,112260,1,0,0:0:0:0:
224,192,112510,1,0,0:0:0:0:
512,192,113260,1,0,0:0:0:0:
0,192,113510,1,0,0:0:0:0:
448,192,113760,1,0,0:0:0:0:
320,192,114260,1,0,0:0:0:0:
288,192,114510,1,0,0:0:0:0:
160,192,115010,1,0,0:0:0:0:
96,192,115260,1,0,0:0:0:0:
448,192,115510,1,0,0:0:0:0:
256,192,115760,1,0,0:0:0:0:
192,192,116010,1,0,0:0:0:0:
128,192,116510,1,0,0:0:0:0:
64,192,116760,1,0,0:0:0:0:
32,192,117010,1,0,0:0:0:0:
480,192,117260,1,0,0:0:0:0:
384,192,117510,1,0,0:0:0:0:
448,192,117760,1,0,0:0:0:0:
288,192,118010,1,0,0:0:0:0:
256,128,118510,1,0,0:0:0:0:
384,128,118760,1,0,0:0:0:0:
96,192,119010,1,0,0:0:0:0:
288,192,119260,1,0,0:0:0:0:
416,192,119510,1,0,0:0:0:0:
0,160,119760,1,0,0:0:0:0:
320,192,120010,1,0,0:0:0:0:
288,160,120260,1,0,0:0:0:0:
256,160,120510,1,0,0:0:0:0:
160,192,121010,1,0,0:0:0:0:
96,160,121510,1,0,0:0:0:0:
192,160,121760,1,0,0:0:0:0:
416,160,122010,1,0,0:0:0:0:
384,192,122260,1,0,0:0:0:0:
128,192,122510,1,0,0:0:0:0:
64,192,122760,1,0,0:0:0:0:
256,192,123010,1,0,0:0:0:0:
256,192,123510,1,0,0:0:0:0:
128,192,123760,1,0,0:0:0:0:
480,192,124510,1,0,0:0:0:0:
96,192,124760,1,0,0:0:0:0:
288,192,125010,1,0,0:0:0:0:
192,192,125760,1,0,0:0:0:0:
320,192,126260,1,0,0:0:0:0:
160,192,126510,1,0,0:0:0:0:
320,192,126760,1,0,0:0:0:0:
256,192,127010,1,0,0:0:0:0:
160,192,127510,1,0,0:0:0:0:
224,192,127760,1,0,0:0:0:0:
384,192,128010,1,0,0:0:0:0:
160,192,128260,1,0,0:0:0:0:
64,192,128760,1,0,0:0:0:0:
192,192,129010,1,0,0:0:0:0:
320,192,129260,1,0,0:0:0:0:
64,192,129510,1,0,0:0:0:0:
160,192,129760,1,0,0:0:0:0:
416,192,130010,1,0,0:0:0:0:
352,192,130260,1,0,0:0:0:0:
128,192,130760,1,0,0:0:0:0:
320,192,131260,1,0,0:0:0:0:
96,192,131510,1,0,0:0:0:0:
384,192,131760,1,0,0:0:0:0:
256,192,132010,1,0,0:0:0:0:
256,192,132510,1,0,0:0:0:0:
64,192,132760,1,0,0:0:0:0:
448,192,133260,1,0,0:0:0:0:
224,192,133510,1,0,0:0:0:0:
224,192,134010,1,0,0:0:0:0:
160,192,134260,1,0,0:0:0:0:
256,192,134510,1,0,0:0:0:0:
384,192,134760,1,0,0:0:0:0:
256,192,136010,12,0,137760,0:0:0:0:
256,192,139260,5,0,0:0:0:0:
160,192,140010,1,0,0:0:0:0:
256,192,140260,1,0,0:0:0:0:
384,192,140510,1,0,0:0:0:0:
256,192,141010,1,0,0:0:0:0:
128,192,141260,1,0,0:0:0:0:
192,192,141510,1,0,0:0:0:0:
192,192,141760,1,0,0:0:0:0:
416,192,142510,1,0,0:0:0:0:
64,192,143010,1,0,0:0:0:0:
256,288,143510,1,0,0:0:0:0:
256,160,143760,1,0,0:0:0:0:
128,160,144010,1,0,0:0:0:0:
480,160,144760,1,0,0:0:0:0:
448,160,145010,1,0,0:0:0:0:
352,160,145260,1,0,0:0:0:0:
64,160,145510,1,0,0:0:0:0:
448,192,146760,1,0,0:0:0:0:
32,192,148010,1,0,0:0:0:0:
384,192,148510,1,0,0:0:0:0:
224,192,148760,1,0,0:0:0:0:
192,192,149010,1,0,0:0:0:0:
288,192,149260,1,0,0:0:0:0:
64,192,149760,1,0,0:0:0:0:
384,192,150010,1,0,0:0:0:0:
288,192,150260,1,0,0:0:0:0:
224,192,150510,1,0,0:0:0:0:
384,192,150760,1,0,0:0:0:0:
320,192,151010,1,0,0:0:0:0:
416,192,151260,1,0,0:0:0:0:
384,192,151510,1,0,0:0:0:0:
64,192,151760,1,0,0:0:0:0:
224,192,152010,1,0,0:0:0:0:
160,192,152260,1,0,0:0:0:0:
192,192,152510,1,0,0:0:0:0:
256,192,152760,1,0,0:0:0:0:
416,192,153010,1,0,0:0:0:0:
352,192,153260,1,0,0:0:0:0:
448,192,153510,1,0,0:0:0:0:
320,192,153760,1,0,0:0:0:0:
32,192,154260,1,0,0:0:0:0:
160,192,155010,1,0,0:0:0:0:
256,192,155260,1,0,0:0:0:0:
384,224,155760,1,0,0:0:0:0:
448,192,156010,1,0,0:0:0:0:
192,192,156260,1,0,0:0:0:0:
64,192,156510,1,0,0:0:0:0:
256,192,156760,1,0,0:0:0:0:
384,192,157010,1,0,0:0:0:0:
64,160,157260,1,0,0:0:0:0:
160,160,157510,1,0,0:0:0:0:
320,160,157760,1,0,0:0:0:0:
448,224,158010,1,0,0:0:0:0:
288,192,158260,1,0,0:0:0:0:
128,192,158510,1,0,0:0:0:0:
192,192,158760,1,0,0:0:0:0:
288,192,159010,1,0,0:0:0:0:
64,192,159260,1,0,0:0:0:0:
96,192,159510,1,0,0:0:0:0:
320,192,160010,1,0,0:0:0:0:
320,192,160260,1,0,0:0:0:0:
160,192,160760,1,0,0:0:0:0:
192,192,161010,1,0,0:0:0:0:
128,192,161260,1,0,0:0:0:0:
352,192,161510,1,0,0:0:0:0:
448,192,161760,1,0,0:0:0:0:
480,192,162010,1,0,0:0:0:0:
416,192,162260,1,0,0:0:0:0:
416,192,162510,1,0,0:0:0:0:
416,192,162760,1,0,0:0:0:0:
288,192,163010,1,0,0:0:0:0:
224,192,163260,1,0,0:0:0:0:
96,192,163510,1,0,0:0:0:0:
192,192,163760,1,0,0:0:0:0:
288,192,164010,1,0,0:0:0:0:
256,192,164260,1,0,0:0:0:0:
416,192,164510,1,0,0:0:0:0:
0,192,165260,1,0,0:0:0:0:
498,194,166510,1,0,0:0:0:0:
262,197,166760,1,0,0:0:0:0:
318,193,167010,1,0,0:0:0:0:
249,197,167260,1,0,0:0:0:0:
210,197,167510,1,0,0:0:0:0:
216,200,168010,1,0,0:0:0:0:
205,204,168510,1,0,0:0:0:0:
164,199,168760,1,0,0:0:0:0:
277,198,169010,1,0,0:0:0:0:
137,200,169260,1,0,0:0:0:0:
253,198,169510,1,0,0:0:0:0:
413,201,169760,1,0,0:0:0:0:
180,202,170010,1,0,0:0:0:0:
235,201,170510,1,0,0:0:0:0:
228,199,170760,1,0,0:0:0:0:
233,160,171010,1,0,0:0:0:0:
248,161,171260,1,0,0:0:0:0:
280,188,171510,1,0,0:0:0:0:
172,188,171760,1,0,0:0:0:0:
273,208,172010,1,0,0:0:0:0:
198,190,172260,1,0,0:0:0:0:
293,188,172510,1,0,0:0:0:0:
300,197,172760,1,0,0:0:0:0:
212,182,173010,1,0,0:0:0:0:
333,183,173260,1,0,0:0:0:0:
135,184,173510,1,0,0:0:0:0:
127,188,173760,1,0,0:0:0:0:
410,182,174010,1,0,0:0:0:0:
181,192,174260,1,0,0:0:0:0:
254,192,174510,1,0,0:0:0:0:
285,191,174760,1,0,0:0:0:0:
275,193,175010,1,0,0:0:0:0:
274,193,175260,1,0,0:0:0:0:
254,192,175510,1,0,0:0:0:0:
243,195,175760,1,0,0:0:0:0:
234,197,176010,1,0,0:0:0:0:
269,197,176260,1,0,0:0:0:0:
66,196,176510,1,0,0:0:0:0:
460,194,176760,1,0,0:0:0:0:
188,200,177010,1,0,0:0:0:0:
423,195,177260,1,0,0:0:0:0:
115,204,177760,1,0,0:0:0:0:
444,197,178260,1,0,0:0:0:0:
261,200,178510,1,0,0:0:0:0:
362,194,178760,1,0,0:0:0:0:
324,199,179010,1,0,0:0:0:0:
20,199,179260,1,0,0:0:0:0:
460,193,179510,1,0,0:0:0:0:
257,197,179760,1,0,0:0:0:0:
120,196,180260,1,0,0:0:0:0:
490,188,180510,1,0,0:0:0:0:
178,195,181010,1,0,0:0:0:0:
332,190,181260,1,0,0:0:0:0:
136,194,181510,1,0,0:0:0:0:
274,193,181760,1,0,0:0:0:0:
474,191,182010,1,0,0:0:0:0:
345,197,182260,1,0,0:0:0:0:
63,193,182510,1,0,0:0:0:0:
480,201,184260,1,0,0:0:0:0:
121,197,184510,1,0,0:0:0:0:
229,201,184760,1,0,0:0:0:0:
32,172,185010,1,0,0:0:0:0:
463,172,185510,1,0,0:0:0:0:
368,177,185760,1,0,0:0:0:0:
288,177,186010,1,0,0:0:0:0:
18,176,186260,1,0,0:0:0:0:
468,173,186760,1,0,0:0:0:0:
329,177,187010,1,0,0:0:0:0:
270,180,187260,1,0,0:0:0:0:
32,198,187510,1,0,0:0:0:0:
437,197,188010,1,0,0:0:0:0:
260,201,188260,1,0,0:0:0:0:
313,190,188760,1,0,0:0:0:0:
198,194,189260,1,0,0:0:0:0:
281,189,189510,1,0,0:0:0:0:
214,194,189760,1,0,0:0:0:0:
256,192,190260,12,0,197510,0:0:0:0:
