osu file format v14

[General]
AudioFilename: audio.mp3
AudioLeadIn: 0
PreviewTime: -1
Countdown: 1
SampleSet: None
StackLeniency: 0.7
Mode: 3
LetterboxInBreaks: 0
SpecialStyle: 0
WidescreenStoryboard: 0

[Editor]
DistanceSpacing: 0.8
BeatDivisor: 4
GridSize: 8
TimelineZoom: 1

[Metadata]
Title:Octagonfire
TitleUnicode:Octagonfire
Artist:
ArtistUnicode:
Creator:CelegaS
Version:MX
Source:
Tags:
BeatmapID:1108262
BeatmapSetID:521796

[Difficulty]
HPDrainRate:8
CircleSize:4
OverallDifficulty:8
ApproachRate:5
SliderMultiplier:1.4
SliderTickRate:1

[Events]
//Background and Video events
0,0,"jack-black-octagonfire.png",0,0
//Break Periods
//Storyboard Layer 0 (Background)
//Storyboard Layer 1 (Fail)
//Storyboard Layer 2 (Pass)
//Storyboard Layer 3 (Foreground)
//Storyboard Sound Samples

[TimingPoints]
9752.64751448528,454.545454545455,4,1,0,100,1,0

[HitObjects]
448,192,9752,5,0,0:0:0:0:
320,192,9752,1,0,0:0:0:0:
64,192,9979,1,0,0:0:0:0:
320,192,10207,1,0,0:0:0:0:
448,192,10207,1,0,0:0:0:0:
192,192,10434,1,0,0:0:0:0:
320,192,10661,1,0,0:0:0:0:
448,192,10661,1,0,0:0:0:0:
64,192,10889,1,0,0:0:0:0:
320,192,11002,1,0,0:0:0:0:
448,192,11116,1,0,0:0:0:0:
320,192,11343,1,0,0:0:0:0:
64,192,11570,1,0,0:0:0:0:
320,192,11570,1,0,0:0:0:0:
192,192,11798,1,0,0:0:0:0:
64,192,12025,1,0,0:0:0:0:
320,192,12025,1,0,0:0:0:0:
448,192,12252,1,0,0:0:0:0:
320,192,12366,1,0,0:0:0:0:
192,192,12479,1,0,0:0:0:0:
64,192,12479,1,0,0:0:0:0:
64,192,12820,1,0,0:0:0:0:
320,192,12934,1,0,0:0:0:0:
320,192,13048,1,0,0:0:0:0:
320,192,13161,1,0,0:0:0:0:
320,192,13275,1,0,0:0:0:0:
64,192,13389,1,0,0:0:0:0:
64,192,13502,1,0,0:0:0:0:
64,192,13616,1,0,0:0:0:0:
64,192,13729,1,0,0:0:0:0:
448,192,13843,1,0,0:0:0:0:
448,192,13957,1,0,0:0:0:0:
448,192,14070,1,0,0:0:0:0:
448,192,14184,1,0,0:0:0:0:
64,192,14298,1,0,0:0:0:0:
192,192,14298,1,0,0:0:0:0:
320,192,14525,1,0,0:0:0:0:
192,192,14639,1,0,0:0:0:0:
448,192,14752,1,0,0:0:0:0:
64,192,14752,1,0,0:0:0:0:
192,192,14979,1,0,0:0:0:0:
64,192,15207,128,0,15548:0:0:0:0:
448,192,15207,1,0,0:0:0:0:
192,192,15207,1,0,0:0:0:0:
320,192,15434,1,0,0:0:0:0:
192,192,15548,1,0,0:0:0:0:
320,192,15661,1,0,0:0:0:0:
448,192,15661,1,0,0:0:0:0:
320,192,15889,1,0,0:0:0:0:
64,192,16002,1,0,0:0:0:0:
320,192,16116,1,0,0:0:0:0:
448,192,16116,1,0,0:0:0:0:
320,192,16343,1,0,0:0:0:0:
448,192,16343,1,0,0:0:0:0:
448,192,16570,1,0,0:0:0:0:
320,192,16570,1,0,0:0:0:0:
64,192,16684,1,0,0:0:0:0:
192,192,16684,1,0,0:0:0:0:
192,192,16911,1,0,0:0:0:0:
64,192,16911,1,0,0:0:0:0:
320,192,17025,1,0,0:0:0:0:
448,192,17025,1,0,0:0:0:0:
192,192,17252,1,0,0:0:0:0:
448,192,17479,1,0,0:0:0:0:
64,192,17479,128,0,17707:0:0:0:0:
320,192,17707,1,0,0:0:0:0:
448,192,17934,1,0,0:0:0:0:
64,192,17934,128,0,18161:0:0:0:0:
192,192,18161,1,0,0:0:0:0:
448,192,18275,1,0,0:0:0:0:
64,192,18389,1,0,0:0:0:0:
448,192,18616,1,0,0:0:0:0:
320,192,18843,1,0,0:0:0:0:
192,192,18843,128,0,19070:0:0:0:0:
64,192,19070,1,0,0:0:0:0:
320,192,19298,1,0,0:0:0:0:
192,192,19298,128,0,19525:0:0:0:0:
448,192,19525,1,0,0:0:0:0:
64,192,19639,1,0,0:0:0:0:
320,192,19752,1,0,0:0:0:0:
192,192,19752,128,0,19979:0:0:0:0:
448,192,19979,1,0,0:0:0:0:
320,192,20093,1,0,0:0:0:0:
192,192,20207,1,0,0:0:0:0:
192,192,20320,1,0,0:0:0:0:
192,192,20434,1,0,0:0:0:0:
192,192,20548,1,0,0:0:0:0:
64,192,20661,1,0,0:0:0:0:
64,192,20775,1,0,0:0:0:0:
64,192,20889,1,0,0:0:0:0:
64,192,21002,1,0,0:0:0:0:
448,192,21116,1,0,0:0:0:0:
448,192,21229,1,0,0:0:0:0:
448,192,21343,1,0,0:0:0:0:
448,192,21457,1,0,0:0:0:0:
64,192,21570,1,0,0:0:0:0:
320,192,21570,1,0,0:0:0:0:
448,192,21798,1,0,0:0:0:0:
64,192,21911,1,0,0:0:0:0:
320,192,22025,1,0,0:0:0:0:
64,192,22252,1,0,0:0:0:0:
64,192,22479,1,0,0:0:0:0:
320,192,22479,1,0,0:0:0:0:
448,192,22479,128,0,22707:0:0:0:0:
192,192,22707,1,0,0:0:0:0:
320,192,22934,128,0,23161:0:0:0:0:
448,192,22934,1,0,0:0:0:0:
192,192,22934,128,0,23389:0:0:0:0:
64,192,22934,128,0,23729:0:0:0:0:
448,192,23161,128,0,24070:0:0:0:0:
320,192,23389,128,0,24070:0:0:0:0:
192,192,23729,128,0,24070:0:0:0:0:
64,192,24070,1,0,0:0:0:0:
64,192,24298,5,0,0:0:0:0:
448,192,24298,1,0,0:0:0:0:
320,192,24298,1,0,0:0:0:0:
192,192,24298,1,0,0:0:0:0:
448,192,24525,1,0,0:0:0:0:
64,192,24752,1,0,0:0:0:0:
192,192,24752,1,0,0:0:0:0:
320,192,24979,1,0,0:0:0:0:
64,192,25207,1,0,0:0:0:0:
192,192,25207,1,0,0:0:0:0:
448,192,25434,1,0,0:0:0:0:
192,192,25548,1,0,0:0:0:0:
64,192,25661,1,0,0:0:0:0:
192,192,25889,1,0,0:0:0:0:
192,192,26116,1,0,0:0:0:0:
448,192,26116,1,0,0:0:0:0:
320,192,26343,1,0,0:0:0:0:
192,192,26570,1,0,0:0:0:0:
448,192,26570,1,0,0:0:0:0:
64,192,26798,1,0,0:0:0:0:
192,192,26911,1,0,0:0:0:0:
448,192,27025,1,0,0:0:0:0:
320,192,27025,1,0,0:0:0:0:
448,192,27366,1,0,0:0:0:0:
192,192,27479,1,0,0:0:0:0:
192,192,27593,1,0,0:0:0:0:
192,192,27707,1,0,0:0:0:0:
192,192,27820,1,0,0:0:0:0:
448,192,27934,1,0,0:0:0:0:
448,192,28048,1,0,0:0:0:0:
448,192,28161,1,0,0:0:0:0:
448,192,28275,1,0,0:0:0:0:
64,192,28389,1,0,0:0:0:0:
64,192,28502,1,0,0:0:0:0:
64,192,28616,1,0,0:0:0:0:
64,192,28729,1,0,0:0:0:0:
320,192,28843,1,0,0:0:0:0:
448,192,28843,1,0,0:0:0:0:
192,192,29070,1,0,0:0:0:0:
320,192,29184,1,0,0:0:0:0:
448,192,29298,1,0,0:0:0:0:
64,192,29298,1,0,0:0:0:0:
320,192,29525,1,0,0:0:0:0:
320,192,29752,1,0,0:0:0:0:
64,192,29752,1,0,0:0:0:0:
448,192,29752,128,0,30093:0:0:0:0:
192,192,29979,1,0,0:0:0:0:
64,192,30207,1,0,0:0:0:0:
192,192,30207,1,0,0:0:0:0:
192,192,30434,1,0,0:0:0:0:
448,192,30548,1,0,0:0:0:0:
64,192,30661,1,0,0:0:0:0:
192,192,30661,1,0,0:0:0:0:
64,192,30889,1,0,0:0:0:0:
192,192,30889,1,0,0:0:0:0:
192,192,31116,1,0,0:0:0:0:
64,192,31116,1,0,0:0:0:0:
320,192,31229,1,0,0:0:0:0:
448,192,31229,1,0,0:0:0:0:
448,192,31457,1,0,0:0:0:0:
320,192,31457,1,0,0:0:0:0:
64,192,31570,1,0,0:0:0:0:
192,192,31570,1,0,0:0:0:0:
320,192,31798,1,0,0:0:0:0:
448,192,32025,128,0,32252:0:0:0:0:
64,192,32025,1,0,0:0:0:0:
192,192,32252,1,0,0:0:0:0:
448,192,32479,128,0,32707:0:0:0:0:
64,192,32479,1,0,0:0:0:0:
320,192,32707,1,0,0:0:0:0:
64,192,32820,1,0,0:0:0:0:
448,192,32934,1,0,0:0:0:0:
64,192,33161,1,0,0:0:0:0:
320,192,33389,128,0,33616:0:0:0:0:
192,192,33389,1,0,0:0:0:0:
448,192,33616,1,0,0:0:0:0:
320,192,33843,128,0,34070:0:0:0:0:
192,192,33843,1,0,0:0:0:0:
64,192,34070,1,0,0:0:0:0:
448,192,34184,1,0,0:0:0:0:
320,192,34298,128,0,34525:0:0:0:0:
192,192,34298,1,0,0:0:0:0:
64,192,34525,1,0,0:0:0:0:
192,192,34639,1,0,0:0:0:0:
320,192,34752,1,0,0:0:0:0:
320,192,34866,1,0,0:0:0:0:
320,192,34979,1,0,0:0:0:0:
320,192,35093,1,0,0:0:0:0:
448,192,35207,1,0,0:0:0:0:
448,192,35320,1,0,0:0:0:0:
448,192,35434,1,0,0:0:0:0:
448,192,35548,1,0,0:0:0:0:
64,192,35661,1,0,0:0:0:0:
64,192,35775,1,0,0:0:0:0:
64,192,35889,1,0,0:0:0:0:
64,192,36002,1,0,0:0:0:0:
192,192,36116,1,0,0:0:0:0:
448,192,36116,1,0,0:0:0:0:
64,192,36343,1,0,0:0:0:0:
448,192,36457,1,0,0:0:0:0:
192,192,36570,1,0,0:0:0:0:
448,192,36798,1,0,0:0:0:0:
64,192,37025,128,0,37252:0:0:0:0:
192,192,37025,1,0,0:0:0:0:
448,192,37025,1,0,0:0:0:0:
320,192,37252,1,0,0:0:0:0:
320,192,37479,128,0,37934:0:0:0:0:
448,192,37479,128,0,38275:0:0:0:0:
192,192,37479,128,0,37707:0:0:0:0:
64,192,37479,1,0,0:0:0:0:
64,192,37707,128,0,38616:0:0:0:0:
192,192,37934,128,0,38616:0:0:0:0:
320,192,38275,128,0,38616:0:0:0:0:
448,192,38616,1,0,0:0:0:0:
192,192,38843,1,0,0:0:0:0:
320,192,38843,1,0,0:0:0:0:
64,192,39070,1,0,0:0:0:0:
320,192,39298,1,0,0:0:0:0:
448,192,39525,1,0,0:0:0:0:
64,192,39525,1,0,0:0:0:0:
320,192,39752,1,0,0:0:0:0:
192,192,39752,1,0,0:0:0:0:
320,192,40093,1,0,0:0:0:0:
320,192,40434,1,0,0:0:0:0:
64,192,40661,1,0,0:0:0:0:
64,192,41116,1,0,0:0:0:0:
64,192,41570,1,0,0:0:0:0:
64,192,41911,1,0,0:0:0:0:
64,192,42252,1,0,0:0:0:0:
448,192,42479,1,0,0:0:0:0:
448,192,42934,1,0,0:0:0:0:
448,192,43389,1,0,0:0:0:0:
448,192,43729,1,0,0:0:0:0:
448,192,44070,1,0,0:0:0:0:
192,192,44298,1,0,0:0:0:0:
192,192,44752,1,0,0:0:0:0:
192,192,45207,1,0,0:0:0:0:
192,192,45434,1,0,0:0:0:0:
320,192,45661,1,0,0:0:0:0:
192,192,46116,1,0,0:0:0:0:
320,192,46570,1,0,0:0:0:0:
192,192,47025,1,0,0:0:0:0:
320,192,47366,1,0,0:0:0:0:
192,192,47707,1,0,0:0:0:0:
448,192,47934,1,0,0:0:0:0:
64,192,48389,1,0,0:0:0:0:
448,192,48843,1,0,0:0:0:0:
64,192,49184,1,0,0:0:0:0:
448,192,49525,1,0,0:0:0:0:
192,192,49752,1,0,0:0:0:0:
320,192,49752,1,0,0:0:0:0:
192,192,50207,1,0,0:0:0:0:
192,192,50434,1,0,0:0:0:0:
320,192,51116,1,0,0:0:0:0:
448,192,52025,1,0,0:0:0:0:
448,192,52252,1,0,0:0:0:0:
64,192,52934,1,0,0:0:0:0:
320,192,53389,1,0,0:0:0:0:
448,192,53389,1,0,0:0:0:0:
192,192,53616,1,0,0:0:0:0:
320,192,53843,1,0,0:0:0:0:
64,192,53843,1,0,0:0:0:0:
448,192,54070,1,0,0:0:0:0:
192,192,54070,1,0,0:0:0:0:
320,192,54298,1,0,0:0:0:0:
192,192,54298,1,0,0:0:0:0:
64,192,54525,1,0,0:0:0:0:
320,192,54752,1,0,0:0:0:0:
448,192,54752,1,0,0:0:0:0:
192,192,54979,1,0,0:0:0:0:
320,192,54979,1,0,0:0:0:0:
64,192,55207,1,0,0:0:0:0:
448,192,55207,1,0,0:0:0:0:
320,192,55434,1,0,0:0:0:0:
192,192,55661,1,0,0:0:0:0:
64,192,55661,1,0,0:0:0:0:
448,192,55889,1,0,0:0:0:0:
320,192,56116,1,0,0:0:0:0:
64,192,56116,1,0,0:0:0:0:
448,192,56343,1,0,0:0:0:0:
192,192,56570,1,0,0:0:0:0:
320,192,56570,1,0,0:0:0:0:
64,192,56798,1,0,0:0:0:0:
320,192,56798,1,0,0:0:0:0:
192,192,57025,1,0,0:0:0:0:
448,192,57025,1,0,0:0:0:0:
64,192,57252,1,0,0:0:0:0:
320,192,57479,1,0,0:0:0:0:
448,192,57479,1,0,0:0:0:0:
64,192,57707,1,0,0:0:0:0:
320,192,57707,1,0,0:0:0:0:
192,192,57934,1,0,0:0:0:0:
448,192,57934,1,0,0:0:0:0:
320,192,58161,1,0,0:0:0:0:
64,192,58389,1,0,0:0:0:0:
448,192,58389,1,0,0:0:0:0:
320,192,58616,1,0,0:0:0:0:
192,192,58616,1,0,0:0:0:0:
192,192,58843,1,0,0:0:0:0:
64,192,58843,1,0,0:0:0:0:
448,192,59070,1,0,0:0:0:0:
320,192,59070,1,0,0:0:0:0:
192,192,59298,1,0,0:0:0:0:
320,192,59298,1,0,0:0:0:0:
64,192,59525,1,0,0:0:0:0:
448,192,59525,1,0,0:0:0:0:
320,192,59639,1,0,0:0:0:0:
192,192,59752,1,0,0:0:0:0:
448,192,59752,1,0,0:0:0:0:
320,192,59979,1,0,0:0:0:0:
192,192,59979,1,0,0:0:0:0:
64,192,60093,1,0,0:0:0:0:
192,192,60207,1,0,0:0:0:0:
448,192,60207,1,0,0:0:0:0:
64,192,60434,1,0,0:0:0:0:
192,192,60434,1,0,0:0:0:0:
320,192,60661,1,0,0:0:0:0:
448,192,60661,1,0,0:0:0:0:
64,192,60775,1,0,0:0:0:0:
192,192,60889,1,0,0:0:0:0:
320,192,60889,1,0,0:0:0:0:
448,192,61002,1,0,0:0:0:0:
64,192,61116,1,0,0:0:0:0:
320,192,61116,1,0,0:0:0:0:
192,192,61229,1,0,0:0:0:0:
448,192,61343,1,0,0:0:0:0:
320,192,61343,1,0,0:0:0:0:
64,192,61457,1,0,0:0:0:0:
320,192,61570,1,0,0:0:0:0:
192,192,61570,1,0,0:0:0:0:
448,192,61684,1,0,0:0:0:0:
64,192,61798,1,0,0:0:0:0:
320,192,61798,1,0,0:0:0:0:
192,192,61911,1,0,0:0:0:0:
448,192,62025,1,0,0:0:0:0:
320,192,62025,1,0,0:0:0:0:
64,192,62139,1,0,0:0:0:0:
320,192,62252,1,0,0:0:0:0:
192,192,62252,1,0,0:0:0:0:
448,192,62366,1,0,0:0:0:0:
64,192,62479,1,0,0:0:0:0:
320,192,62479,1,0,0:0:0:0:
448,192,62593,1,0,0:0:0:0:
192,192,62707,1,0,0:0:0:0:
320,192,62707,1,0,0:0:0:0:
64,192,62820,1,0,0:0:0:0:
448,192,62934,1,0,0:0:0:0:
192,192,62934,1,0,0:0:0:0:
320,192,63048,1,0,0:0:0:0:
64,192,63161,1,0,0:0:0:0:
448,192,63161,1,0,0:0:0:0:
192,192,63275,1,0,0:0:0:0:
320,192,63389,1,0,0:0:0:0:
448,192,63389,1,0,0:0:0:0:
192,192,63502,1,0,0:0:0:0:
64,192,63616,1,0,0:0:0:0:
320,192,63616,1,0,0:0:0:0:
192,192,63729,1,0,0:0:0:0:
320,192,63843,1,0,0:0:0:0:
448,192,63843,1,0,0:0:0:0:
192,192,63957,1,0,0:0:0:0:
64,192,64070,1,0,0:0:0:0:
320,192,64070,1,0,0:0:0:0:
448,192,64184,1,0,0:0:0:0:
320,192,64298,1,0,0:0:0:0:
192,192,64298,1,0,0:0:0:0:
64,192,64411,1,0,0:0:0:0:
192,192,64525,1,0,0:0:0:0:
448,192,64525,1,0,0:0:0:0:
320,192,64639,1,0,0:0:0:0:
192,192,64752,1,0,0:0:0:0:
64,192,64752,1,0,0:0:0:0:
320,192,64866,1,0,0:0:0:0:
192,192,64979,1,0,0:0:0:0:
448,192,64979,1,0,0:0:0:0:
64,192,65093,1,0,0:0:0:0:
192,192,65207,1,0,0:0:0:0:
320,192,65207,1,0,0:0:0:0:
448,192,65320,1,0,0:0:0:0:
320,192,65434,1,0,0:0:0:0:
64,192,65434,1,0,0:0:0:0:
192,192,65548,1,0,0:0:0:0:
320,192,65661,1,0,0:0:0:0:
448,192,65661,1,0,0:0:0:0:
64,192,65775,1,0,0:0:0:0:
192,192,65889,1,0,0:0:0:0:
448,192,65889,1,0,0:0:0:0:
64,192,66002,1,0,0:0:0:0:
320,192,66116,1,0,0:0:0:0:
448,192,66116,1,0,0:0:0:0:
64,192,66343,1,0,0:0:0:0:
192,192,66343,1,0,0:0:0:0:
320,192,66457,1,0,0:0:0:0:
448,192,66457,1,0,0:0:0:0:
64,192,66570,1,0,0:0:0:0:
192,192,66570,1,0,0:0:0:0:
320,192,66684,1,0,0:0:0:0:
448,192,66684,1,0,0:0:0:0:
64,192,66798,1,0,0:0:0:0:
192,192,66798,1,0,0:0:0:0:
320,192,66911,1,0,0:0:0:0:
448,192,66911,1,0,0:0:0:0:
192,192,67025,1,0,0:0:0:0:
64,192,67025,1,0,0:0:0:0:
320,192,67252,1,0,0:0:0:0:
448,192,67252,1,0,0:0:0:0:
64,192,67934,1,0,0:0:0:0:
192,192,67934,1,0,0:0:0:0:
320,192,67934,1,0,0:0:0:0:
448,192,67934,1,0,0:0:0:0:
64,192,68048,1,0,0:0:0:0:
192,192,68048,1,0,0:0:0:0:
64,192,68389,1,0,0:0:0:0:
192,192,68389,1,0,0:0:0:0:
448,192,68502,1,0,0:0:0:0:
320,192,68616,1,0,0:0:0:0:
192,192,68729,1,0,0:0:0:0:
64,192,68843,128,0,69298:0:0:0:0:
320,192,68843,128,0,69070:0:0:0:0:
448,192,68843,128,0,69525:0:0:0:0:
192,192,69070,128,0,69752:0:0:0:0:
320,192,69298,128,0,69752:0:0:0:0:
64,192,69525,128,0,69752:0:0:0:0:
448,192,69752,1,0,0:0:0:0:
192,192,69866,1,0,0:0:0:0:
64,192,69866,1,0,0:0:0:0:
448,192,70207,1,0,0:0:0:0:
320,192,70207,1,0,0:0:0:0:
64,192,70320,1,0,0:0:0:0:
192,192,70434,1,0,0:0:0:0:
320,192,70548,1,0,0:0:0:0:
448,192,70661,128,0,71343:0:0:0:0:
192,192,70661,128,0,70889:0:0:0:0:
64,192,70661,128,0,71116:0:0:0:0:
320,192,70889,128,0,71343:0:0:0:0:
192,192,71116,128,0,71343:0:0:0:0:
64,192,71343,128,0,71570:0:0:0:0:
320,192,71570,1,0,0:0:0:0:
448,192,71570,1,0,0:0:0:0:
320,192,71684,1,0,0:0:0:0:
448,192,71684,1,0,0:0:0:0:
320,192,71798,1,0,0:0:0:0:
448,192,71798,1,0,0:0:0:0:
320,192,71911,1,0,0:0:0:0:
448,192,71911,1,0,0:0:0:0:
64,192,72025,1,0,0:0:0:0:
192,192,72025,1,0,0:0:0:0:
320,192,72139,1,0,0:0:0:0:
320,192,72252,1,0,0:0:0:0:
320,192,72366,1,0,0:0:0:0:
320,192,72479,1,0,0:0:0:0:
192,192,72479,1,0,0:0:0:0:
448,192,72555,1,0,0:0:0:0:
64,192,72631,128,0,72934:0:0:0:0:
320,192,72934,1,0,0:0:0:0:
448,192,72934,1,0,0:0:0:0:
192,192,72934,128,0,73161:0:0:0:0:
320,192,73161,128,0,73389:0:0:0:0:
64,192,73389,1,0,0:0:0:0:
192,192,73389,1,0,0:0:0:0:
448,192,73502,1,0,0:0:0:0:
320,192,73502,1,0,0:0:0:0:
64,192,73843,1,0,0:0:0:0:
320,192,73843,1,0,0:0:0:0:
192,192,73957,1,0,0:0:0:0:
320,192,74070,1,0,0:0:0:0:
448,192,74184,1,0,0:0:0:0:
448,192,74298,1,0,0:0:0:0:
320,192,74298,1,0,0:0:0:0:
320,192,74525,1,0,0:0:0:0:
192,192,74525,1,0,0:0:0:0:
192,192,74752,1,0,0:0:0:0:
64,192,74752,1,0,0:0:0:0:
192,192,74979,1,0,0:0:0:0:
320,192,74979,1,0,0:0:0:0:
192,192,75207,1,0,0:0:0:0:
64,192,75207,1,0,0:0:0:0:
448,192,75320,1,0,0:0:0:0:
320,192,75320,1,0,0:0:0:0:
448,192,75661,1,0,0:0:0:0:
320,192,75661,1,0,0:0:0:0:
64,192,75775,1,0,0:0:0:0:
192,192,75889,1,0,0:0:0:0:
320,192,76002,1,0,0:0:0:0:
448,192,76116,128,0,76570:0:0:0:0:
192,192,76116,128,0,76343:0:0:0:0:
64,192,76116,128,0,76798:0:0:0:0:
320,192,76343,128,0,77025:0:0:0:0:
192,192,76570,128,0,77025:0:0:0:0:
448,192,76798,128,0,77025:0:0:0:0:
64,192,77025,1,0,0:0:0:0:
320,192,77139,1,0,0:0:0:0:
448,192,77139,1,0,0:0:0:0:
64,192,77479,1,0,0:0:0:0:
192,192,77479,1,0,0:0:0:0:
448,192,77593,1,0,0:0:0:0:
320,192,77707,1,0,0:0:0:0:
192,192,77820,1,0,0:0:0:0:
64,192,77934,128,0,78616:0:0:0:0:
320,192,77934,128,0,78161:0:0:0:0:
448,192,77934,128,0,78389:0:0:0:0:
192,192,78161,128,0,78616:0:0:0:0:
320,192,78389,128,0,78616:0:0:0:0:
448,192,78616,128,0,78843:0:0:0:0:
192,192,78843,1,0,0:0:0:0:
64,192,78843,1,0,0:0:0:0:
192,192,78957,1,0,0:0:0:0:
64,192,78957,1,0,0:0:0:0:
192,192,79070,1,0,0:0:0:0:
64,192,79070,1,0,0:0:0:0:
192,192,79184,1,0,0:0:0:0:
64,192,79184,1,0,0:0:0:0:
448,192,79298,1,0,0:0:0:0:
320,192,79298,1,0,0:0:0:0:
192,192,79411,1,0,0:0:0:0:
192,192,79525,1,0,0:0:0:0:
192,192,79639,1,0,0:0:0:0:
320,192,79752,1,0,0:0:0:0:
192,192,79866,1,0,0:0:0:0:
192,192,79979,1,0,0:0:0:0:
192,192,80093,1,0,0:0:0:0:
64,192,80207,1,0,0:0:0:0:
320,192,80207,128,0,80434:0:0:0:0:
448,192,80207,1,0,0:0:0:0:
192,192,80434,128,0,80661:0:0:0:0:
448,192,80661,1,0,0:0:0:0:
320,192,80661,1,0,0:0:0:0:
64,192,80775,1,0,0:0:0:0:
192,192,80775,1,0,0:0:0:0:
448,192,81116,1,0,0:0:0:0:
320,192,81229,1,0,0:0:0:0:
448,192,81229,1,0,0:0:0:0:
192,192,81343,1,0,0:0:0:0:
448,192,81343,1,0,0:0:0:0:
64,192,81457,1,0,0:0:0:0:
448,192,81457,1,0,0:0:0:0:
448,192,81570,1,0,0:0:0:0:
320,192,81627,1,0,0:0:0:0:
192,192,81684,1,0,0:0:0:0:
64,192,81741,1,0,0:0:0:0:
448,192,81798,1,0,0:0:0:0:
320,192,81798,1,0,0:0:0:0:
64,192,81873,1,0,0:0:0:0:
192,192,81949,1,0,0:0:0:0:
320,192,82025,1,0,0:0:0:0:
448,192,82025,1,0,0:0:0:0:
320,192,82252,1,0,0:0:0:0:
192,192,82252,1,0,0:0:0:0:
320,192,82479,1,0,0:0:0:0:
448,192,82479,1,0,0:0:0:0:
192,192,82479,1,0,0:0:0:0:
64,192,82479,1,0,0:0:0:0:
320,192,82707,1,0,0:0:0:0:
64,192,82934,1,0,0:0:0:0:
192,192,82934,1,0,0:0:0:0:
320,192,83048,128,0,83616:0:0:0:0:
64,192,83161,128,0,83389:0:0:0:0:
192,192,83275,128,0,84070:0:0:0:0:
448,192,83389,128,0,83843:0:0:0:0:
64,192,83616,128,0,84070:0:0:0:0:
320,192,83843,128,0,84070:0:0:0:0:
448,192,84298,1,0,0:0:0:0:
320,192,84298,1,0,0:0:0:0:
192,192,84525,1,0,0:0:0:0:
320,192,84752,1,0,0:0:0:0:
448,192,84752,1,0,0:0:0:0:
192,192,84866,128,0,85434:0:0:0:0:
64,192,84979,128,0,85207:0:0:0:0:
320,192,85093,128,0,85889:0:0:0:0:
448,192,85207,128,0,85661:0:0:0:0:
64,192,85434,128,0,85889:0:0:0:0:
192,192,85661,128,0,85889:0:0:0:0:
64,192,86116,1,0,0:0:0:0:
448,192,86116,1,0,0:0:0:0:
192,192,86343,1,0,0:0:0:0:
448,192,86570,1,0,0:0:0:0:
64,192,86570,1,0,0:0:0:0:
192,192,86684,128,0,87252:0:0:0:0:
448,192,86798,128,0,87025:0:0:0:0:
320,192,86911,128,0,87707:0:0:0:0:
64,192,87025,128,0,87479:0:0:0:0:
448,192,87252,128,0,87707:0:0:0:0:
192,192,87479,128,0,87707:0:0:0:0:
192,192,87934,1,0,0:0:0:0:
320,192,87934,1,0,0:0:0:0:
320,192,88161,1,0,0:0:0:0:
192,192,88389,1,0,0:0:0:0:
320,192,88389,1,0,0:0:0:0:
192,192,88502,128,0,88843:0:0:0:0:
448,192,88616,128,0,89525:0:0:0:0:
320,192,88729,128,0,89525:0:0:0:0:
64,192,88843,128,0,89070:0:0:0:0:
192,192,89070,128,0,89298:0:0:0:0:
64,192,89298,128,0,89525:0:0:0:0:
192,192,89752,1,0,0:0:0:0:
64,192,89752,1,0,0:0:0:0:
320,192,89752,1,0,0:0:0:0:
448,192,89752,1,0,0:0:0:0:
192,192,89979,1,0,0:0:0:0:
448,192,90207,1,0,0:0:0:0:
320,192,90207,1,0,0:0:0:0:
192,192,90320,128,0,90889:0:0:0:0:
448,192,90434,128,0,90661:0:0:0:0:
320,192,90548,128,0,91343:0:0:0:0:
64,192,90661,128,0,91116:0:0:0:0:
448,192,90889,128,0,91343:0:0:0:0:
192,192,91116,128,0,91343:0:0:0:0:
64,192,91570,1,0,0:0:0:0:
192,192,91570,1,0,0:0:0:0:
320,192,91798,1,0,0:0:0:0:
192,192,92025,1,0,0:0:0:0:
64,192,92025,1,0,0:0:0:0:
320,192,92139,128,0,92707:0:0:0:0:
448,192,92252,128,0,92479:0:0:0:0:
192,192,92366,128,0,93161:0:0:0:0:
64,192,92479,128,0,92934:0:0:0:0:
448,192,92707,128,0,93161:0:0:0:0:
320,192,92934,128,0,93161:0:0:0:0:
448,192,93389,1,0,0:0:0:0:
64,192,93389,1,0,0:0:0:0:
320,192,93616,1,0,0:0:0:0:
64,192,93843,1,0,0:0:0:0:
448,192,93843,1,0,0:0:0:0:
320,192,93957,128,0,94525:0:0:0:0:
64,192,94070,128,0,94298:0:0:0:0:
192,192,94184,128,0,94979:0:0:0:0:
448,192,94298,128,0,94752:0:0:0:0:
64,192,94525,128,0,94979:0:0:0:0:
320,192,94752,128,0,94979:0:0:0:0:
320,192,95207,1,0,0:0:0:0:
192,192,95207,1,0,0:0:0:0:
64,192,95661,1,0,0:0:0:0:
192,192,95661,1,0,0:0:0:0:
320,192,95775,1,0,0:0:0:0:
448,192,95775,1,0,0:0:0:0:
64,192,95889,1,0,0:0:0:0:
192,192,95889,1,0,0:0:0:0:
320,192,96002,1,0,0:0:0:0:
448,192,96002,1,0,0:0:0:0:
64,192,96116,1,0,0:0:0:0:
192,192,96116,1,0,0:0:0:0:
320,192,96343,1,0,0:0:0:0:
448,192,96343,1,0,0:0:0:0:
448,192,97025,1,0,0:0:0:0:
320,192,97025,1,0,0:0:0:0:
192,192,97025,1,0,0:0:0:0:
64,192,97025,1,0,0:0:0:0:
448,192,97139,1,0,0:0:0:0:
320,192,97139,1,0,0:0:0:0:
448,192,97479,1,0,0:0:0:0:
320,192,97479,1,0,0:0:0:0:
64,192,97593,1,0,0:0:0:0:
192,192,97707,1,0,0:0:0:0:
320,192,97820,1,0,0:0:0:0:
448,192,97934,128,0,98389:0:0:0:0:
192,192,97934,128,0,98161:0:0:0:0:
64,192,97934,128,0,98616:0:0:0:0:
320,192,98161,128,0,98843:0:0:0:0:
192,192,98389,128,0,98843:0:0:0:0:
448,192,98616,128,0,98843:0:0:0:0:
64,192,98843,1,0,0:0:0:0:
320,192,98957,1,0,0:0:0:0:
448,192,98957,1,0,0:0:0:0:
64,192,99298,1,0,0:0:0:0:
192,192,99298,1,0,0:0:0:0:
448,192,99411,1,0,0:0:0:0:
320,192,99525,1,0,0:0:0:0:
192,192,99639,1,0,0:0:0:0:
64,192,99752,128,0,100434:0:0:0:0:
320,192,99752,128,0,99979:0:0:0:0:
448,192,99752,128,0,100207:0:0:0:0:
192,192,99979,128,0,100434:0:0:0:0:
320,192,100207,128,0,100434:0:0:0:0:
448,192,100434,128,0,100661:0:0:0:0:
192,192,100661,1,0,0:0:0:0:
64,192,100661,1,0,0:0:0:0:
192,192,100775,1,0,0:0:0:0:
64,192,100775,1,0,0:0:0:0:
192,192,100889,1,0,0:0:0:0:
64,192,100889,1,0,0:0:0:0:
192,192,101002,1,0,0:0:0:0:
64,192,101002,1,0,0:0:0:0:
448,192,101116,1,0,0:0:0:0:
320,192,101116,1,0,0:0:0:0:
192,192,101229,1,0,0:0:0:0:
192,192,101343,1,0,0:0:0:0:
192,192,101457,1,0,0:0:0:0:
192,192,101570,1,0,0:0:0:0:
320,192,101570,1,0,0:0:0:0:
64,192,101646,1,0,0:0:0:0:
448,192,101722,128,0,102025:0:0:0:0:
192,192,102025,1,0,0:0:0:0:
64,192,102025,1,0,0:0:0:0:
320,192,102025,128,0,102252:0:0:0:0:
192,192,102252,128,0,102479:0:0:0:0:
448,192,102479,1,0,0:0:0:0:
320,192,102479,1,0,0:0:0:0:
64,192,102593,1,0,0:0:0:0:
192,192,102593,1,0,0:0:0:0:
448,192,102934,1,0,0:0:0:0:
192,192,102934,1,0,0:0:0:0:
320,192,103048,1,0,0:0:0:0:
192,192,103161,1,0,0:0:0:0:
64,192,103275,1,0,0:0:0:0:
64,192,103389,1,0,0:0:0:0:
192,192,103389,1,0,0:0:0:0:
192,192,103616,1,0,0:0:0:0:
320,192,103616,1,0,0:0:0:0:
320,192,103843,1,0,0:0:0:0:
448,192,103843,1,0,0:0:0:0:
320,192,104070,1,0,0:0:0:0:
192,192,104070,1,0,0:0:0:0:
320,192,104298,1,0,0:0:0:0:
448,192,104298,1,0,0:0:0:0:
64,192,104411,1,0,0:0:0:0:
192,192,104411,1,0,0:0:0:0:
64,192,104752,1,0,0:0:0:0:
192,192,104752,1,0,0:0:0:0:
448,192,104866,1,0,0:0:0:0:
320,192,104979,1,0,0:0:0:0:
192,192,105093,1,0,0:0:0:0:
64,192,105207,128,0,105661:0:0:0:0:
320,192,105207,128,0,105434:0:0:0:0:
448,192,105207,128,0,105889:0:0:0:0:
192,192,105434,128,0,106116:0:0:0:0:
320,192,105661,128,0,106116:0:0:0:0:
64,192,105889,128,0,106116:0:0:0:0:
448,192,106116,1,0,0:0:0:0:
192,192,106229,1,0,0:0:0:0:
64,192,106229,1,0,0:0:0:0:
448,192,106570,1,0,0:0:0:0:
320,192,106570,1,0,0:0:0:0:
64,192,106684,1,0,0:0:0:0:
192,192,106798,1,0,0:0:0:0:
320,192,106911,1,0,0:0:0:0:
448,192,107025,128,0,107707:0:0:0:0:
192,192,107025,128,0,107252:0:0:0:0:
64,192,107025,128,0,107479:0:0:0:0:
320,192,107252,128,0,107707:0:0:0:0:
192,192,107479,128,0,107707:0:0:0:0:
64,192,107707,128,0,107934:0:0:0:0:
320,192,107934,1,0,0:0:0:0:
448,192,107934,1,0,0:0:0:0:
320,192,108048,1,0,0:0:0:0:
448,192,108048,1,0,0:0:0:0:
320,192,108161,1,0,0:0:0:0:
448,192,108161,1,0,0:0:0:0:
320,192,108275,1,0,0:0:0:0:
448,192,108275,1,0,0:0:0:0:
64,192,108389,1,0,0:0:0:0:
192,192,108389,1,0,0:0:0:0:
320,192,108502,1,0,0:0:0:0:
320,192,108616,1,0,0:0:0:0:
320,192,108729,1,0,0:0:0:0:
448,192,108843,1,0,0:0:0:0:
64,192,108957,128,0,109298:0:0:0:0:
448,192,109298,1,0,0:0:0:0:
192,192,109298,128,0,109525:0:0:0:0:
320,192,109298,1,0,0:0:0:0:
320,192,109525,128,0,109752:0:0:0:0:
64,192,109752,1,0,0:0:0:0:
192,192,109752,1,0,0:0:0:0:
448,192,109866,1,0,0:0:0:0:
320,192,109866,1,0,0:0:0:0:
64,192,110207,1,0,0:0:0:0:
192,192,110207,1,0,0:0:0:0:
64,192,110320,1,0,0:0:0:0:
192,192,110320,1,0,0:0:0:0:
64,192,110434,1,0,0:0:0:0:
192,192,110434,1,0,0:0:0:0:
64,192,110548,1,0,0:0:0:0:
192,192,110548,1,0,0:0:0:0:
64,192,110661,1,0,0:0:0:0:
192,192,110661,1,0,0:0:0:0:
64,192,110889,1,0,0:0:0:0:
192,192,110889,1,0,0:0:0:0:
448,192,110964,1,0,0:0:0:0:
320,192,111040,1,0,0:0:0:0:
192,192,111116,1,0,0:0:0:0:
320,192,111229,1,0,0:0:0:0:
448,192,111343,1,0,0:0:0:0:
320,192,111457,1,0,0:0:0:0:
448,192,111570,5,0,0:0:0:0:
192,192,111570,1,0,0:0:0:0:
64,192,111570,1,0,0:0:0:0:
64,192,111798,1,0,0:0:0:0:
320,192,112025,1,0,0:0:0:0:
448,192,112025,1,0,0:0:0:0:
192,192,112252,1,0,0:0:0:0:
320,192,112479,1,0,0:0:0:0:
448,192,112479,1,0,0:0:0:0:
64,192,112707,1,0,0:0:0:0:
320,192,112820,1,0,0:0:0:0:
448,192,112934,1,0,0:0:0:0:
320,192,113161,1,0,0:0:0:0:
64,192,113389,1,0,0:0:0:0:
320,192,113389,1,0,0:0:0:0:
192,192,113616,1,0,0:0:0:0:
64,192,113843,1,0,0:0:0:0:
320,192,113843,1,0,0:0:0:0:
448,192,114070,1,0,0:0:0:0:
320,192,114184,1,0,0:0:0:0:
192,192,114298,1,0,0:0:0:0:
64,192,114298,1,0,0:0:0:0:
64,192,114639,1,0,0:0:0:0:
320,192,114752,1,0,0:0:0:0:
320,192,114866,1,0,0:0:0:0:
320,192,114979,1,0,0:0:0:0:
320,192,115093,1,0,0:0:0:0:
64,192,115207,1,0,0:0:0:0:
64,192,115320,1,0,0:0:0:0:
64,192,115434,1,0,0:0:0:0:
64,192,115548,1,0,0:0:0:0:
448,192,115661,1,0,0:0:0:0:
448,192,115775,1,0,0:0:0:0:
448,192,115889,1,0,0:0:0:0:
448,192,116002,1,0,0:0:0:0:
64,192,116116,1,0,0:0:0:0:
192,192,116116,1,0,0:0:0:0:
320,192,116343,1,0,0:0:0:0:
192,192,116457,1,0,0:0:0:0:
448,192,116570,1,0,0:0:0:0:
64,192,116570,1,0,0:0:0:0:
192,192,116798,1,0,0:0:0:0:
64,192,117025,128,0,117366:0:0:0:0:
448,192,117025,1,0,0:0:0:0:
192,192,117025,1,0,0:0:0:0:
320,192,117252,1,0,0:0:0:0:
192,192,117366,1,0,0:0:0:0:
320,192,117479,1,0,0:0:0:0:
448,192,117479,1,0,0:0:0:0:
320,192,117707,1,0,0:0:0:0:
64,192,117820,1,0,0:0:0:0:
320,192,117934,1,0,0:0:0:0:
448,192,117934,1,0,0:0:0:0:
320,192,118161,1,0,0:0:0:0:
448,192,118161,1,0,0:0:0:0:
448,192,118389,1,0,0:0:0:0:
320,192,118389,1,0,0:0:0:0:
64,192,118502,1,0,0:0:0:0:
192,192,118502,1,0,0:0:0:0:
192,192,118729,1,0,0:0:0:0:
64,192,118729,1,0,0:0:0:0:
320,192,118843,1,0,0:0:0:0:
448,192,118843,1,0,0:0:0:0:
192,192,119070,1,0,0:0:0:0:
448,192,119298,1,0,0:0:0:0:
64,192,119298,128,0,119525:0:0:0:0:
320,192,119525,1,0,0:0:0:0:
448,192,119752,1,0,0:0:0:0:
64,192,119752,128,0,119979:0:0:0:0:
192,192,119979,1,0,0:0:0:0:
448,192,120093,1,0,0:0:0:0:
64,192,120207,1,0,0:0:0:0:
448,192,120434,1,0,0:0:0:0:
320,192,120661,1,0,0:0:0:0:
192,192,120661,128,0,120889:0:0:0:0:
64,192,120889,1,0,0:0:0:0:
320,192,121116,1,0,0:0:0:0:
192,192,121116,128,0,121343:0:0:0:0:
448,192,121343,1,0,0:0:0:0:
64,192,121457,1,0,0:0:0:0:
320,192,121570,1,0,0:0:0:0:
192,192,121570,128,0,121798:0:0:0:0:
448,192,121798,1,0,0:0:0:0:
320,192,121911,1,0,0:0:0:0:
192,192,122025,1,0,0:0:0:0:
192,192,122139,1,0,0:0:0:0:
192,192,122252,1,0,0:0:0:0:
192,192,122366,1,0,0:0:0:0:
64,192,122479,1,0,0:0:0:0:
64,192,122593,1,0,0:0:0:0:
64,192,122707,1,0,0:0:0:0:
64,192,122820,1,0,0:0:0:0:
448,192,122934,1,0,0:0:0:0:
448,192,123048,1,0,0:0:0:0:
448,192,123161,1,0,0:0:0:0:
448,192,123275,1,0,0:0:0:0:
64,192,123389,1,0,0:0:0:0:
320,192,123389,1,0,0:0:0:0:
448,192,123616,1,0,0:0:0:0:
64,192,123729,1,0,0:0:0:0:
320,192,123843,1,0,0:0:0:0:
64,192,124070,1,0,0:0:0:0:
64,192,124298,1,0,0:0:0:0:
320,192,124298,1,0,0:0:0:0:
448,192,124298,128,0,124525:0:0:0:0:
192,192,124525,1,0,0:0:0:0:
320,192,124752,128,0,124979:0:0:0:0:
448,192,124752,1,0,0:0:0:0:
192,192,124752,128,0,125207:0:0:0:0:
64,192,124752,128,0,125548:0:0:0:0:
448,192,124979,128,0,125889:0:0:0:0:
320,192,125207,128,0,125889:0:0:0:0:
192,192,125548,128,0,125889:0:0:0:0:
64,192,125889,1,0,0:0:0:0:
64,192,126116,5,0,0:0:0:0:
320,192,126116,1,0,0:0:0:0:
448,192,126116,1,0,0:0:0:0:
192,192,126116,1,0,0:0:0:0:
448,192,126343,1,0,0:0:0:0:
64,192,126570,1,0,0:0:0:0:
192,192,126570,1,0,0:0:0:0:
320,192,126798,1,0,0:0:0:0:
64,192,127025,1,0,0:0:0:0:
192,192,127025,1,0,0:0:0:0:
448,192,127252,1,0,0:0:0:0:
192,192,127366,1,0,0:0:0:0:
64,192,127479,1,0,0:0:0:0:
192,192,127707,1,0,0:0:0:0:
192,192,127934,1,0,0:0:0:0:
448,192,127934,1,0,0:0:0:0:
320,192,128161,1,0,0:0:0:0:
192,192,128389,1,0,0:0:0:0:
448,192,128389,1,0,0:0:0:0:
64,192,128616,1,0,0:0:0:0:
192,192,128729,1,0,0:0:0:0:
448,192,128843,1,0,0:0:0:0:
320,192,128843,1,0,0:0:0:0:
448,192,129184,1,0,0:0:0:0:
192,192,129298,1,0,0:0:0:0:
192,192,129411,1,0,0:0:0:0:
192,192,129525,1,0,0:0:0:0:
192,192,129639,1,0,0:0:0:0:
448,192,129752,1,0,0:0:0:0:
448,192,129866,1,0,0:0:0:0:
448,192,129979,1,0,0:0:0:0:
448,192,130093,1,0,0:0:0:0:
64,192,130207,1,0,0:0:0:0:
64,192,130320,1,0,0:0:0:0:
64,192,130434,1,0,0:0:0:0:
64,192,130548,1,0,0:0:0:0:
320,192,130661,1,0,0:0:0:0:
448,192,130661,1,0,0:0:0:0:
192,192,130889,1,0,0:0:0:0:
320,192,131002,1,0,0:0:0:0:
448,192,131116,1,0,0:0:0:0:
64,192,131116,1,0,0:0:0:0:
320,192,131343,1,0,0:0:0:0:
320,192,131570,1,0,0:0:0:0:
64,192,131570,1,0,0:0:0:0:
448,192,131570,128,0,131911:0:0:0:0:
192,192,131798,1,0,0:0:0:0:
64,192,132025,1,0,0:0:0:0:
192,192,132025,1,0,0:0:0:0:
192,192,132252,1,0,0:0:0:0:
448,192,132366,1,0,0:0:0:0:
64,192,132479,1,0,0:0:0:0:
192,192,132479,1,0,0:0:0:0:
64,192,132707,1,0,0:0:0:0:
192,192,132707,1,0,0:0:0:0:
192,192,132934,1,0,0:0:0:0:
64,192,132934,1,0,0:0:0:0:
320,192,133048,1,0,0:0:0:0:
448,192,133048,1,0,0:0:0:0:
448,192,133275,1,0,0:0:0:0:
320,192,133275,1,0,0:0:0:0:
64,192,133389,1,0,0:0:0:0:
192,192,133389,1,0,0:0:0:0:
320,192,133616,1,0,0:0:0:0:
64,192,133843,1,0,0:0:0:0:
448,192,133843,1,0,0:0:0:0:
192,192,134070,1,0,0:0:0:0:
64,192,134298,1,0,0:0:0:0:
448,192,134298,1,0,0:0:0:0:
320,192,134525,1,0,0:0:0:0:
64,192,134639,1,0,0:0:0:0:
448,192,134752,1,0,0:0:0:0:
64,192,134979,1,0,0:0:0:0:
192,192,135207,1,0,0:0:0:0:
320,192,135207,1,0,0:0:0:0:
448,192,135434,1,0,0:0:0:0:
192,192,135661,1,0,0:0:0:0:
320,192,135661,1,0,0:0:0:0:
64,192,135889,1,0,0:0:0:0:
448,192,136002,1,0,0:0:0:0:
192,192,136116,1,0,0:0:0:0:
320,192,136116,1,0,0:0:0:0:
64,192,136343,1,0,0:0:0:0:
192,192,136457,1,0,0:0:0:0:
320,192,136570,1,0,0:0:0:0:
320,192,136684,1,0,0:0:0:0:
320,192,136798,1,0,0:0:0:0:
320,192,136911,1,0,0:0:0:0:
448,192,137025,1,0,0:0:0:0:
448,192,137139,1,0,0:0:0:0:
448,192,137252,1,0,0:0:0:0:
448,192,137366,1,0,0:0:0:0:
64,192,137479,1,0,0:0:0:0:
64,192,137593,1,0,0:0:0:0:
64,192,137707,1,0,0:0:0:0:
64,192,137820,1,0,0:0:0:0:
320,192,137934,1,0,0:0:0:0:
448,192,137934,1,0,0:0:0:0:
64,192,138161,1,0,0:0:0:0:
448,192,138275,1,0,0:0:0:0:
192,192,138389,1,0,0:0:0:0:
448,192,138616,1,0,0:0:0:0:
192,192,138843,1,0,0:0:0:0:
320,192,138843,1,0,0:0:0:0:
64,192,139298,1,0,0:0:0:0:
448,192,139298,1,0,0:0:0:0:
192,192,139752,1,0,0:0:0:0:
320,192,139752,1,0,0:0:0:0:
64,192,139979,1,0,0:0:0:0:
192,192,140055,1,0,0:0:0:0:
320,192,140131,1,0,0:0:0:0:
448,192,140207,1,0,0:0:0:0:
64,192,140207,1,0,0:0:0:0:
320,192,140320,1,0,0:0:0:0:
192,192,140434,1,0,0:0:0:0:
64,192,140548,1,0,0:0:0:0:
320,192,140661,1,0,0:0:0:0:
448,192,140661,1,0,0:0:0:0:
