osu file format v14

[General]
AudioFilename: audio.mp3
AudioLeadIn: 0
PreviewTime: 6106
Countdown: 0
SampleSet: Soft
StackLeniency: 0.7
Mode: 1
LetterboxInBreaks: 0
WidescreenStoryboard: 1

[Editor]
DistanceSpacing: 0.9
BeatDivisor: 4
GridSize: 16
TimelineZoom: 2.399999

[Metadata]
Title:Samurai Pizza Cats Theme
TitleUnicode:Samurai Pizza Cats Theme
Artist:
ArtistUnicode:
Creator:Catgirl
Version:PepperOni
Source:Samurai Pizza Cats
Tags:
BeatmapID:1721398
BeatmapSetID:821264

[Difficulty]
HPDrainRate:5.5
CircleSize:4
OverallDifficulty:5.5
ApproachRate:5
SliderMultiplier:1.4
SliderTickRate:1

[Events]
//Background and Video events
0,0,"pizzacats.png",0,0
//Break Periods
//Storyboard Layer 0 (Background)
//Storyboard Layer 1 (Fail)
//Storyboard Layer 2 (Pass)
//Storyboard Layer 3 (Foreground)
//Storyboard Sound Samples

[TimingPoints]
213,374.181478016838,4,2,0,100,1,0
88894,-25,4,2,0,100,0,0

[HitObjects]
256,192,213,5,2,0:0:0:0:
256,192,400,1,2,0:0:0:0:
256,192,587,1,2,0:0:0:0:
256,192,774,1,2,0:0:0:0:
256,192,961,1,0,0:0:0:0:
256,192,1335,1,0,0:0:0:0:
256,192,1896,1,0,0:0:0:0:
256,192,2270,1,0,0:0:0:0:
256,192,2458,1,0,0:0:0:0:
256,192,2832,1,0,0:0:0:0:
256,192,3206,1,2,0:0:0:0:
256,192,3393,1,2,0:0:0:0:
256,192,3580,1,2,0:0:0:0:
256,192,3767,1,2,0:0:0:0:
256,192,3954,1,0,0:0:0:0:
256,192,4328,1,0,0:0:0:0:
256,192,4890,1,0,0:0:0:0:
256,192,5077,1,0,0:0:0:0:
256,192,5264,1,0,0:0:0:0:
256,192,5451,1,2,0:0:0:0:
256,192,5638,1,0,0:0:0:0:
256,192,5825,1,2,0:0:0:0:
256,192,5919,1,2,0:0:0:0:
256,192,6012,1,0,0:0:0:0:
256,192,6199,1,4,0:0:0:0:
256,192,6386,1,2,0:0:0:0:
256,192,6574,1,4,0:0:0:0:
256,192,6948,1,6,0:0:0:0:
256,192,7135,1,2,0:0:0:0:
256,192,7322,1,4,0:0:0:0:
256,192,7696,1,0,0:0:0:0:
256,192,7883,1,0,0:0:0:0:
256,192,8070,1,0,0:0:0:0:
256,192,8257,1,2,0:0:0:0:
256,192,8444,1,0,0:0:0:0:
256,192,8538,1,0,0:0:0:0:
256,192,8632,1,2,0:0:0:0:
256,192,8725,1,2,0:0:0:0:
256,192,8819,1,0,0:0:0:0:
256,192,9006,1,0,0:0:0:0:
256,192,9193,1,0,0:0:0:0:
256,192,9380,1,0,0:0:0:0:
256,192,9567,1,2,0:0:0:0:
256,192,9754,1,2,0:0:0:0:
256,192,9941,1,0,0:0:0:0:
256,192,10315,1,0,0:0:0:0:
256,192,10502,1,0,0:0:0:0:
256,192,10690,1,2,0:0:0:0:
256,192,10877,1,0,0:0:0:0:
256,192,11064,1,2,0:0:0:0:
256,192,11251,1,2,0:0:0:0:
256,192,11438,1,0,0:0:0:0:
256,192,11625,1,0,0:0:0:0:
256,192,11719,1,0,0:0:0:0:
256,192,11812,1,2,0:0:0:0:
256,192,11999,1,2,0:0:0:0:
256,192,12186,1,4,0:0:0:0:
256,192,12373,1,2,0:0:0:0:
256,192,12560,1,4,0:0:0:0:
256,192,12935,1,6,0:0:0:0:
256,192,13122,1,2,0:0:0:0:
256,192,13309,1,4,0:0:0:0:
256,192,13683,1,0,0:0:0:0:
256,192,13870,1,0,0:0:0:0:
256,192,14057,1,0,0:0:0:0:
256,192,14244,1,2,0:0:0:0:
256,192,14431,1,2,0:0:0:0:
256,192,14806,1,0,0:0:0:0:
256,192,14993,1,2,0:0:0:0:
256,192,15180,1,2,0:0:0:0:
256,192,15367,1,0,0:0:0:0:
256,192,15460,1,0,0:0:0:0:
256,192,15554,1,0,0:0:0:0:
256,192,15741,1,2,0:0:0:0:
256,192,15928,1,0,0:0:0:0:
256,192,16115,1,2,0:0:0:0:
256,192,16302,1,0,0:0:0:0:
256,192,16489,1,0,0:0:0:0:
256,192,16676,1,2,0:0:0:0:
256,192,16864,1,0,0:0:0:0:
256,192,16957,1,0,0:0:0:0:
256,192,17051,1,2,0:0:0:0:
256,192,17238,1,0,0:0:0:0:
256,192,17425,1,2,0:0:0:0:
256,192,17612,1,2,0:0:0:0:
256,192,17986,1,2,0:0:0:0:
256,192,18173,1,2,0:0:0:0:
256,192,18360,1,0,0:0:0:0:
256,192,18547,1,0,0:0:0:0:
256,192,18734,1,2,0:0:0:0:
256,192,19109,1,0,0:0:0:0:
256,192,19296,1,2,0:0:0:0:
256,192,19483,1,0,0:0:0:0:
256,192,19670,1,2,0:0:0:0:
256,192,19857,1,0,0:0:0:0:
256,192,20044,1,0,0:0:0:0:
256,192,20231,1,0,0:0:0:0:
256,192,20418,1,2,0:0:0:0:
256,192,20605,1,2,0:0:0:0:
256,192,20699,1,2,0:0:0:0:
256,192,20792,1,2,0:0:0:0:
256,192,20980,1,0,0:0:0:0:
256,192,21167,1,2,0:0:0:0:
256,192,21354,1,2,0:0:0:0:
256,192,21541,1,0,0:0:0:0:
256,192,21728,1,2,0:0:0:0:
256,192,21821,1,2,0:0:0:0:
256,192,21915,1,0,0:0:0:0:
256,192,22289,1,0,0:0:0:0:
256,192,22476,1,0,0:0:0:0:
256,192,22663,1,2,0:0:0:0:
256,192,22850,1,0,0:0:0:0:
256,192,22944,1,0,0:0:0:0:
256,192,23038,1,0,0:0:0:0:
256,192,23225,1,2,0:0:0:0:
256,192,23412,1,0,0:0:0:0:
256,192,23599,1,0,0:0:0:0:
256,192,23692,1,2,0:0:0:0:
256,192,23973,1,0,0:0:0:0:
256,192,24160,1,2,0:0:0:0:
256,192,24347,1,2,0:0:0:0:
256,192,24534,1,0,0:0:0:0:
256,192,24721,1,0,0:0:0:0:
256,192,24908,1,2,0:0:0:0:
256,192,25096,1,0,0:0:0:0:
256,192,25470,1,0,0:0:0:0:
256,192,25657,1,2,0:0:0:0:
256,192,25844,1,2,0:0:0:0:
256,192,26031,1,0,0:0:0:0:
256,192,26218,1,0,0:0:0:0:
256,192,26312,1,0,0:0:0:0:
256,192,26405,1,0,0:0:0:0:
256,192,26592,1,2,0:0:0:0:
256,192,26686,1,2,0:0:0:0:
256,192,26779,1,2,0:0:0:0:
256,192,26966,1,2,0:0:0:0:
256,192,27154,1,0,0:0:0:0:
256,192,27341,1,0,0:0:0:0:
256,192,27528,1,2,0:0:0:0:
256,192,27621,1,2,0:0:0:0:
256,192,27715,1,0,0:0:0:0:
256,192,27902,1,2,0:0:0:0:
256,192,28089,1,2,0:0:0:0:
256,192,28276,1,0,0:0:0:0:
256,192,28463,1,0,0:0:0:0:
256,192,28650,1,2,0:0:0:0:
256,192,28837,1,0,0:0:0:0:
256,192,28931,1,2,0:0:0:0:
256,192,29118,1,2,0:0:0:0:
256,192,29212,1,0,0:0:0:0:
256,192,29399,1,0,0:0:0:0:
256,192,29586,1,2,0:0:0:0:
256,192,29679,1,2,0:0:0:0:
256,192,29773,1,0,0:0:0:0:
256,192,29960,1,0,0:0:0:0:
256,192,30147,1,2,0:0:0:0:
256,192,30334,1,0,0:0:0:0:
256,192,30521,1,0,0:0:0:0:
256,192,30708,1,0,0:0:0:0:
256,192,30802,1,0,0:0:0:0:
256,192,30895,1,2,0:0:0:0:
256,192,31082,1,0,0:0:0:0:
256,192,31457,1,2,0:0:0:0:
256,192,31644,1,2,0:0:0:0:
256,192,31831,1,0,0:0:0:0:
256,192,31924,1,0,0:0:0:0:
256,192,32018,1,2,0:0:0:0:
256,192,32205,1,0,0:0:0:0:
256,192,32299,1,0,0:0:0:0:
256,192,32392,1,2,0:0:0:0:
256,192,32579,1,0,0:0:0:0:
256,192,32673,1,2,0:0:0:0:
256,192,32953,1,0,0:0:0:0:
256,192,33140,1,2,0:0:0:0:
256,192,33328,1,0,0:0:0:0:
256,192,33421,1,0,0:0:0:0:
256,192,33515,1,2,0:0:0:0:
256,192,33702,1,0,0:0:0:0:
256,192,33795,1,2,0:0:0:0:
256,192,33982,1,0,0:0:0:0:
256,192,34076,1,2,0:0:0:0:
256,192,34263,1,2,0:0:0:0:
256,192,34450,1,2,0:0:0:0:
256,192,34544,1,2,0:0:0:0:
256,192,34637,1,0,0:0:0:0:
256,192,35011,1,2,0:0:0:0:
256,192,35198,1,0,0:0:0:0:
256,192,35386,1,0,0:0:0:0:
256,192,35760,1,0,0:0:0:0:
256,192,36134,1,6,0:0:0:0:
256,192,36508,1,0,0:0:0:0:
256,192,36695,1,0,0:0:0:0:
256,192,36882,1,6,0:0:0:0:
256,192,37069,1,0,0:0:0:0:
256,192,37256,1,6,0:0:0:0:
256,192,37631,1,0,0:0:0:0:
256,192,37818,1,2,0:0:0:0:
256,192,38192,1,0,0:0:0:0:
256,192,38379,1,2,0:0:0:0:
256,192,38753,1,0,0:0:0:0:
256,192,38940,1,2,0:0:0:0:
256,192,39127,1,2,0:0:0:0:
256,192,39314,1,0,0:0:0:0:
256,192,39408,1,2,0:0:0:0:
256,192,39595,1,2,0:0:0:0:
256,192,39689,1,0,0:0:0:0:
256,192,39876,1,0,0:0:0:0:
256,192,40063,1,2,0:0:0:0:
256,192,40156,1,2,0:0:0:0:
256,192,40250,1,2,0:0:0:0:
256,192,40437,1,0,0:0:0:0:
256,192,40531,1,0,0:0:0:0:
256,192,40624,1,2,0:0:0:0:
256,192,40811,1,2,0:0:0:0:
256,192,40998,1,0,0:0:0:0:
256,192,41185,1,0,0:0:0:0:
256,192,41372,1,2,0:0:0:0:
256,192,41747,1,0,0:0:0:0:
256,192,41934,1,2,0:0:0:0:
256,192,42121,1,6,0:0:0:0:
256,192,42308,1,0,0:0:0:0:
256,192,42495,1,6,0:0:0:0:
256,192,42869,1,4,0:0:0:0:
256,192,43243,1,6,0:0:0:0:
256,192,43430,1,0,0:0:0:0:
256,192,43524,1,0,0:0:0:0:
256,192,43618,1,2,0:0:0:0:
256,192,43805,1,2,0:0:0:0:
256,192,43992,1,0,0:0:0:0:
256,192,44366,1,0,0:0:0:0:
256,192,44740,1,0,0:0:0:0:
256,192,44927,1,2,0:0:0:0:
256,192,45114,1,6,0:0:0:0:
256,192,45301,1,0,0:0:0:0:
256,192,45488,1,2,0:0:0:0:
256,192,45582,1,2,0:0:0:0:
256,192,45676,1,0,0:0:0:0:
256,192,45769,1,0,0:0:0:0:
256,192,45863,1,2,0:0:0:0:
256,192,46237,1,0,0:0:0:0:
256,192,46424,1,2,0:0:0:0:
256,192,46517,1,2,0:0:0:0:
256,192,46611,1,0,0:0:0:0:
256,192,46798,1,0,0:0:0:0:
256,192,46985,1,2,0:0:0:0:
256,192,47172,1,2,0:0:0:0:
256,192,47359,1,0,0:0:0:0:
256,192,47734,1,0,0:0:0:0:
256,192,47921,1,2,0:0:0:0:
256,192,48108,1,6,0:0:0:0:
256,192,48295,1,0,0:0:0:0:
256,192,48482,1,6,0:0:0:0:
256,192,48856,1,4,0:0:0:0:
256,192,49230,1,0,0:0:0:0:
256,192,49417,2,0,L|304:192,12,35
256,192,50727,1,2,0:0:0:0:
256,192,50914,1,0,0:0:0:0:
256,192,51101,1,6,0:0:0:0:
256,192,51288,1,2,0:0:0:0:
256,192,51475,1,4,0:0:0:0:
256,192,51850,1,4,0:0:0:0:
256,192,52224,1,6,0:0:0:0:
256,192,52598,1,6,0:0:0:0:
256,192,52785,1,2,0:0:0:0:
256,192,52972,1,2,0:0:0:0:
256,192,53159,1,0,0:0:0:0:
256,192,53346,1,0,0:0:0:0:
256,192,53533,1,2,0:0:0:0:
256,192,53720,1,0,0:0:0:0:
256,192,53908,1,6,0:0:0:0:
256,192,54282,1,0,0:0:0:0:
256,192,54469,1,6,0:0:0:0:
256,192,54843,1,6,0:0:0:0:
256,192,55030,1,2,0:0:0:0:
256,192,55217,1,4,0:0:0:0:
256,192,55591,1,0,0:0:0:0:
256,192,55778,1,2,0:0:0:0:
256,192,55966,1,0,0:0:0:0:
256,192,56153,1,0,0:0:0:0:
256,192,56340,1,2,0:0:0:0:
256,192,56527,1,2,0:0:0:0:
256,192,56620,1,2,0:0:0:0:
256,192,56714,1,2,0:0:0:0:
256,192,56901,1,0,0:0:0:0:
256,192,57088,1,2,0:0:0:0:
256,192,57275,1,0,0:0:0:0:
256,192,57462,1,0,0:0:0:0:
256,192,57649,1,0,0:0:0:0:
256,192,57836,1,2,0:0:0:0:
256,192,58024,1,0,0:0:0:0:
256,192,58211,1,2,0:0:0:0:
256,192,58398,1,0,0:0:0:0:
256,192,58585,1,0,0:0:0:0:
256,192,58959,1,6,0:0:0:0:
256,192,59333,1,6,0:0:0:0:
256,192,59520,1,4,0:0:0:0:
256,192,59894,1,6,0:0:0:0:
256,192,60082,1,2,0:0:0:0:
256,192,60269,1,2,0:0:0:0:
256,192,60456,1,2,0:0:0:0:
256,192,60643,1,2,0:0:0:0:
256,192,60830,1,4,0:0:0:0:
256,192,61204,1,0,0:0:0:0:
256,192,61578,1,6,0:0:0:0:
256,192,61765,1,0,0:0:0:0:
256,192,61952,1,0,0:0:0:0:
256,192,62140,1,0,0:0:0:0:
256,192,62327,1,4,0:0:0:0:
256,192,62701,1,0,0:0:0:0:
256,192,63075,1,6,0:0:0:0:
256,192,63449,1,4,0:0:0:0:
256,192,63823,1,6,0:0:0:0:
256,192,64198,1,4,0:0:0:0:
256,192,64572,2,4,L|304:192,12,35
256,192,65881,1,0,0:0:0:0:
256,192,66068,1,2,0:0:0:0:
256,192,66256,1,2,0:0:0:0:
256,192,66443,1,0,0:0:0:0:
256,192,66630,1,0,0:0:0:0:
256,192,66817,1,2,0:0:0:0:
256,192,66910,1,2,0:0:0:0:
256,192,67004,1,0,0:0:0:0:
256,192,67378,1,0,0:0:0:0:
256,192,67565,1,2,0:0:0:0:
256,192,67752,1,2,0:0:0:0:
256,192,67939,1,0,0:0:0:0:
256,192,68126,1,2,0:0:0:0:
256,192,68314,1,0,0:0:0:0:
256,192,68407,1,0,0:0:0:0:
256,192,68501,1,0,0:0:0:0:
256,192,68688,1,0,0:0:0:0:
256,192,68875,1,2,0:0:0:0:
256,192,69062,1,2,0:0:0:0:
256,192,69249,1,0,0:0:0:0:
256,192,69623,1,2,0:0:0:0:
256,192,69997,1,0,0:0:0:0:
256,192,70184,1,0,0:0:0:0:
256,192,70372,1,2,0:0:0:0:
256,192,70559,1,2,0:0:0:0:
256,192,70746,1,0,0:0:0:0:
256,192,70933,1,2,0:0:0:0:
256,192,71120,1,2,0:0:0:0:
256,192,71213,1,2,0:0:0:0:
256,192,71307,1,0,0:0:0:0:
256,192,71494,1,0,0:0:0:0:
256,192,71588,1,0,0:0:0:0:
256,192,71681,1,2,0:0:0:0:
256,192,71868,1,2,0:0:0:0:
256,192,72055,1,0,0:0:0:0:
256,192,72242,1,0,0:0:0:0:
256,192,72430,1,2,0:0:0:0:
256,192,72617,1,0,0:0:0:0:
256,192,72804,1,2,0:0:0:0:
256,192,72897,1,2,0:0:0:0:
256,192,72991,1,0,0:0:0:0:
256,192,73178,1,0,0:0:0:0:
256,192,73365,1,0,0:0:0:0:
256,192,73552,1,2,0:0:0:0:
256,192,73739,1,2,0:0:0:0:
256,192,73926,1,0,0:0:0:0:
256,192,74113,1,0,0:0:0:0:
256,192,74207,1,0,0:0:0:0:
256,192,74300,1,2,0:0:0:0:
256,192,74675,1,2,0:0:0:0:
256,192,74862,1,0,0:0:0:0:
256,192,74955,1,0,0:0:0:0:
256,192,75049,1,2,0:0:0:0:
256,192,75236,1,2,0:0:0:0:
256,192,75423,1,0,0:0:0:0:
256,192,75610,1,0,0:0:0:0:
256,192,75797,1,2,0:0:0:0:
256,192,75984,1,2,0:0:0:0:
256,192,76078,1,2,0:0:0:0:
256,192,76171,1,2,0:0:0:0:
256,192,76358,1,2,0:0:0:0:
256,192,76546,1,2,0:0:0:0:
256,192,76733,1,0,0:0:0:0:
256,192,76920,1,2,0:0:0:0:
256,192,77107,1,2,0:0:0:0:
256,192,77294,1,0,0:0:0:0:
256,192,77387,1,0,0:0:0:0:
256,192,77481,1,2,0:0:0:0:
256,192,77575,1,2,0:0:0:0:
256,192,77668,1,0,0:0:0:0:
256,192,77855,1,0,0:0:0:0:
256,192,78042,1,2,0:0:0:0:
256,192,78229,1,0,0:0:0:0:
256,192,78323,1,0,0:0:0:0:
256,192,78416,1,2,0:0:0:0:
256,192,78604,1,0,0:0:0:0:
256,192,78791,1,0,0:0:0:0:
256,192,78978,1,0,0:0:0:0:
256,192,79071,1,0,0:0:0:0:
256,192,79165,1,2,0:0:0:0:
256,192,79352,1,0,0:0:0:0:
256,192,79539,1,2,0:0:0:0:
256,192,79726,1,0,0:0:0:0:
256,192,79913,1,2,0:0:0:0:
256,192,80007,1,2,0:0:0:0:
256,192,80100,1,0,0:0:0:0:
256,192,80287,1,2,0:0:0:0:
256,192,80474,1,0,0:0:0:0:
256,192,80662,1,0,0:0:0:0:
256,192,80849,1,2,0:0:0:0:
256,192,80942,1,2,0:0:0:0:
256,192,81036,1,0,0:0:0:0:
256,192,81223,1,0,0:0:0:0:
256,192,81410,1,2,0:0:0:0:
256,192,81597,1,0,0:0:0:0:
256,192,81784,1,2,0:0:0:0:
256,192,81971,1,2,0:0:0:0:
256,192,82065,1,2,0:0:0:0:
256,192,82158,1,2,0:0:0:0:
256,192,82532,1,0,0:0:0:0:
256,192,82720,1,2,0:0:0:0:
256,192,82813,1,0,0:0:0:0:
256,192,83000,1,2,0:0:0:0:
256,192,83094,1,0,0:0:0:0:
256,192,83281,1,2,0:0:0:0:
256,192,83468,1,0,0:0:0:0:
256,192,83561,1,0,0:0:0:0:
256,192,83655,1,2,0:0:0:0:
256,192,83842,1,2,0:0:0:0:
256,192,84029,1,0,0:0:0:0:
256,192,84216,1,2,0:0:0:0:
256,192,84403,1,0,0:0:0:0:
256,192,84778,1,2,0:0:0:0:
256,192,84965,1,2,0:0:0:0:
256,192,85152,6,0,L|304:192,20,35
256,192,87397,12,0,88894,0:0:0:0:
256,192,88894,12,0,90016,0:0:0:0:
256,192,88917,12,0,90016,0:0:0:0:
256,192,88940,12,0,90016,0:0:0:0:
256,192,88964,12,0,90016,0:0:0:0:
256,192,88987,12,0,90016,0:0:0:0:
256,192,89010,12,0,90016,0:0:0:0:
256,192,89034,12,0,90016,0:0:0:0:
256,192,89057,12,0,90016,0:0:0:0:
256,192,89081,12,0,90016,0:0:0:0:
256,192,89104,12,0,90016,0:0:0:0:
256,192,89127,12,0,90016,0:0:0:0:
256,192,89151,12,0,90016,0:0:0:0:
256,192,89174,12,0,90016,0:0:0:0:
256,192,89198,12,0,90016,0:0:0:0:
256,192,89221,12,0,90016,0:0:0:0:
256,192,89244,12,0,90016,0:0:0:0:
256,192,89268,12,0,90016,0:0:0:0:
256,192,89291,12,0,90016,0:0:0:0:
256,192,89314,12,0,90016,0:0:0:0:
256,192,89338,12,0,90016,0:0:0:0:
256,192,89361,12,0,90016,0:0:0:0:
256,192,89385,12,0,90016,0:0:0:0:
256,192,89408,12,0,90016,0:0:0:0:
256,192,89431,12,0,90016,0:0:0:0:
256,192,89455,12,0,90016,0:0:0:0:
256,192,89478,12,0,90016,0:0:0:0:
256,192,89502,12,0,90016,0:0:0:0:
256,192,89525,12,0,90016,0:0:0:0:
256,192,89548,12,0,90016,0:0:0:0:
256,192,89572,12,0,90016,0:0:0:0:
256,192,89595,12,0,90016,0:0:0:0:
256,192,89618,12,0,90016,0:0:0:0:
256,192,89642,12,0,90016,0:0:0:0:
256,192,89665,12,0,90016,0:0:0:0:
256,192,89689,12,0,90016,0:0:0:0:
256,192,89712,12,0,90016,0:0:0:0:
256,192,89735,12,0,90016,0:0:0:0:
256,192,89759,12,0,90016,0:0:0:0:
256,192,89782,12,0,90016,0:0:0:0:
256,192,89806,12,0,90016,0:0:0:0:
256,192,89829,12,0,90016,0:0:0:0:
256,192,89852,12,0,90016,0:0:0:0:
256,192,89876,12,0,90016,0:0:0:0:
256,192,89899,12,0,90016,0:0:0:0:
256,192,89923,12,0,90016,0:0:0:0:
256,192,89946,12,0,90016,0:0:0:0:
256,192,89969,12,0,90016,0:0:0:0:
256,192,89993,12,0,90016,0:0:0:0:
