osu file format v14

[General]
AudioFilename: audio.mp3
AudioLeadIn: 0
PreviewTime: 48493
Countdown: 0
SampleSet: None
StackLeniency: 0.7
Mode: 3
LetterboxInBreaks: 0
SpecialStyle: 0
WidescreenStoryboard: 1

[Editor]
DistanceSpacing: 2
BeatDivisor: 8
GridSize: 16
TimelineZoom: 2.7

[Metadata]
Title:You are an idiot!
TitleUnicode:You are an idiot!
Artist:
ArtistUnicode:
Creator:Andrexabc
Version:Normal
Source:
Tags:idiot
BeatmapID:1157755
BeatmapSetID:537081

[Difficulty]
HPDrainRate:7
CircleSize:4
OverallDifficulty:7
ApproachRate:5
SliderMultiplier:1.4
SliderTickRate:1

[Events]
//Background and Video events
0,0,"BG IDIOT!.png",0,0
//Break Periods
//Storyboard Layer 0 (Background)
//Storyboard Layer 1 (Fail)
//Storyboard Layer 2 (Pass)
//Storyboard Layer 3 (Foreground)
//Storyboard Sound Samples

[TimingPoints]
2839,348.837209302326,4,2,0,40,1,0

[HitObjects]
192,192,2839,5,0,0:0:0:0:
320,192,2839,1,0,0:0:0:0:
448,192,2926,1,0,0:0:0:0:
320,192,3013,1,0,0:0:0:0:
192,192,3100,1,0,0:0:0:0:
320,192,3187,1,0,0:0:0:0:
448,192,3187,1,0,0:0:0:0:
64,192,3275,1,0,0:0:0:0:
192,192,3362,1,0,0:0:0:0:
320,192,3449,1,0,0:0:0:0:
64,192,3536,1,0,0:0:0:0:
192,192,3536,1,0,0:0:0:0:
320,192,3623,1,0,0:0:0:0:
64,192,3711,1,0,0:0:0:0:
192,192,3798,1,0,0:0:0:0:
320,192,3885,1,0,0:0:0:0:
448,192,3885,1,0,0:0:0:0:
192,192,3972,1,0,0:0:0:0:
64,192,4059,1,0,0:0:0:0:
448,192,4147,1,0,0:0:0:0:
192,192,4234,1,0,0:0:0:0:
64,192,4234,1,0,0:0:0:0:
320,192,4321,1,0,0:0:0:0:
448,192,4408,1,0,0:0:0:0:
192,192,4495,1,0,0:0:0:0:
320,192,4583,1,0,0:0:0:0:
448,192,4583,1,0,0:0:0:0:
192,192,4670,1,0,0:0:0:0:
64,192,4757,1,0,0:0:0:0:
448,192,4844,1,0,0:0:0:0:
320,192,4932,1,0,0:0:0:0:
192,192,4932,1,0,0:0:0:0:
64,192,5019,1,0,0:0:0:0:
320,192,5106,1,0,0:0:0:0:
192,192,5193,1,0,0:0:0:0:
64,192,5280,1,0,0:0:0:0:
448,192,5280,1,0,0:0:0:0:
320,192,5368,1,0,0:0:0:0:
192,192,5455,1,0,0:0:0:0:
448,192,5455,1,0,0:0:0:0:
320,192,5542,1,0,0:0:0:0:
64,192,5629,1,0,0:0:0:0:
192,192,5629,1,0,0:0:0:0:
448,192,5716,1,0,0:0:0:0:
320,192,5804,1,0,0:0:0:0:
192,192,5891,1,0,0:0:0:0:
320,192,5978,1,0,0:0:0:0:
448,192,5978,1,0,0:0:0:0:
64,192,6065,1,0,0:0:0:0:
320,192,6152,1,0,0:0:0:0:
192,192,6240,1,0,0:0:0:0:
64,192,6327,1,0,0:0:0:0:
320,192,6327,1,0,0:0:0:0:
448,192,6414,1,0,0:0:0:0:
192,192,6501,1,0,0:0:0:0:
320,192,6589,1,0,0:0:0:0:
448,192,6676,1,0,0:0:0:0:
192,192,6676,1,0,0:0:0:0:
64,192,6763,1,0,0:0:0:0:
192,192,6850,1,0,0:0:0:0:
448,192,6937,1,0,0:0:0:0:
320,192,7025,1,0,0:0:0:0:
192,192,7025,1,0,0:0:0:0:
64,192,7112,1,0,0:0:0:0:
320,192,7199,1,0,0:0:0:0:
192,192,7286,1,0,0:0:0:0:
448,192,7373,1,0,0:0:0:0:
320,192,7373,1,0,0:0:0:0:
64,192,7461,1,0,0:0:0:0:
192,192,7548,1,0,0:0:0:0:
320,192,7635,1,0,0:0:0:0:
64,192,7722,1,0,0:0:0:0:
448,192,7722,1,0,0:0:0:0:
320,192,7809,1,0,0:0:0:0:
192,192,7897,1,0,0:0:0:0:
64,192,7897,1,0,0:0:0:0:
192,192,7984,1,0,0:0:0:0:
320,192,8071,1,0,0:0:0:0:
448,192,8071,1,0,0:0:0:0:
320,192,8158,1,0,0:0:0:0:
448,192,8158,1,0,0:0:0:0:
320,192,8245,1,0,0:0:0:0:
448,192,8245,1,0,0:0:0:0:
320,192,8333,1,0,0:0:0:0:
448,192,8333,1,0,0:0:0:0:
320,192,8420,1,0,0:0:0:0:
448,192,8420,1,0,0:0:0:0:
192,192,8507,1,0,0:0:0:0:
448,192,8594,1,0,0:0:0:0:
192,192,8682,1,0,0:0:0:0:
64,192,8769,1,0,0:0:0:0:
320,192,8769,1,0,0:0:0:0:
192,192,8856,1,0,0:0:0:0:
448,192,8943,1,0,0:0:0:0:
320,192,9030,1,0,0:0:0:0:
64,192,9118,1,0,0:0:0:0:
192,192,9118,1,0,0:0:0:0:
320,192,9205,1,0,0:0:0:0:
64,192,9292,1,0,0:0:0:0:
192,192,9379,1,0,0:0:0:0:
320,192,9466,1,0,0:0:0:0:
448,192,9466,1,0,0:0:0:0:
192,192,9554,1,0,0:0:0:0:
64,192,9641,1,0,0:0:0:0:
448,192,9728,1,0,0:0:0:0:
192,192,9815,1,0,0:0:0:0:
320,192,9815,1,0,0:0:0:0:
64,192,9902,1,0,0:0:0:0:
192,192,9990,1,0,0:0:0:0:
320,192,10077,1,0,0:0:0:0:
64,192,10164,1,0,0:0:0:0:
448,192,10164,1,0,0:0:0:0:
192,192,10251,1,0,0:0:0:0:
64,192,10339,1,0,0:0:0:0:
448,192,10426,1,0,0:0:0:0:
320,192,10513,1,0,0:0:0:0:
64,192,10513,1,0,0:0:0:0:
192,192,10600,1,0,0:0:0:0:
320,192,10687,1,0,0:0:0:0:
64,192,10687,1,0,0:0:0:0:
448,192,10775,1,0,0:0:0:0:
64,192,10862,1,0,0:0:0:0:
192,192,10862,1,0,0:0:0:0:
192,192,10949,1,0,0:0:0:0:
320,192,11036,1,0,0:0:0:0:
448,192,11036,1,0,0:0:0:0:
320,192,11123,1,0,0:0:0:0:
64,192,11211,1,0,0:0:0:0:
192,192,11211,1,0,0:0:0:0:
448,192,11298,1,0,0:0:0:0:
320,192,11385,1,0,0:0:0:0:
192,192,11472,1,0,0:0:0:0:
64,192,11559,1,0,0:0:0:0:
448,192,11559,1,0,0:0:0:0:
320,192,11647,1,0,0:0:0:0:
192,192,11734,1,0,0:0:0:0:
320,192,11821,1,0,0:0:0:0:
64,192,11908,1,0,0:0:0:0:
192,192,11908,1,0,0:0:0:0:
448,192,11995,1,0,0:0:0:0:
320,192,12083,1,0,0:0:0:0:
64,192,12170,1,0,0:0:0:0:
192,192,12257,1,0,0:0:0:0:
320,192,12257,1,0,0:0:0:0:
448,192,12344,1,0,0:0:0:0:
320,192,12432,1,0,0:0:0:0:
192,192,12519,1,0,0:0:0:0:
320,192,12606,1,0,0:0:0:0:
448,192,12606,1,0,0:0:0:0:
64,192,12693,128,0,12780:0:0:0:0:
192,192,12693,1,0,0:0:0:0:
320,192,12780,1,0,0:0:0:0:
448,192,12868,1,0,0:0:0:0:
192,192,12955,1,0,0:0:0:0:
320,192,12955,1,0,0:0:0:0:
64,192,13042,128,0,13129:0:0:0:0:
448,192,13042,1,0,0:0:0:0:
320,192,13129,1,0,0:0:0:0:
192,192,13216,1,0,0:0:0:0:
64,192,13304,1,0,0:0:0:0:
448,192,13304,1,0,0:0:0:0:
320,192,13391,128,0,13478:0:0:0:0:
448,192,13391,1,0,0:0:0:0:
64,192,13478,1,0,0:0:0:0:
192,192,13478,1,0,0:0:0:0:
448,192,13565,1,0,0:0:0:0:
320,192,13565,1,0,0:0:0:0:
64,192,13652,1,0,0:0:0:0:
192,192,13652,1,0,0:0:0:0:
320,192,13740,1,0,0:0:0:0:
448,192,13740,1,0,0:0:0:0:
64,192,13827,1,0,0:0:0:0:
192,192,13827,1,0,0:0:0:0:
320,192,13914,1,0,0:0:0:0:
448,192,13914,1,0,0:0:0:0:
64,192,14001,1,0,0:0:0:0:
448,192,14089,128,0,14176:0:0:0:0:
192,192,14089,1,0,0:0:0:0:
64,192,14176,1,0,0:0:0:0:
320,192,14263,1,0,0:0:0:0:
192,192,14350,1,0,0:0:0:0:
448,192,14350,1,0,0:0:0:0:
64,192,14437,128,0,14525:0:0:0:0:
320,192,14437,1,0,0:0:0:0:
192,192,14525,1,0,0:0:0:0:
448,192,14612,1,0,0:0:0:0:
320,192,14699,1,0,0:0:0:0:
64,192,14699,1,0,0:0:0:0:
192,192,14786,128,0,14873:0:0:0:0:
448,192,14786,1,0,0:0:0:0:
320,192,14873,1,0,0:0:0:0:
64,192,14961,1,0,0:0:0:0:
192,192,15048,1,0,0:0:0:0:
448,192,15048,1,0,0:0:0:0:
320,192,15135,128,0,15222:0:0:0:0:
64,192,15135,1,0,0:0:0:0:
448,192,15222,1,0,0:0:0:0:
192,192,15309,1,0,0:0:0:0:
320,192,15397,1,0,0:0:0:0:
64,192,15397,1,0,0:0:0:0:
448,192,15484,128,0,15571:0:0:0:0:
192,192,15484,1,0,0:0:0:0:
320,192,15571,1,0,0:0:0:0:
192,192,15658,1,0,0:0:0:0:
320,192,15745,1,0,0:0:0:0:
448,192,15745,1,0,0:0:0:0:
64,192,15833,128,0,15920:0:0:0:0:
192,192,15833,1,0,0:0:0:0:
320,192,15920,1,0,0:0:0:0:
192,192,16007,1,0,0:0:0:0:
64,192,16094,1,0,0:0:0:0:
448,192,16094,1,0,0:0:0:0:
448,192,16182,128,0,16269:0:0:0:0:
320,192,16182,1,0,0:0:0:0:
64,192,16269,1,0,0:0:0:0:
320,192,16356,1,0,0:0:0:0:
64,192,16443,1,0,0:0:0:0:
192,192,16443,1,0,0:0:0:0:
192,192,16530,128,0,16618:0:0:0:0:
320,192,16530,1,0,0:0:0:0:
64,192,16618,1,0,0:0:0:0:
320,192,16705,1,0,0:0:0:0:
448,192,16792,1,0,0:0:0:0:
64,192,16792,1,0,0:0:0:0:
320,192,16879,128,0,16966:0:0:0:0:
192,192,16879,1,0,0:0:0:0:
64,192,16966,1,0,0:0:0:0:
192,192,17054,1,0,0:0:0:0:
320,192,17141,1,0,0:0:0:0:
64,192,17141,1,0,0:0:0:0:
448,192,17228,128,0,17315:0:0:0:0:
192,192,17228,1,0,0:0:0:0:
64,192,17315,1,0,0:0:0:0:
320,192,17402,1,0,0:0:0:0:
192,192,17490,1,0,0:0:0:0:
64,192,17490,1,0,0:0:0:0:
448,192,17577,128,0,17664:0:0:0:0:
320,192,17577,1,0,0:0:0:0:
192,192,17664,1,0,0:0:0:0:
64,192,17751,1,0,0:0:0:0:
320,192,17839,1,0,0:0:0:0:
448,192,17839,1,0,0:0:0:0:
192,192,17926,128,0,18013:0:0:0:0:
64,192,17926,1,0,0:0:0:0:
320,192,18013,1,0,0:0:0:0:
448,192,18100,1,0,0:0:0:0:
64,192,18187,1,0,0:0:0:0:
320,192,18187,1,0,0:0:0:0:
192,192,18275,128,0,18362:0:0:0:0:
448,192,18275,1,0,0:0:0:0:
320,192,18362,1,0,0:0:0:0:
64,192,18449,1,0,0:0:0:0:
192,192,18536,1,0,0:0:0:0:
320,192,18536,1,0,0:0:0:0:
448,192,18623,128,0,18711:0:0:0:0:
64,192,18623,1,0,0:0:0:0:
192,192,18711,1,0,0:0:0:0:
320,192,18798,1,0,0:0:0:0:
192,192,18885,1,0,0:0:0:0:
64,192,18885,1,0,0:0:0:0:
448,192,18972,128,0,19059:0:0:0:0:
320,192,18972,1,0,0:0:0:0:
64,192,19059,1,0,0:0:0:0:
320,192,19147,1,0,0:0:0:0:
192,192,19147,1,0,0:0:0:0:
64,192,19234,1,0,0:0:0:0:
448,192,19234,1,0,0:0:0:0:
320,192,19321,1,0,0:0:0:0:
192,192,19321,1,0,0:0:0:0:
448,192,19408,1,0,0:0:0:0:
64,192,19408,1,0,0:0:0:0:
192,192,19495,1,0,0:0:0:0:
320,192,19495,1,0,0:0:0:0:
448,192,19583,1,0,0:0:0:0:
64,192,19583,1,0,0:0:0:0:
192,192,19670,128,0,19757:0:0:0:0:
448,192,19670,1,0,0:0:0:0:
320,192,19757,1,0,0:0:0:0:
192,192,19844,1,0,0:0:0:0:
64,192,19932,1,0,0:0:0:0:
448,192,19932,1,0,0:0:0:0:
320,192,20019,128,0,20106:0:0:0:0:
192,192,20019,1,0,0:0:0:0:
64,192,20106,1,0,0:0:0:0:
448,192,20193,1,0,0:0:0:0:
192,192,20280,1,0,0:0:0:0:
320,192,20280,1,0,0:0:0:0:
64,192,20368,128,0,20455:0:0:0:0:
448,192,20368,1,0,0:0:0:0:
320,192,20455,1,0,0:0:0:0:
192,192,20542,1,0,0:0:0:0:
320,192,20629,1,0,0:0:0:0:
448,192,20629,1,0,0:0:0:0:
64,192,20716,128,0,20804:0:0:0:0:
192,192,20716,1,0,0:0:0:0:
320,192,20804,1,0,0:0:0:0:
192,192,20891,1,0,0:0:0:0:
448,192,20978,1,0,0:0:0:0:
64,192,20978,1,0,0:0:0:0:
320,192,21065,128,0,21152:0:0:0:0:
192,192,21065,1,0,0:0:0:0:
64,192,21152,1,0,0:0:0:0:
192,192,21240,1,0,0:0:0:0:
320,192,21327,1,0,0:0:0:0:
448,192,21327,1,0,0:0:0:0:
192,192,21414,128,0,21501:0:0:0:0:
64,192,21414,1,0,0:0:0:0:
448,192,21501,1,0,0:0:0:0:
320,192,21589,1,0,0:0:0:0:
192,192,21676,1,0,0:0:0:0:
64,192,21676,1,0,0:0:0:0:
320,192,21763,1,0,0:0:0:0:
448,192,21763,128,0,21850:0:0:0:0:
192,192,21850,1,0,0:0:0:0:
320,192,21937,1,0,0:0:0:0:
448,192,22025,1,0,0:0:0:0:
64,192,22025,1,0,0:0:0:0:
192,192,22112,128,0,22199:0:0:0:0:
320,192,22112,1,0,0:0:0:0:
448,192,22199,1,0,0:0:0:0:
320,192,22286,1,0,0:0:0:0:
192,192,22373,1,0,0:0:0:0:
64,192,22373,1,0,0:0:0:0:
320,192,22461,1,0,0:0:0:0:
64,192,22548,1,0,0:0:0:0:
448,192,22548,1,0,0:0:0:0:
192,192,22635,1,0,0:0:0:0:
320,192,22722,1,0,0:0:0:0:
448,192,22722,1,0,0:0:0:0:
192,192,22809,1,0,0:0:0:0:
64,192,22897,1,0,0:0:0:0:
192,192,22984,1,0,0:0:0:0:
448,192,23071,1,0,0:0:0:0:
320,192,23071,1,0,0:0:0:0:
64,192,23158,1,0,0:0:0:0:
192,192,23245,1,0,0:0:0:0:
320,192,23333,1,0,0:0:0:0:
448,192,23420,1,0,0:0:0:0:
64,192,23420,1,0,0:0:0:0:
192,192,23507,1,0,0:0:0:0:
320,192,23594,1,0,0:0:0:0:
448,192,23682,1,0,0:0:0:0:
64,192,23769,1,0,0:0:0:0:
192,192,23769,1,0,0:0:0:0:
320,192,23769,1,0,0:0:0:0:
192,192,23943,1,0,0:0:0:0:
64,192,24118,1,0,0:0:0:0:
320,192,24118,1,0,0:0:0:0:
448,192,24118,1,0,0:0:0:0:
320,192,24292,1,0,0:0:0:0:
64,192,24466,1,0,0:0:0:0:
320,192,24466,1,0,0:0:0:0:
192,192,24466,1,0,0:0:0:0:
320,192,24641,1,0,0:0:0:0:
192,192,24815,1,0,0:0:0:0:
320,192,24815,1,0,0:0:0:0:
448,192,24815,1,0,0:0:0:0:
320,192,25077,1,0,0:0:0:0:
64,192,25164,1,0,0:0:0:0:
192,192,25164,1,0,0:0:0:0:
320,192,25251,1,0,0:0:0:0:
448,192,25339,1,0,0:0:0:0:
192,192,25426,1,0,0:0:0:0:
64,192,25513,1,0,0:0:0:0:
320,192,25513,1,0,0:0:0:0:
192,192,25600,1,0,0:0:0:0:
448,192,25687,1,0,0:0:0:0:
320,192,25775,1,0,0:0:0:0:
192,192,25862,1,0,0:0:0:0:
64,192,25862,1,0,0:0:0:0:
320,192,25949,1,0,0:0:0:0:
448,192,26036,1,0,0:0:0:0:
192,192,26123,1,0,0:0:0:0:
320,192,26211,1,0,0:0:0:0:
448,192,26211,1,0,0:0:0:0:
192,192,26298,1,0,0:0:0:0:
64,192,26385,1,0,0:0:0:0:
448,192,26472,1,0,0:0:0:0:
320,192,26559,1,0,0:0:0:0:
64,192,26559,1,0,0:0:0:0:
192,192,26647,1,0,0:0:0:0:
64,192,26734,1,0,0:0:0:0:
448,192,26821,1,0,0:0:0:0:
320,192,26908,1,0,0:0:0:0:
192,192,26908,1,0,0:0:0:0:
64,192,26995,1,0,0:0:0:0:
192,192,27083,1,0,0:0:0:0:
320,192,27170,1,0,0:0:0:0:
64,192,27257,1,0,0:0:0:0:
192,192,27257,1,0,0:0:0:0:
448,192,27344,1,0,0:0:0:0:
192,192,27432,1,0,0:0:0:0:
64,192,27519,1,0,0:0:0:0:
448,192,27606,1,0,0:0:0:0:
192,192,27606,1,0,0:0:0:0:
320,192,27693,1,0,0:0:0:0:
448,192,27780,1,0,0:0:0:0:
192,192,27780,1,0,0:0:0:0:
64,192,27868,1,0,0:0:0:0:
320,192,27955,1,0,0:0:0:0:
192,192,27955,1,0,0:0:0:0:
448,192,28042,1,0,0:0:0:0:
320,192,28129,1,0,0:0:0:0:
192,192,28216,1,0,0:0:0:0:
320,192,28304,1,0,0:0:0:0:
448,192,28304,1,0,0:0:0:0:
64,192,28391,1,0,0:0:0:0:
192,192,28478,1,0,0:0:0:0:
320,192,28565,1,0,0:0:0:0:
192,192,28652,1,0,0:0:0:0:
448,192,28652,1,0,0:0:0:0:
320,192,28740,1,0,0:0:0:0:
192,192,28827,1,0,0:0:0:0:
64,192,28914,1,0,0:0:0:0:
320,192,29001,1,0,0:0:0:0:
448,192,29001,1,0,0:0:0:0:
192,192,29089,1,0,0:0:0:0:
320,192,29176,1,0,0:0:0:0:
448,192,29263,1,0,0:0:0:0:
320,192,29350,1,0,0:0:0:0:
192,192,29350,1,0,0:0:0:0:
64,192,29437,1,0,0:0:0:0:
192,192,29525,1,0,0:0:0:0:
320,192,29612,1,0,0:0:0:0:
64,192,29699,1,0,0:0:0:0:
192,192,29699,1,0,0:0:0:0:
448,192,29786,1,0,0:0:0:0:
320,192,29873,1,0,0:0:0:0:
192,192,29961,1,0,0:0:0:0:
448,192,30048,1,0,0:0:0:0:
64,192,30048,1,0,0:0:0:0:
320,192,30135,1,0,0:0:0:0:
64,192,30222,1,0,0:0:0:0:
192,192,30222,1,0,0:0:0:0:
320,192,30309,1,0,0:0:0:0:
448,192,30309,1,0,0:0:0:0:
192,192,30397,1,0,0:0:0:0:
64,192,30397,1,0,0:0:0:0:
320,192,30484,1,0,0:0:0:0:
448,192,30484,1,0,0:0:0:0:
64,192,30571,1,0,0:0:0:0:
192,192,30571,1,0,0:0:0:0:
448,192,30658,1,0,0:0:0:0:
320,192,30658,1,0,0:0:0:0:
192,192,30745,1,0,0:0:0:0:
64,192,30745,1,0,0:0:0:0:
320,192,30833,1,0,0:0:0:0:
192,192,30920,1,0,0:0:0:0:
320,192,31007,1,0,0:0:0:0:
448,192,31094,1,0,0:0:0:0:
64,192,31094,1,0,0:0:0:0:
192,192,31182,1,0,0:0:0:0:
320,192,31269,1,0,0:0:0:0:
448,192,31356,1,0,0:0:0:0:
192,192,31443,1,0,0:0:0:0:
320,192,31443,1,0,0:0:0:0:
64,192,31530,1,0,0:0:0:0:
192,192,31618,1,0,0:0:0:0:
320,192,31705,1,0,0:0:0:0:
64,192,31792,1,0,0:0:0:0:
192,192,31792,1,0,0:0:0:0:
448,192,31879,1,0,0:0:0:0:
320,192,31966,1,0,0:0:0:0:
192,192,32054,1,0,0:0:0:0:
320,192,32141,1,0,0:0:0:0:
448,192,32141,1,0,0:0:0:0:
64,192,32228,1,0,0:0:0:0:
192,192,32315,1,0,0:0:0:0:
320,192,32402,1,0,0:0:0:0:
192,192,32490,1,0,0:0:0:0:
448,192,32490,1,0,0:0:0:0:
64,192,32577,1,0,0:0:0:0:
320,192,32664,1,0,0:0:0:0:
192,192,32751,1,0,0:0:0:0:
320,192,32839,1,0,0:0:0:0:
448,192,32839,1,0,0:0:0:0:
64,192,32926,1,0,0:0:0:0:
192,192,33013,1,0,0:0:0:0:
320,192,33100,1,0,0:0:0:0:
64,192,33187,1,0,0:0:0:0:
448,192,33187,1,0,0:0:0:0:
320,192,33275,1,0,0:0:0:0:
192,192,33362,1,0,0:0:0:0:
448,192,33449,1,0,0:0:0:0:
192,192,33536,5,0,0:0:0:0:
320,192,33536,1,0,0:0:0:0:
448,192,33623,1,0,0:0:0:0:
320,192,33711,1,0,0:0:0:0:
192,192,33798,1,0,0:0:0:0:
448,192,33885,1,0,0:0:0:0:
320,192,33885,1,0,0:0:0:0:
64,192,33972,1,0,0:0:0:0:
192,192,34059,1,0,0:0:0:0:
320,192,34147,1,0,0:0:0:0:
192,192,34234,1,0,0:0:0:0:
64,192,34234,1,0,0:0:0:0:
320,192,34321,1,0,0:0:0:0:
64,192,34408,1,0,0:0:0:0:
192,192,34495,1,0,0:0:0:0:
448,192,34583,1,0,0:0:0:0:
320,192,34583,1,0,0:0:0:0:
192,192,34670,1,0,0:0:0:0:
64,192,34757,1,0,0:0:0:0:
448,192,34844,1,0,0:0:0:0:
192,192,34932,1,0,0:0:0:0:
64,192,34932,1,0,0:0:0:0:
320,192,35019,1,0,0:0:0:0:
448,192,35106,1,0,0:0:0:0:
192,192,35193,1,0,0:0:0:0:
320,192,35280,1,0,0:0:0:0:
448,192,35280,1,0,0:0:0:0:
192,192,35368,1,0,0:0:0:0:
64,192,35455,1,0,0:0:0:0:
448,192,35542,1,0,0:0:0:0:
64,192,35629,5,0,0:0:0:0:
320,192,35629,1,0,0:0:0:0:
448,192,35716,1,0,0:0:0:0:
192,192,35804,1,0,0:0:0:0:
320,192,35891,1,0,0:0:0:0:
192,192,35978,1,0,0:0:0:0:
448,192,35978,1,0,0:0:0:0:
64,192,36065,1,0,0:0:0:0:
448,192,36152,1,0,0:0:0:0:
320,192,36240,1,0,0:0:0:0:
64,192,36327,1,0,0:0:0:0:
192,192,36327,1,0,0:0:0:0:
320,192,36414,1,0,0:0:0:0:
64,192,36501,1,0,0:0:0:0:
192,192,36589,1,0,0:0:0:0:
320,192,36676,1,0,0:0:0:0:
448,192,36676,1,0,0:0:0:0:
192,192,36763,1,0,0:0:0:0:
64,192,36850,1,0,0:0:0:0:
448,192,36937,1,0,0:0:0:0:
64,192,37025,1,0,0:0:0:0:
192,192,37025,1,0,0:0:0:0:
320,192,37112,1,0,0:0:0:0:
448,192,37199,1,0,0:0:0:0:
192,192,37286,1,0,0:0:0:0:
448,192,37373,1,0,0:0:0:0:
320,192,37373,1,0,0:0:0:0:
192,192,37461,1,0,0:0:0:0:
64,192,37548,1,0,0:0:0:0:
448,192,37635,1,0,0:0:0:0:
192,192,37722,5,0,0:0:0:0:
320,192,37722,1,0,0:0:0:0:
64,192,37809,1,0,0:0:0:0:
320,192,37897,1,0,0:0:0:0:
192,192,37984,1,0,0:0:0:0:
448,192,38071,1,0,0:0:0:0:
320,192,38071,1,0,0:0:0:0:
64,192,38158,1,0,0:0:0:0:
192,192,38245,1,0,0:0:0:0:
320,192,38333,1,0,0:0:0:0:
448,192,38420,1,0,0:0:0:0:
64,192,38420,1,0,0:0:0:0:
192,192,38507,1,0,0:0:0:0:
448,192,38594,1,0,0:0:0:0:
320,192,38682,1,0,0:0:0:0:
64,192,38769,1,0,0:0:0:0:
192,192,38769,1,0,0:0:0:0:
320,192,38856,1,0,0:0:0:0:
448,192,38943,1,0,0:0:0:0:
192,192,39030,1,0,0:0:0:0:
448,192,39118,1,0,0:0:0:0:
64,192,39118,1,0,0:0:0:0:
320,192,39205,1,0,0:0:0:0:
192,192,39292,1,0,0:0:0:0:
64,192,39379,1,0,0:0:0:0:
320,192,39466,1,0,0:0:0:0:
448,192,39466,1,0,0:0:0:0:
192,192,39554,1,0,0:0:0:0:
64,192,39641,1,0,0:0:0:0:
448,192,39728,1,0,0:0:0:0:
320,192,39815,1,0,0:0:0:0:
64,192,39815,1,0,0:0:0:0:
448,192,39902,1,0,0:0:0:0:
320,192,39990,1,0,0:0:0:0:
192,192,40077,1,0,0:0:0:0:
320,192,40164,1,0,0:0:0:0:
448,192,40164,1,0,0:0:0:0:
64,192,40251,1,0,0:0:0:0:
192,192,40339,1,0,0:0:0:0:
320,192,40426,1,0,0:0:0:0:
64,192,40513,1,0,0:0:0:0:
192,192,40513,1,0,0:0:0:0:
320,192,40600,1,0,0:0:0:0:
64,192,40687,1,0,0:0:0:0:
192,192,40775,1,0,0:0:0:0:
320,192,40862,1,0,0:0:0:0:
448,192,40862,1,0,0:0:0:0:
192,192,40949,1,0,0:0:0:0:
64,192,41036,1,0,0:0:0:0:
448,192,41123,1,0,0:0:0:0:
64,192,41211,1,0,0:0:0:0:
320,192,41211,1,0,0:0:0:0:
192,192,41298,1,0,0:0:0:0:
320,192,41385,1,0,0:0:0:0:
64,192,41472,1,0,0:0:0:0:
448,192,41559,1,0,0:0:0:0:
320,192,41559,1,0,0:0:0:0:
192,192,41647,1,0,0:0:0:0:
64,192,41734,1,0,0:0:0:0:
320,192,41821,1,0,0:0:0:0:
64,192,41908,1,0,0:0:0:0:
192,192,41908,1,0,0:0:0:0:
448,192,41995,1,0,0:0:0:0:
320,192,42083,1,0,0:0:0:0:
192,192,42170,1,0,0:0:0:0:
448,192,42257,1,0,0:0:0:0:
320,192,42257,1,0,0:0:0:0:
64,192,42344,1,0,0:0:0:0:
320,192,42432,1,0,0:0:0:0:
192,192,42519,1,0,0:0:0:0:
64,192,42606,1,0,0:0:0:0:
320,192,42606,1,0,0:0:0:0:
448,192,42693,1,0,0:0:0:0:
192,192,42780,1,0,0:0:0:0:
320,192,42868,1,0,0:0:0:0:
448,192,42955,1,0,0:0:0:0:
192,192,42955,1,0,0:0:0:0:
64,192,43042,1,0,0:0:0:0:
192,192,43129,1,0,0:0:0:0:
448,192,43216,1,0,0:0:0:0:
320,192,43304,1,0,0:0:0:0:
192,192,43304,1,0,0:0:0:0:
64,192,43391,1,0,0:0:0:0:
320,192,43478,1,0,0:0:0:0:
192,192,43565,1,0,0:0:0:0:
448,192,43652,1,0,0:0:0:0:
320,192,43652,1,0,0:0:0:0:
64,192,43740,1,0,0:0:0:0:
192,192,43827,1,0,0:0:0:0:
320,192,43914,1,0,0:0:0:0:
192,192,44001,1,0,0:0:0:0:
64,192,44001,1,0,0:0:0:0:
448,192,44089,1,0,0:0:0:0:
64,192,44176,1,0,0:0:0:0:
192,192,44263,1,0,0:0:0:0:
320,192,44350,1,0,0:0:0:0:
448,192,44350,1,0,0:0:0:0:
64,192,44437,1,0,0:0:0:0:
320,192,44525,1,0,0:0:0:0:
192,192,44612,1,0,0:0:0:0:
320,192,44699,1,0,0:0:0:0:
64,192,44699,1,0,0:0:0:0:
448,192,44786,1,0,0:0:0:0:
192,192,44873,1,0,0:0:0:0:
64,192,44961,1,0,0:0:0:0:
320,192,45048,1,0,0:0:0:0:
448,192,45048,1,0,0:0:0:0:
64,192,45135,1,0,0:0:0:0:
192,192,45222,1,0,0:0:0:0:
448,192,45309,1,0,0:0:0:0:
64,192,45397,1,0,0:0:0:0:
320,192,45397,1,0,0:0:0:0:
192,192,45484,1,0,0:0:0:0:
320,192,45571,1,0,0:0:0:0:
192,192,45658,1,0,0:0:0:0:
320,192,45745,1,0,0:0:0:0:
448,192,45745,1,0,0:0:0:0:
64,192,45833,1,0,0:0:0:0:
448,192,45920,1,0,0:0:0:0:
320,192,46007,1,0,0:0:0:0:
64,192,46094,1,0,0:0:0:0:
192,192,46094,1,0,0:0:0:0:
448,192,47025,1,0,0:0:0:0:
320,192,47083,1,0,0:0:0:0:
192,192,47141,1,0,0:0:0:0:
64,192,47199,1,0,0:0:0:0:
448,192,47257,1,0,0:0:0:0:
320,192,47315,1,0,0:0:0:0:
192,192,47373,1,0,0:0:0:0:
320,192,47490,1,0,0:0:0:0:
448,192,47490,1,0,0:0:0:0:
64,192,47577,1,0,0:0:0:0:
320,192,47664,1,0,0:0:0:0:
192,192,47751,1,0,0:0:0:0:
448,192,47839,1,0,0:0:0:0:
320,192,47839,1,0,0:0:0:0:
64,192,47926,1,0,0:0:0:0:
192,192,48013,1,0,0:0:0:0:
320,192,48100,1,0,0:0:0:0:
192,192,48187,1,0,0:0:0:0:
64,192,48187,1,0,0:0:0:0:
448,192,48275,1,0,0:0:0:0:
320,192,48362,1,0,0:0:0:0:
192,192,48449,1,0,0:0:0:0:
448,192,48536,1,0,0:0:0:0:
320,192,48536,1,0,0:0:0:0:
64,192,48623,1,0,0:0:0:0:
320,192,48711,1,0,0:0:0:0:
192,192,48798,1,0,0:0:0:0:
320,192,48885,1,0,0:0:0:0:
64,192,48885,1,0,0:0:0:0:
448,192,48972,1,0,0:0:0:0:
192,192,49059,1,0,0:0:0:0:
320,192,49147,1,0,0:0:0:0:
448,192,49234,1,0,0:0:0:0:
192,192,49234,1,0,0:0:0:0:
64,192,49321,1,0,0:0:0:0:
192,192,49408,1,0,0:0:0:0:
448,192,49495,1,0,0:0:0:0:
320,192,49583,1,0,0:0:0:0:
192,192,49583,1,0,0:0:0:0:
64,192,49670,1,0,0:0:0:0:
320,192,49757,1,0,0:0:0:0:
192,192,49844,1,0,0:0:0:0:
64,192,49932,1,0,0:0:0:0:
320,192,49932,1,0,0:0:0:0:
192,192,50019,1,0,0:0:0:0:
320,192,50106,1,0,0:0:0:0:
64,192,50193,1,0,0:0:0:0:
192,192,50280,1,0,0:0:0:0:
448,192,50280,1,0,0:0:0:0:
320,192,50368,1,0,0:0:0:0:
64,192,50455,1,0,0:0:0:0:
320,192,50542,1,0,0:0:0:0:
64,192,50629,1,0,0:0:0:0:
192,192,50629,1,0,0:0:0:0:
320,192,50716,1,0,0:0:0:0:
448,192,50804,1,0,0:0:0:0:
320,192,50891,1,0,0:0:0:0:
64,192,50978,1,0,0:0:0:0:
448,192,50978,1,0,0:0:0:0:
192,192,51065,1,0,0:0:0:0:
320,192,51152,1,0,0:0:0:0:
448,192,51240,1,0,0:0:0:0:
192,192,51327,1,0,0:0:0:0:
320,192,51327,1,0,0:0:0:0:
64,192,51414,1,0,0:0:0:0:
320,192,51501,1,0,0:0:0:0:
448,192,51589,1,0,0:0:0:0:
192,192,51676,1,0,0:0:0:0:
64,192,51676,1,0,0:0:0:0:
448,192,51763,1,0,0:0:0:0:
320,192,51850,1,0,0:0:0:0:
192,192,51937,1,0,0:0:0:0:
448,192,52025,1,0,0:0:0:0:
320,192,52025,1,0,0:0:0:0:
64,192,52112,1,0,0:0:0:0:
320,192,52199,1,0,0:0:0:0:
192,192,52286,1,0,0:0:0:0:
320,192,52373,1,0,0:0:0:0:
64,192,52373,1,0,0:0:0:0:
448,192,52461,1,0,0:0:0:0:
192,192,52548,1,0,0:0:0:0:
320,192,52635,1,0,0:0:0:0:
64,192,52635,1,0,0:0:0:0:
448,192,52722,1,0,0:0:0:0:
192,192,52722,1,0,0:0:0:0:
64,192,52809,1,0,0:0:0:0:
320,192,52809,1,0,0:0:0:0:
192,192,52897,1,0,0:0:0:0:
448,192,52897,1,0,0:0:0:0:
64,192,52984,1,0,0:0:0:0:
320,192,52984,1,0,0:0:0:0:
192,192,53071,1,0,0:0:0:0:
448,192,53071,1,0,0:0:0:0:
64,192,53158,1,0,0:0:0:0:
320,192,53245,1,0,0:0:0:0:
192,192,53333,1,0,0:0:0:0:
64,192,53420,1,0,0:0:0:0:
320,192,53420,1,0,0:0:0:0:
448,192,53507,1,0,0:0:0:0:
64,192,53594,1,0,0:0:0:0:
192,192,53682,1,0,0:0:0:0:
320,192,53769,1,0,0:0:0:0:
448,192,53769,1,0,0:0:0:0:
192,192,53856,1,0,0:0:0:0:
64,192,53943,1,0,0:0:0:0:
448,192,54030,1,0,0:0:0:0:
192,192,54118,1,0,0:0:0:0:
320,192,54118,1,0,0:0:0:0:
64,192,54205,1,0,0:0:0:0:
192,192,54292,1,0,0:0:0:0:
320,192,54379,1,0,0:0:0:0:
64,192,54466,1,0,0:0:0:0:
448,192,54466,1,0,0:0:0:0:
192,192,54554,1,0,0:0:0:0:
320,192,54641,1,0,0:0:0:0:
448,192,54728,1,0,0:0:0:0:
192,192,54815,1,0,0:0:0:0:
320,192,54815,1,0,0:0:0:0:
64,192,54902,1,0,0:0:0:0:
320,192,54990,1,0,0:0:0:0:
192,192,55077,1,0,0:0:0:0:
320,192,55164,1,0,0:0:0:0:
64,192,55164,1,0,0:0:0:0:
448,192,55251,1,0,0:0:0:0:
320,192,55339,1,0,0:0:0:0:
192,192,55426,1,0,0:0:0:0:
448,192,55513,1,0,0:0:0:0:
64,192,55513,1,0,0:0:0:0:
320,192,55600,1,0,0:0:0:0:
192,192,55687,1,0,0:0:0:0:
320,192,55775,1,0,0:0:0:0:
192,192,55862,1,0,0:0:0:0:
64,192,55862,1,0,0:0:0:0:
448,192,55949,1,0,0:0:0:0:
320,192,56036,1,0,0:0:0:0:
192,192,56123,1,0,0:0:0:0:
448,192,56211,1,0,0:0:0:0:
320,192,56211,1,0,0:0:0:0:
64,192,56298,1,0,0:0:0:0:
192,192,56385,1,0,0:0:0:0:
320,192,56472,1,0,0:0:0:0:
448,192,56559,1,0,0:0:0:0:
192,192,56559,1,0,0:0:0:0:
64,192,56647,1,0,0:0:0:0:
320,192,56734,1,0,0:0:0:0:
192,192,56821,1,0,0:0:0:0:
64,192,56908,1,0,0:0:0:0:
448,192,56908,1,0,0:0:0:0:
320,192,56995,1,0,0:0:0:0:
448,192,57083,1,0,0:0:0:0:
192,192,57170,1,0,0:0:0:0:
64,192,57257,1,0,0:0:0:0:
448,192,57257,1,0,0:0:0:0:
192,192,57344,1,0,0:0:0:0:
320,192,57432,1,0,0:0:0:0:
448,192,57519,1,0,0:0:0:0:
192,192,57606,1,0,0:0:0:0:
64,192,57606,1,0,0:0:0:0:
320,192,57693,1,0,0:0:0:0:
448,192,57780,1,0,0:0:0:0:
320,192,57868,1,0,0:0:0:0:
192,192,57955,1,0,0:0:0:0:
448,192,57955,1,0,0:0:0:0:
64,192,58042,1,0,0:0:0:0:
192,192,58129,1,0,0:0:0:0:
320,192,58216,1,0,0:0:0:0:
448,192,58304,1,0,0:0:0:0:
64,192,58391,1,0,0:0:0:0:
192,192,58478,1,0,0:0:0:0:
320,192,58565,1,0,0:0:0:0:
192,192,58652,1,0,0:0:0:0:
64,192,58652,1,0,0:0:0:0:
320,192,58740,1,0,0:0:0:0:
192,192,58827,1,0,0:0:0:0:
64,192,58914,1,0,0:0:0:0:
448,192,59001,1,0,0:0:0:0:
320,192,59001,1,0,0:0:0:0:
192,192,59089,1,0,0:0:0:0:
320,192,59176,1,0,0:0:0:0:
448,192,59263,1,0,0:0:0:0:
192,192,59350,1,0,0:0:0:0:
64,192,59350,1,0,0:0:0:0:
448,192,59437,1,0,0:0:0:0:
320,192,59525,1,0,0:0:0:0:
192,192,59612,1,0,0:0:0:0:
448,192,59699,1,0,0:0:0:0:
64,192,59699,1,0,0:0:0:0:
192,192,59786,1,0,0:0:0:0:
320,192,59873,1,0,0:0:0:0:
448,192,59961,1,0,0:0:0:0:
192,192,60048,1,0,0:0:0:0:
64,192,60048,1,0,0:0:0:0:
320,192,60135,1,0,0:0:0:0:
192,192,60222,1,0,0:0:0:0:
448,192,60309,1,0,0:0:0:0:
64,192,60397,1,0,0:0:0:0:
192,192,60397,1,0,0:0:0:0:
448,192,60484,1,0,0:0:0:0:
320,192,60571,1,0,0:0:0:0:
192,192,60658,1,0,0:0:0:0:
320,192,60745,1,0,0:0:0:0:
448,192,60745,1,0,0:0:0:0:
64,192,60833,1,0,0:0:0:0:
192,192,60920,1,0,0:0:0:0:
320,192,61007,1,0,0:0:0:0:
64,192,61094,1,0,0:0:0:0:
192,192,61094,1,0,0:0:0:0:
448,192,61182,1,0,0:0:0:0:
192,192,61269,1,0,0:0:0:0:
320,192,61356,1,0,0:0:0:0:
192,192,61443,1,0,0:0:0:0:
448,192,61443,1,0,0:0:0:0:
64,192,61530,1,0,0:0:0:0:
192,192,61618,1,0,0:0:0:0:
448,192,61705,1,0,0:0:0:0:
192,192,61792,1,0,0:0:0:0:
320,192,61792,1,0,0:0:0:0:
64,192,61879,1,0,0:0:0:0:
320,192,61966,1,0,0:0:0:0:
192,192,62054,1,0,0:0:0:0:
320,192,62141,1,0,0:0:0:0:
64,192,62141,1,0,0:0:0:0:
192,192,62228,1,0,0:0:0:0:
320,192,62315,1,0,0:0:0:0:
448,192,62402,1,0,0:0:0:0:
320,192,62490,1,0,0:0:0:0:
192,192,62490,1,0,0:0:0:0:
64,192,62577,1,0,0:0:0:0:
448,192,62664,1,0,0:0:0:0:
64,192,62751,1,0,0:0:0:0:
320,192,62839,1,0,0:0:0:0:
192,192,62839,1,0,0:0:0:0:
448,192,62926,1,0,0:0:0:0:
64,192,63013,1,0,0:0:0:0:
448,192,63100,1,0,0:0:0:0:
320,192,63187,1,0,0:0:0:0:
192,192,63187,1,0,0:0:0:0:
64,192,63275,1,0,0:0:0:0:
320,192,63362,1,0,0:0:0:0:
448,192,63449,1,0,0:0:0:0:
64,192,63536,1,0,0:0:0:0:
448,192,63623,1,0,0:0:0:0:
320,192,63623,1,0,0:0:0:0:
64,192,63711,1,0,0:0:0:0:
192,192,63711,1,0,0:0:0:0:
320,192,63798,1,0,0:0:0:0:
448,192,63798,1,0,0:0:0:0:
64,192,63885,1,0,0:0:0:0:
192,192,63885,1,0,0:0:0:0:
320,192,63972,1,0,0:0:0:0:
448,192,63972,1,0,0:0:0:0:
64,192,64059,1,0,0:0:0:0:
192,192,64059,1,0,0:0:0:0:
320,192,64147,1,0,0:0:0:0:
448,192,64147,1,0,0:0:0:0:
192,192,64234,1,0,0:0:0:0:
64,192,64321,1,0,0:0:0:0:
192,192,64408,1,0,0:0:0:0:
320,192,64495,1,0,0:0:0:0:
64,192,64583,1,0,0:0:0:0:
192,192,64583,1,0,0:0:0:0:
448,192,64670,1,0,0:0:0:0:
320,192,64757,1,0,0:0:0:0:
192,192,64844,1,0,0:0:0:0:
64,192,64932,1,0,0:0:0:0:
448,192,64932,1,0,0:0:0:0:
320,192,65019,1,0,0:0:0:0:
448,192,65106,1,0,0:0:0:0:
64,192,65193,1,0,0:0:0:0:
192,192,65280,1,0,0:0:0:0:
320,192,65280,1,0,0:0:0:0:
448,192,65368,1,0,0:0:0:0:
64,192,65455,1,0,0:0:0:0:
192,192,65542,1,0,0:0:0:0:
320,192,65629,1,0,0:0:0:0:
448,192,65629,1,0,0:0:0:0:
192,192,65716,1,0,0:0:0:0:
64,192,65804,1,0,0:0:0:0:
448,192,65891,1,0,0:0:0:0:
192,192,65978,1,0,0:0:0:0:
320,192,65978,1,0,0:0:0:0:
64,192,66065,1,0,0:0:0:0:
448,192,66152,1,0,0:0:0:0:
320,192,66240,1,0,0:0:0:0:
192,192,66327,1,0,0:0:0:0:
64,192,66327,1,0,0:0:0:0:
448,192,66414,1,0,0:0:0:0:
320,192,66501,1,0,0:0:0:0:
192,192,66589,1,0,0:0:0:0:
448,192,66676,1,0,0:0:0:0:
320,192,66676,1,0,0:0:0:0:
192,192,66763,1,0,0:0:0:0:
64,192,66850,1,0,0:0:0:0:
448,192,66937,1,0,0:0:0:0:
320,192,66937,1,0,0:0:0:0:
64,192,67025,1,0,0:0:0:0:
192,192,67025,1,0,0:0:0:0:
448,192,67112,1,0,0:0:0:0:
320,192,67112,1,0,0:0:0:0:
192,192,67199,1,0,0:0:0:0:
64,192,67199,1,0,0:0:0:0:
320,192,67286,1,0,0:0:0:0:
448,192,67286,1,0,0:0:0:0:
192,192,67373,1,0,0:0:0:0:
64,192,67373,1,0,0:0:0:0:
320,192,67461,1,0,0:0:0:0:
448,192,67461,1,0,0:0:0:0:
192,192,67548,1,0,0:0:0:0:
64,192,67548,1,0,0:0:0:0:
448,192,67635,1,0,0:0:0:0:
320,192,67635,1,0,0:0:0:0:
192,192,67722,1,0,0:0:0:0:
64,192,67722,1,0,0:0:0:0:
320,192,67809,1,0,0:0:0:0:
448,192,67809,1,0,0:0:0:0:
192,192,67897,1,0,0:0:0:0:
64,192,67897,1,0,0:0:0:0:
320,192,67984,1,0,0:0:0:0:
448,192,67984,1,0,0:0:0:0:
64,192,68071,1,0,0:0:0:0:
192,192,68071,1,0,0:0:0:0:
320,192,68158,1,0,0:0:0:0:
448,192,68158,1,0,0:0:0:0:
64,192,68245,1,0,0:0:0:0:
192,192,68245,1,0,0:0:0:0:
320,192,68333,1,0,0:0:0:0:
448,192,68333,1,0,0:0:0:0:
64,192,68420,1,0,0:0:0:0:
192,192,68507,1,0,0:0:0:0:
320,192,68594,1,0,0:0:0:0:
448,192,68682,1,0,0:0:0:0:
64,192,68769,1,0,0:0:0:0:
192,192,68856,1,0,0:0:0:0:
320,192,68943,1,0,0:0:0:0:
448,192,69030,1,0,0:0:0:0:
64,192,69118,1,0,0:0:0:0:
192,192,69205,1,0,0:0:0:0:
320,192,69292,1,0,0:0:0:0:
448,192,69379,1,0,0:0:0:0:
64,192,69466,1,0,0:0:0:0:
192,192,69554,1,0,0:0:0:0:
320,192,69641,1,0,0:0:0:0:
448,192,69728,1,0,0:0:0:0:
64,192,69815,1,0,0:0:0:0:
192,192,69815,1,0,0:0:0:0:
448,192,69902,1,0,0:0:0:0:
320,192,69990,1,0,0:0:0:0:
192,192,70077,1,0,0:0:0:0:
320,192,70164,1,0,0:0:0:0:
448,192,70164,1,0,0:0:0:0:
64,192,70251,1,0,0:0:0:0:
320,192,70339,1,0,0:0:0:0:
192,192,70426,1,0,0:0:0:0:
64,192,70513,1,0,0:0:0:0:
320,192,70513,1,0,0:0:0:0:
448,192,70600,1,0,0:0:0:0:
192,192,70687,1,0,0:0:0:0:
320,192,70775,1,0,0:0:0:0:
192,192,70862,1,0,0:0:0:0:
448,192,70862,1,0,0:0:0:0:
64,192,70949,1,0,0:0:0:0:
192,192,71036,1,0,0:0:0:0:
448,192,71123,1,0,0:0:0:0:
320,192,71211,1,0,0:0:0:0:
192,192,71211,128,0,71559:0:0:0:0:
64,192,71298,1,0,0:0:0:0:
448,192,71385,1,0,0:0:0:0:
320,192,71472,1,0,0:0:0:0:
64,192,71559,1,0,0:0:0:0:
448,192,71559,128,0,71647:0:0:0:0:
320,192,71647,128,0,71734:0:0:0:0:
192,192,71734,128,0,71821:0:0:0:0:
64,192,71821,128,0,71908:0:0:0:0:
448,192,71908,1,0,0:0:0:0:
320,192,71908,1,0,0:0:0:0:
192,192,71908,128,0,71995:0:0:0:0:
320,192,71995,128,0,72083:0:0:0:0:
448,192,72083,128,0,72170:0:0:0:0:
192,192,72170,128,0,72257:0:0:0:0:
64,192,72257,1,0,0:0:0:0:
320,192,72257,128,0,72344:0:0:0:0:
448,192,72344,1,0,0:0:0:0:
64,192,72344,128,0,72432:0:0:0:0:
192,192,72432,1,0,0:0:0:0:
448,192,72432,128,0,72519:0:0:0:0:
320,192,72519,128,0,72606:0:0:0:0:
192,192,72606,1,0,0:0:0:0:
64,192,72606,128,0,72693:0:0:0:0:
320,192,72693,128,0,72780:0:0:0:0:
192,192,72780,1,0,0:0:0:0:
448,192,72780,128,0,72868:0:0:0:0:
64,192,72868,128,0,72955:0:0:0:0:
192,192,72955,128,0,73042:0:0:0:0:
320,192,73042,128,0,73304:0:0:0:0:
448,192,73129,1,0,0:0:0:0:
64,192,73216,1,0,0:0:0:0:
192,192,73304,1,0,0:0:0:0:
64,192,73391,1,0,0:0:0:0:
192,192,73478,1,0,0:0:0:0:
320,192,73565,1,0,0:0:0:0:
64,192,73652,1,0,0:0:0:0:
192,192,73652,1,0,0:0:0:0:
448,192,73740,1,0,0:0:0:0:
320,192,73827,1,0,0:0:0:0:
192,192,73914,1,0,0:0:0:0:
320,192,74001,1,0,0:0:0:0:
448,192,74001,1,0,0:0:0:0:
320,192,74176,1,0,0:0:0:0:
448,192,74176,1,0,0:0:0:0:
320,192,74350,1,0,0:0:0:0:
448,192,74350,1,0,0:0:0:0:
320,192,74525,1,0,0:0:0:0:
448,192,74525,1,0,0:0:0:0:
64,192,74612,1,0,0:0:0:0:
192,192,74612,1,0,0:0:0:0:
320,192,74699,1,0,0:0:0:0:
448,192,74699,1,0,0:0:0:0:
64,192,74786,1,0,0:0:0:0:
192,192,74786,1,0,0:0:0:0:
320,192,74873,1,0,0:0:0:0:
448,192,74873,1,0,0:0:0:0:
64,192,74961,1,0,0:0:0:0:
192,192,74961,1,0,0:0:0:0:
320,192,75048,1,0,0:0:0:0:
448,192,75048,1,0,0:0:0:0:
64,192,75135,1,0,0:0:0:0:
192,192,75135,1,0,0:0:0:0:
448,192,75222,1,0,0:0:0:0:
320,192,75222,1,0,0:0:0:0:
64,192,75309,1,0,0:0:0:0:
192,192,75309,1,0,0:0:0:0:
448,192,75397,1,0,0:0:0:0:
320,192,75484,1,0,0:0:0:0:
192,192,75571,1,0,0:0:0:0:
64,192,75658,1,0,0:0:0:0:
192,192,75745,1,0,0:0:0:0:
448,192,75745,1,0,0:0:0:0:
320,192,75833,1,0,0:0:0:0:
448,192,75920,1,0,0:0:0:0:
192,192,76007,1,0,0:0:0:0:
64,192,76094,1,0,0:0:0:0:
448,192,76094,1,0,0:0:0:0:
320,192,76182,1,0,0:0:0:0:
448,192,76269,1,0,0:0:0:0:
192,192,76356,1,0,0:0:0:0:
64,192,76443,1,0,0:0:0:0:
320,192,76443,1,0,0:0:0:0:
448,192,76530,1,0,0:0:0:0:
192,192,76618,1,0,0:0:0:0:
320,192,76705,1,0,0:0:0:0:
192,192,76792,1,0,0:0:0:0:
64,192,76792,1,0,0:0:0:0:
448,192,76792,128,0,77054:0:0:0:0:
320,192,76879,1,0,0:0:0:0:
192,192,76966,1,0,0:0:0:0:
320,192,77054,128,0,77141:0:0:0:0:
192,192,77141,128,0,77228:0:0:0:0:
64,192,77228,128,0,77315:0:0:0:0:
448,192,77315,128,0,77402:0:0:0:0:
320,192,77402,128,0,77490:0:0:0:0:
192,192,77490,128,0,77577:0:0:0:0:
448,192,77577,128,0,77664:0:0:0:0:
64,192,77664,128,0,77751:0:0:0:0:
320,192,77751,128,0,77839:0:0:0:0:
192,192,77839,128,0,77926:0:0:0:0:
64,192,77926,128,0,78013:0:0:0:0:
192,192,78013,128,0,78100:0:0:0:0:
320,192,78100,128,0,78187:0:0:0:0:
448,192,78187,128,0,78275:0:0:0:0:
64,192,78275,128,0,78362:0:0:0:0:
192,192,78362,128,0,78449:0:0:0:0:
320,192,78449,128,0,78536:0:0:0:0:
448,192,78536,128,0,78623:0:0:0:0:
64,192,78623,128,0,79234:0:0:0:0:
192,192,78623,1,0,0:0:0:0:
320,192,78711,1,0,0:0:0:0:
448,192,78798,1,0,0:0:0:0:
320,192,78885,1,0,0:0:0:0:
192,192,78972,1,0,0:0:0:0:
448,192,79059,1,0,0:0:0:0:
320,192,79147,1,0,0:0:0:0:
192,192,79234,1,0,0:0:0:0:
448,192,79234,1,0,0:0:0:0:
320,192,79321,1,0,0:0:0:0:
192,192,79408,1,0,0:0:0:0:
64,192,79408,1,0,0:0:0:0:
320,192,79495,1,0,0:0:0:0:
448,192,79495,1,0,0:0:0:0:
192,192,79757,1,0,0:0:0:0:
320,192,79757,1,0,0:0:0:0:
448,192,79757,1,0,0:0:0:0:
64,192,80106,1,0,0:0:0:0:
192,192,80106,1,0,0:0:0:0:
320,192,80106,1,0,0:0:0:0:
192,192,80455,1,0,0:0:0:0:
320,192,80455,1,0,0:0:0:0:
448,192,80455,1,0,0:0:0:0:
64,192,80542,1,0,0:0:0:0:
192,192,80629,1,0,0:0:0:0:
320,192,80716,1,0,0:0:0:0:
448,192,80804,1,0,0:0:0:0:
64,192,80804,1,0,0:0:0:0:
192,192,80891,1,0,0:0:0:0:
320,192,80978,1,0,0:0:0:0:
448,192,80978,1,0,0:0:0:0:
192,192,81065,1,0,0:0:0:0:
64,192,81152,1,0,0:0:0:0:
320,192,81240,1,0,0:0:0:0:
192,192,81327,1,0,0:0:0:0:
448,192,81327,1,0,0:0:0:0:
64,192,81414,1,0,0:0:0:0:
320,192,81501,1,0,0:0:0:0:
192,192,81589,1,0,0:0:0:0:
320,192,81676,1,0,0:0:0:0:
448,192,81676,1,0,0:0:0:0:
64,192,81763,1,0,0:0:0:0:
192,192,81850,1,0,0:0:0:0:
320,192,81937,1,0,0:0:0:0:
192,192,82025,1,0,0:0:0:0:
64,192,82025,1,0,0:0:0:0:
448,192,82112,1,0,0:0:0:0:
320,192,82199,1,0,0:0:0:0:
192,192,82286,1,0,0:0:0:0:
64,192,82373,1,0,0:0:0:0:
448,192,82373,128,0,82635:0:0:0:0:
320,192,82461,1,0,0:0:0:0:
192,192,82548,1,0,0:0:0:0:
320,192,82635,128,0,82722:0:0:0:0:
192,192,82722,128,0,82809:0:0:0:0:
64,192,82809,128,0,82897:0:0:0:0:
448,192,82897,128,0,82984:0:0:0:0:
320,192,82984,128,0,83071:0:0:0:0:
192,192,83071,128,0,83158:0:0:0:0:
448,192,83158,128,0,83245:0:0:0:0:
64,192,83245,128,0,83333:0:0:0:0:
320,192,83333,128,0,83420:0:0:0:0:
192,192,83420,128,0,83507:0:0:0:0:
64,192,83507,128,0,83594:0:0:0:0:
192,192,83594,128,0,83682:0:0:0:0:
320,192,83682,128,0,83769:0:0:0:0:
448,192,83769,128,0,83856:0:0:0:0:
64,192,83856,128,0,83943:0:0:0:0:
192,192,83943,128,0,84030:0:0:0:0:
320,192,84030,128,0,84118:0:0:0:0:
448,192,84118,128,0,84205:0:0:0:0:
64,192,84205,128,0,84815:0:0:0:0:
192,192,84205,1,0,0:0:0:0:
320,192,84292,1,0,0:0:0:0:
448,192,84379,1,0,0:0:0:0:
320,192,84466,1,0,0:0:0:0:
192,192,84554,1,0,0:0:0:0:
448,192,84641,1,0,0:0:0:0:
320,192,84728,1,0,0:0:0:0:
192,192,84815,1,0,0:0:0:0:
320,192,84990,1,0,0:0:0:0:
448,192,84990,1,0,0:0:0:0:
320,192,85164,1,0,0:0:0:0:
448,192,85164,1,0,0:0:0:0:
320,192,85339,1,0,0:0:0:0:
448,192,85339,1,0,0:0:0:0:
320,192,85513,1,0,0:0:0:0:
448,192,85513,1,0,0:0:0:0:
320,192,85687,1,0,0:0:0:0:
448,192,85687,1,0,0:0:0:0:
64,192,85775,1,0,0:0:0:0:
192,192,85775,1,0,0:0:0:0:
320,192,85862,1,0,0:0:0:0:
448,192,85862,1,0,0:0:0:0:
64,192,85949,1,0,0:0:0:0:
192,192,85949,1,0,0:0:0:0:
320,192,86036,1,0,0:0:0:0:
448,192,86036,1,0,0:0:0:0:
64,192,86123,1,0,0:0:0:0:
192,192,86123,1,0,0:0:0:0:
320,192,86211,1,0,0:0:0:0:
448,192,86211,1,0,0:0:0:0:
64,192,86298,1,0,0:0:0:0:
192,192,86298,1,0,0:0:0:0:
448,192,86385,1,0,0:0:0:0:
320,192,86385,1,0,0:0:0:0:
64,192,86472,1,0,0:0:0:0:
192,192,86472,1,0,0:0:0:0:
448,192,86559,1,0,0:0:0:0:
320,192,86647,1,0,0:0:0:0:
192,192,86734,1,0,0:0:0:0:
64,192,86821,1,0,0:0:0:0:
192,192,86908,1,0,0:0:0:0:
320,192,86995,1,0,0:0:0:0:
448,192,87083,1,0,0:0:0:0:
64,192,87170,1,0,0:0:0:0:
192,192,87257,1,0,0:0:0:0:
320,192,87257,1,0,0:0:0:0:
448,192,87344,1,0,0:0:0:0:
64,192,87432,1,0,0:0:0:0:
192,192,87519,1,0,0:0:0:0:
320,192,87606,1,0,0:0:0:0:
448,192,87606,1,0,0:0:0:0:
192,192,87693,1,0,0:0:0:0:
64,192,87780,1,0,0:0:0:0:
320,192,87868,1,0,0:0:0:0:
64,192,87955,1,0,0:0:0:0:
448,192,87955,128,0,88216:0:0:0:0:
192,192,87955,1,0,0:0:0:0:
320,192,88042,1,0,0:0:0:0:
192,192,88129,1,0,0:0:0:0:
320,192,88216,128,0,88304:0:0:0:0:
192,192,88304,128,0,88391:0:0:0:0:
64,192,88391,128,0,88478:0:0:0:0:
448,192,88478,128,0,88565:0:0:0:0:
320,192,88565,128,0,88652:0:0:0:0:
192,192,88652,128,0,88740:0:0:0:0:
448,192,88740,128,0,88827:0:0:0:0:
64,192,88827,128,0,88914:0:0:0:0:
320,192,88914,128,0,89001:0:0:0:0:
192,192,89001,128,0,89089:0:0:0:0:
64,192,89089,128,0,89176:0:0:0:0:
192,192,89176,128,0,89263:0:0:0:0:
320,192,89263,128,0,89350:0:0:0:0:
448,192,89350,128,0,89437:0:0:0:0:
64,192,89437,128,0,89525:0:0:0:0:
192,192,89525,128,0,89612:0:0:0:0:
320,192,89612,128,0,89699:0:0:0:0:
448,192,89699,128,0,89786:0:0:0:0:
64,192,89786,128,0,90397:0:0:0:0:
192,192,89786,1,0,0:0:0:0:
320,192,89873,1,0,0:0:0:0:
448,192,89961,1,0,0:0:0:0:
320,192,90048,1,0,0:0:0:0:
192,192,90135,1,0,0:0:0:0:
448,192,90222,1,0,0:0:0:0:
320,192,90309,1,0,0:0:0:0:
192,192,90397,1,0,0:0:0:0:
320,192,90571,1,0,0:0:0:0:
448,192,90571,1,0,0:0:0:0:
320,192,90658,1,0,0:0:0:0:
448,192,90658,1,0,0:0:0:0:
320,192,90745,1,0,0:0:0:0:
448,192,90745,1,0,0:0:0:0:
448,192,90920,1,0,0:0:0:0:
192,192,90920,1,0,0:0:0:0:
64,192,91007,1,0,0:0:0:0:
320,192,91007,1,0,0:0:0:0:
192,192,91094,1,0,0:0:0:0:
448,192,91094,1,0,0:0:0:0:
320,192,91269,1,0,0:0:0:0:
448,192,91269,1,0,0:0:0:0:
320,192,91356,1,0,0:0:0:0:
448,192,91356,1,0,0:0:0:0:
320,192,91443,1,0,0:0:0:0:
448,192,91443,1,0,0:0:0:0:
320,192,91530,1,0,0:0:0:0:
448,192,91530,1,0,0:0:0:0:
64,192,91618,1,0,0:0:0:0:
192,192,91676,1,0,0:0:0:0:
320,192,91734,1,0,0:0:0:0:
448,192,91792,1,0,0:0:0:0:
64,192,91850,1,0,0:0:0:0:
192,192,91908,1,0,0:0:0:0:
320,192,91966,1,0,0:0:0:0:
448,192,92025,1,0,0:0:0:0:
64,192,92083,1,0,0:0:0:0:
192,192,92141,1,0,0:0:0:0:
320,192,92141,1,0,0:0:0:0:
448,192,92228,1,0,0:0:0:0:
320,192,92315,1,0,0:0:0:0:
192,192,92402,1,0,0:0:0:0:
64,192,92490,1,0,0:0:0:0:
448,192,92490,1,0,0:0:0:0:
320,192,92577,1,0,0:0:0:0:
448,192,92664,1,0,0:0:0:0:
192,192,92751,1,0,0:0:0:0:
64,192,92839,1,0,0:0:0:0:
320,192,92839,1,0,0:0:0:0:
448,192,92926,1,0,0:0:0:0:
64,192,93013,1,0,0:0:0:0:
320,192,93100,1,0,0:0:0:0:
192,192,93187,1,0,0:0:0:0:
448,192,93187,1,0,0:0:0:0:
320,192,93275,1,0,0:0:0:0:
192,192,93362,1,0,0:0:0:0:
64,192,93449,1,0,0:0:0:0:
320,192,93536,1,0,0:0:0:0:
448,192,93536,1,0,0:0:0:0:
192,192,93623,1,0,0:0:0:0:
320,192,93711,1,0,0:0:0:0:
448,192,93798,1,0,0:0:0:0:
192,192,93885,1,0,0:0:0:0:
64,192,93885,1,0,0:0:0:0:
320,192,93972,1,0,0:0:0:0:
448,192,94059,1,0,0:0:0:0:
320,192,94147,1,0,0:0:0:0:
192,192,94234,1,0,0:0:0:0:
64,192,94234,1,0,0:0:0:0:
448,192,94321,1,0,0:0:0:0:
320,192,94408,1,0,0:0:0:0:
192,192,94495,1,0,0:0:0:0:
64,192,94583,1,0,0:0:0:0:
448,192,94583,1,0,0:0:0:0:
320,192,94670,1,0,0:0:0:0:
448,192,94757,1,0,0:0:0:0:
192,192,94844,1,0,0:0:0:0:
320,192,94932,1,0,0:0:0:0:
448,192,94932,1,0,0:0:0:0:
192,192,95019,1,0,0:0:0:0:
64,192,95106,1,0,0:0:0:0:
320,192,95193,1,0,0:0:0:0:
192,192,95280,1,0,0:0:0:0:
448,192,95280,1,0,0:0:0:0:
320,192,95368,1,0,0:0:0:0:
64,192,95455,1,0,0:0:0:0:
192,192,95542,1,0,0:0:0:0:
320,192,95629,1,0,0:0:0:0:
448,192,95629,1,0,0:0:0:0:
192,192,95716,1,0,0:0:0:0:
64,192,95804,1,0,0:0:0:0:
448,192,95891,1,0,0:0:0:0:
192,192,95978,1,0,0:0:0:0:
320,192,95978,1,0,0:0:0:0:
64,192,96065,1,0,0:0:0:0:
64,192,97257,1,0,0:0:0:0:
192,192,97315,1,0,0:0:0:0:
320,192,97373,1,0,0:0:0:0:
448,192,97432,1,0,0:0:0:0:
64,192,97490,1,0,0:0:0:0:
192,192,97548,1,0,0:0:0:0:
320,192,97606,1,0,0:0:0:0:
448,192,97664,1,0,0:0:0:0:
64,192,97722,1,0,0:0:0:0:
320,192,97809,1,0,0:0:0:0:
192,192,97897,1,0,0:0:0:0:
448,192,97897,1,0,0:0:0:0:
64,192,97984,1,0,0:0:0:0:
320,192,98071,1,0,0:0:0:0:
192,192,98158,1,0,0:0:0:0:
320,192,98245,1,0,0:0:0:0:
448,192,98245,1,0,0:0:0:0:
192,192,98333,1,0,0:0:0:0:
64,192,98420,1,0,0:0:0:0:
448,192,98420,1,0,0:0:0:0:
320,192,98507,1,0,0:0:0:0:
192,192,98594,1,0,0:0:0:0:
64,192,98594,1,0,0:0:0:0:
320,192,98682,1,0,0:0:0:0:
192,192,98769,1,0,0:0:0:0:
448,192,98856,1,0,0:0:0:0:
320,192,98943,1,0,0:0:0:0:
64,192,98943,1,0,0:0:0:0:
192,192,99030,1,0,0:0:0:0:
64,192,99118,1,0,0:0:0:0:
192,192,99205,1,0,0:0:0:0:
320,192,99292,1,0,0:0:0:0:
448,192,99292,1,0,0:0:0:0:
192,192,99379,1,0,0:0:0:0:
64,192,99466,1,0,0:0:0:0:
320,192,99554,1,0,0:0:0:0:
192,192,99641,1,0,0:0:0:0:
448,192,99641,1,0,0:0:0:0:
64,192,99728,1,0,0:0:0:0:
320,192,99815,1,0,0:0:0:0:
192,192,99902,1,0,0:0:0:0:
320,192,99990,1,0,0:0:0:0:
64,192,99990,1,0,0:0:0:0:
448,192,100077,1,0,0:0:0:0:
320,192,100164,1,0,0:0:0:0:
192,192,100251,1,0,0:0:0:0:
448,192,100339,1,0,0:0:0:0:
64,192,100339,1,0,0:0:0:0:
320,192,100426,1,0,0:0:0:0:
192,192,100513,1,0,0:0:0:0:
320,192,100600,1,0,0:0:0:0:
64,192,100687,1,0,0:0:0:0:
192,192,100687,1,0,0:0:0:0:
448,192,100775,1,0,0:0:0:0:
320,192,100862,1,0,0:0:0:0:
192,192,100949,1,0,0:0:0:0:
320,192,101036,1,0,0:0:0:0:
448,192,101036,1,0,0:0:0:0:
64,192,101123,1,0,0:0:0:0:
192,192,101211,1,0,0:0:0:0:
320,192,101298,1,0,0:0:0:0:
64,192,101385,1,0,0:0:0:0:
448,192,101385,1,0,0:0:0:0:
192,192,101472,1,0,0:0:0:0:
448,192,101559,1,0,0:0:0:0:
320,192,101647,1,0,0:0:0:0:
192,192,101734,1,0,0:0:0:0:
64,192,101734,1,0,0:0:0:0:
320,192,101821,1,0,0:0:0:0:
448,192,101908,1,0,0:0:0:0:
64,192,101995,1,0,0:0:0:0:
192,192,102083,1,0,0:0:0:0:
320,192,102083,1,0,0:0:0:0:
448,192,102170,1,0,0:0:0:0:
320,192,102257,1,0,0:0:0:0:
192,192,102344,1,0,0:0:0:0:
64,192,102432,1,0,0:0:0:0:
448,192,102432,1,0,0:0:0:0:
320,192,102519,1,0,0:0:0:0:
448,192,102606,1,0,0:0:0:0:
192,192,102693,1,0,0:0:0:0:
64,192,102693,1,0,0:0:0:0:
320,192,102780,1,0,0:0:0:0:
448,192,102780,1,0,0:0:0:0:
192,192,102868,1,0,0:0:0:0:
64,192,102868,1,0,0:0:0:0:
320,192,102955,1,0,0:0:0:0:
448,192,102955,1,0,0:0:0:0:
64,192,103042,1,0,0:0:0:0:
192,192,103042,1,0,0:0:0:0:
320,192,103129,1,0,0:0:0:0:
448,192,103129,1,0,0:0:0:0:
192,192,103216,1,0,0:0:0:0:
64,192,103304,1,0,0:0:0:0:
320,192,103391,1,0,0:0:0:0:
448,192,103478,1,0,0:0:0:0:
192,192,103478,1,0,0:0:0:0:
320,192,103565,1,0,0:0:0:0:
64,192,103652,1,0,0:0:0:0:
192,192,103740,1,0,0:0:0:0:
320,192,103827,1,0,0:0:0:0:
448,192,103827,1,0,0:0:0:0:
192,192,103914,1,0,0:0:0:0:
64,192,104001,1,0,0:0:0:0:
448,192,104089,1,0,0:0:0:0:
192,192,104176,1,0,0:0:0:0:
320,192,104176,1,0,0:0:0:0:
64,192,104263,1,0,0:0:0:0:
192,192,104350,1,0,0:0:0:0:
320,192,104437,1,0,0:0:0:0:
64,192,104525,1,0,0:0:0:0:
192,192,104525,1,0,0:0:0:0:
448,192,104612,1,0,0:0:0:0:
320,192,104699,1,0,0:0:0:0:
192,192,104786,1,0,0:0:0:0:
320,192,104873,1,0,0:0:0:0:
448,192,104873,1,0,0:0:0:0:
64,192,104961,1,0,0:0:0:0:
192,192,105048,1,0,0:0:0:0:
320,192,105135,1,0,0:0:0:0:
192,192,105222,1,0,0:0:0:0:
448,192,105222,1,0,0:0:0:0:
320,192,105309,1,0,0:0:0:0:
64,192,105397,1,0,0:0:0:0:
192,192,105484,1,0,0:0:0:0:
320,192,105571,1,0,0:0:0:0:
448,192,105571,1,0,0:0:0:0:
192,192,105658,1,0,0:0:0:0:
64,192,105745,1,0,0:0:0:0:
448,192,105833,1,0,0:0:0:0:
320,192,105920,1,0,0:0:0:0:
192,192,105920,1,0,0:0:0:0:
64,192,106007,1,0,0:0:0:0:
448,192,106094,1,0,0:0:0:0:
320,192,106182,1,0,0:0:0:0:
192,192,106269,1,0,0:0:0:0:
64,192,106269,1,0,0:0:0:0:
320,192,106356,1,0,0:0:0:0:
448,192,106443,1,0,0:0:0:0:
64,192,106530,1,0,0:0:0:0:
192,192,106618,1,0,0:0:0:0:
320,192,106618,1,0,0:0:0:0:
448,192,106705,1,0,0:0:0:0:
192,192,106792,1,0,0:0:0:0:
320,192,106879,1,0,0:0:0:0:
64,192,106966,1,0,0:0:0:0:
192,192,106966,1,0,0:0:0:0:
448,192,107054,1,0,0:0:0:0:
320,192,107141,1,0,0:0:0:0:
192,192,107228,1,0,0:0:0:0:
320,192,107315,1,0,0:0:0:0:
448,192,107315,1,0,0:0:0:0:
64,192,107402,1,0,0:0:0:0:
192,192,107490,1,0,0:0:0:0:
320,192,107490,1,0,0:0:0:0:
448,192,107577,1,0,0:0:0:0:
192,192,107664,1,0,0:0:0:0:
320,192,107664,1,0,0:0:0:0:
64,192,107751,1,0,0:0:0:0:
192,192,107839,1,0,0:0:0:0:
320,192,107839,1,0,0:0:0:0:
448,192,107926,1,0,0:0:0:0:
192,192,108013,1,0,0:0:0:0:
320,192,108013,1,0,0:0:0:0:
64,192,108100,1,0,0:0:0:0:
192,192,108187,1,0,0:0:0:0:
320,192,108187,1,0,0:0:0:0:
448,192,108275,1,0,0:0:0:0:
192,192,108362,1,0,0:0:0:0:
320,192,108362,1,0,0:0:0:0:
64,192,108449,1,0,0:0:0:0:
448,192,108536,1,0,0:0:0:0:
320,192,108623,1,0,0:0:0:0:
192,192,108711,1,0,0:0:0:0:
64,192,108711,1,0,0:0:0:0:
448,192,108798,1,0,0:0:0:0:
320,192,108885,1,0,0:0:0:0:
448,192,108972,1,0,0:0:0:0:
64,192,109059,1,0,0:0:0:0:
192,192,109059,1,0,0:0:0:0:
320,192,109147,1,0,0:0:0:0:
448,192,109234,1,0,0:0:0:0:
192,192,109321,1,0,0:0:0:0:
320,192,109408,1,0,0:0:0:0:
448,192,109408,1,0,0:0:0:0:
192,192,109495,1,0,0:0:0:0:
64,192,109583,1,0,0:0:0:0:
320,192,109670,1,0,0:0:0:0:
192,192,109757,1,0,0:0:0:0:
448,192,109757,1,0,0:0:0:0:
320,192,109844,1,0,0:0:0:0:
64,192,109932,1,0,0:0:0:0:
192,192,110019,1,0,0:0:0:0:
320,192,110106,1,0,0:0:0:0:
448,192,110106,1,0,0:0:0:0:
192,192,110193,1,0,0:0:0:0:
64,192,110280,1,0,0:0:0:0:
192,192,110368,1,0,0:0:0:0:
320,192,110455,1,0,0:0:0:0:
448,192,110455,1,0,0:0:0:0:
64,192,110542,1,0,0:0:0:0:
192,192,110629,1,0,0:0:0:0:
320,192,110716,1,0,0:0:0:0:
64,192,110804,1,0,0:0:0:0:
448,192,110804,1,0,0:0:0:0:
192,192,110891,1,0,0:0:0:0:
64,192,110978,1,0,0:0:0:0:
448,192,111065,1,0,0:0:0:0:
320,192,111152,1,0,0:0:0:0:
192,192,111152,1,0,0:0:0:0:
64,192,111240,1,0,0:0:0:0:
448,192,111327,1,0,0:0:0:0:
320,192,111414,1,0,0:0:0:0:
192,192,111501,1,0,0:0:0:0:
64,192,111501,1,0,0:0:0:0:
320,192,111589,1,0,0:0:0:0:
448,192,111676,1,0,0:0:0:0:
64,192,111763,1,0,0:0:0:0:
192,192,111850,1,0,0:0:0:0:
320,192,111850,1,0,0:0:0:0:
448,192,111937,1,0,0:0:0:0:
320,192,112025,1,0,0:0:0:0:
192,192,112112,1,0,0:0:0:0:
320,192,112199,1,0,0:0:0:0:
448,192,112199,1,0,0:0:0:0:
64,192,112286,1,0,0:0:0:0:
192,192,112373,1,0,0:0:0:0:
320,192,112461,1,0,0:0:0:0:
64,192,112548,1,0,0:0:0:0:
192,192,112548,1,0,0:0:0:0:
448,192,112635,1,0,0:0:0:0:
320,192,112722,1,0,0:0:0:0:
192,192,112809,1,0,0:0:0:0:
320,192,112897,1,0,0:0:0:0:
448,192,112897,1,0,0:0:0:0:
192,192,112984,1,0,0:0:0:0:
64,192,113071,1,0,0:0:0:0:
448,192,113158,1,0,0:0:0:0:
320,192,113245,1,0,0:0:0:0:
192,192,113245,1,0,0:0:0:0:
64,192,113333,1,0,0:0:0:0:
320,192,113420,1,0,0:0:0:0:
448,192,113507,1,0,0:0:0:0:
64,192,113594,1,0,0:0:0:0:
192,192,113594,1,0,0:0:0:0:
320,192,113682,1,0,0:0:0:0:
448,192,113769,1,0,0:0:0:0:
192,192,113856,1,0,0:0:0:0:
64,192,113856,1,0,0:0:0:0:
320,192,113943,1,0,0:0:0:0:
448,192,113943,1,0,0:0:0:0:
192,192,114030,1,0,0:0:0:0:
64,192,114030,1,0,0:0:0:0:
320,192,114118,1,0,0:0:0:0:
448,192,114118,1,0,0:0:0:0:
64,192,114205,1,0,0:0:0:0:
192,192,114205,1,0,0:0:0:0:
320,192,114292,1,0,0:0:0:0:
448,192,114292,1,0,0:0:0:0:
64,192,115687,1,0,0:0:0:0:
192,192,115687,1,0,0:0:0:0:
320,192,115687,1,0,0:0:0:0:
448,192,115775,1,0,0:0:0:0:
320,192,115862,1,0,0:0:0:0:
192,192,115949,1,0,0:0:0:0:
64,192,116036,1,0,0:0:0:0:
448,192,116123,1,0,0:0:0:0:
320,192,116211,1,0,0:0:0:0:
192,192,116298,1,0,0:0:0:0:
64,192,116385,1,0,0:0:0:0:
448,192,116472,1,0,0:0:0:0:
320,192,116559,1,0,0:0:0:0:
192,192,116647,1,0,0:0:0:0:
64,192,116734,1,0,0:0:0:0:
448,192,116821,1,0,0:0:0:0:
320,192,116908,1,0,0:0:0:0:
192,192,116995,1,0,0:0:0:0:
320,192,117083,1,0,0:0:0:0:
448,192,117083,1,0,0:0:0:0:
64,192,117083,1,0,0:0:0:0:
192,192,117170,1,0,0:0:0:0:
320,192,117257,1,0,0:0:0:0:
448,192,117344,1,0,0:0:0:0:
64,192,117432,1,0,0:0:0:0:
192,192,117519,1,0,0:0:0:0:
320,192,117606,1,0,0:0:0:0:
448,192,117693,1,0,0:0:0:0:
64,192,117780,1,0,0:0:0:0:
192,192,117780,1,0,0:0:0:0:
320,192,117868,1,0,0:0:0:0:
448,192,117955,1,0,0:0:0:0:
64,192,118042,1,0,0:0:0:0:
192,192,118129,1,0,0:0:0:0:
320,192,118216,1,0,0:0:0:0:
448,192,118304,1,0,0:0:0:0:
64,192,118391,1,0,0:0:0:0:
192,192,118478,1,0,0:0:0:0:
320,192,118478,1,0,0:0:0:0:
448,192,118565,1,0,0:0:0:0:
320,192,118594,1,0,0:0:0:0:
192,192,118652,1,0,0:0:0:0:
64,192,118711,1,0,0:0:0:0:
448,192,118769,1,0,0:0:0:0:
320,192,118827,1,0,0:0:0:0:
64,192,118885,1,0,0:0:0:0:
192,192,118943,1,0,0:0:0:0:
448,192,119001,1,0,0:0:0:0:
320,192,119059,1,0,0:0:0:0:
192,192,119118,1,0,0:0:0:0:
64,192,119176,1,0,0:0:0:0:
320,192,119234,1,0,0:0:0:0:
448,192,119292,1,0,0:0:0:0:
192,192,119350,1,0,0:0:0:0:
64,192,119408,1,0,0:0:0:0:
192,192,119466,1,0,0:0:0:0:
320,192,119525,1,0,0:0:0:0:
448,192,119583,1,0,0:0:0:0:
192,192,119641,1,0,0:0:0:0:
320,192,119699,1,0,0:0:0:0:
192,192,119757,1,0,0:0:0:0:
64,192,119815,1,0,0:0:0:0:
