osu file format v14

[General]
AudioFilename: audio.mp3
AudioLeadIn: 0
PreviewTime: 115322
Countdown: 0
SampleSet: Soft
StackLeniency: 0.7
Mode: 0
LetterboxInBreaks: 0
WidescreenStoryboard: 0

[Editor]
Bookmarks: 11028,59734
DistanceSpacing: 0.7
BeatDivisor: 4
GridSize: 4
TimelineZoom: 1

[Metadata]
Title:7-seven-
TitleUnicode:7-seven-
Artist:
ArtistUnicode:FLOW×GRANRODEO
Creator:Ameyy
Version:Extra
Source:
Tags:
BeatmapID:2008172
BeatmapSetID:959184

[Difficulty]
HPDrainRate:7
CircleSize:4
OverallDifficulty:7
ApproachRate:9.3
SliderMultiplier:1.9
SliderTickRate:1

[Events]
//Background and Video events
0,0,"thumb-1920-933779.jpg",0,0
//Break Periods
//Storyboard Layer 0 (Background)
//Storyboard Layer 1 (Fail)
//Storyboard Layer 2 (Pass)
//Storyboard Layer 3 (Foreground)
//Storyboard Sound Samples

[TimingPoints]
440,352.941176470588,4,2,0,80,1,0
3263,-125,4,2,0,80,0,0
11381,-83.3333333333333,4,2,0,80,0,0
11645,-100,4,2,0,80,0,0
23028,-125,4,2,0,80,0,0
28675,-100,4,2,0,80,0,0
31498,-125,4,2,0,80,0,0
37145,-100,4,2,0,80,0,0
39969,-111.111111111111,4,2,0,80,0,0
42792,-100,4,2,0,80,0,0
59734,-83.3333333333333,4,2,0,80,0,1
69616,-142.857142857143,4,2,0,80,0,1

[HitObjects]
62,144,440,6,0,P|99:108|158:99,1,95
148,192,792,2,0,P|196:192|257:219,1,95
177,282,1145,1,0,0:0:0:0:
71,248,1322,1,0,0:0:0:0:
176,367,1498,2,0,P|230:348|259:300,1,95
425,207,1851,6,0,L|404:309,1,95
330,144,2204,2,0,L|330:253,1,95
239,207,2557,1,0,0:0:0:0:
246,101,2734,1,0,0:0:0:0:
400,93,2910,2,0,L|494:96,1,95
233,112,3263,6,0,B|183:112|183:112|138:126|138:126|63:125,1,152
41,212,3792,2,0,P|8:188|-8:133,1,76
153,232,4145,1,0,0:0:0:0:
142,260,4234,1,0,0:0:0:0:
121,282,4322,1,0,0:0:0:0:
8,295,4498,1,0,0:0:0:0:
193,346,4675,6,0,L|285:354,1,76
142,260,5028,2,0,L|239:253,1,76
260,160,5381,1,0,0:0:0:0:
340,229,5557,1,0,0:0:0:0:
340,229,5645,1,0,0:0:0:0:
340,229,5734,1,0,0:0:0:0:
352,103,5910,1,0,0:0:0:0:
465,241,6087,6,0,P|469:302|455:350,1,76
340,229,6439,2,0,P|378:184|411:166,1,76
371,326,6792,2,0,L|287:333,1,76
295,332,7057,1,0,0:0:0:0:
295,332,7145,1,0,0:0:0:0:
238,227,7322,1,0,0:0:0:0:
116,323,7498,6,0,B|81:302|81:302|16:294,1,76
30,197,7851,2,0,P|82:199|121:226,1,76
238,227,8204,2,0,B|236:187|236:187|224:145,1,76
219,143,8469,1,0,0:0:0:0:
211,134,8557,1,0,0:0:0:0:
102,209,8734,1,0,0:0:0:0:
156,73,8910,6,0,P|201:52|249:62,1,76
368,145,9263,2,0,P|313:127|288:126,1,76
377,259,9616,2,0,P|423:265|468:257,1,76
462,256,9881,1,0,0:0:0:0:
471,249,9969,1,0,0:0:0:0:
368,145,10145,1,0,0:0:0:0:
271,282,10322,5,0,0:0:0:0:
238,301,10410,1,0,0:0:0:0:
201,306,10498,1,0,0:0:0:0:
165,295,10586,1,0,0:0:0:0:
137,270,10674,1,0,0:0:0:0:
120,239,10763,1,0,0:0:0:0:
118,193,10851,1,0,0:0:0:0:
100,150,10939,1,0,0:0:0:0:
54,114,11028,1,0,0:0:0:0:
54,114,11381,6,0,P|67:180|136:113,1,170.999994781494
158,124,11734,5,0,0:0:0:0:
371,123,11910,1,0,0:0:0:0:
371,123,11998,1,0,0:0:0:0:
371,123,12087,1,0,0:0:0:0:
247,285,12263,1,0,0:0:0:0:
263,146,12439,1,0,0:0:0:0:
388,271,12616,1,0,0:0:0:0:
208,358,12792,2,0,P|166:303|166:271,1,95
326,204,13145,5,0,0:0:0:0:
332,351,13322,1,0,0:0:0:0:
332,351,13410,1,0,0:0:0:0:
332,351,13498,1,0,0:0:0:0:
164,279,13675,1,0,0:0:0:0:
225,124,13851,1,0,0:0:0:0:
276,279,14028,1,0,0:0:0:0:
386,142,14204,1,0,0:0:0:0:
421,329,14381,1,0,0:0:0:0:
266,282,14557,6,0,L|154:277,1,95
171,277,14822,1,0,0:0:0:0:
171,277,14910,1,0,0:0:0:0:
98,130,15087,1,0,0:0:0:0:
49,311,15263,1,0,0:0:0:0:
226,167,15439,1,0,0:0:0:0:
219,360,15616,1,0,0:0:0:0:
350,250,15792,1,0,0:0:0:0:
226,167,15969,6,0,P|153:167|94:157,1,95
117,162,16234,1,0,0:0:0:0:
103,156,16322,1,0,0:0:0:0:
263,30,16498,1,0,0:0:0:0:
331,193,16675,1,0,0:0:0:0:
177,85,16851,1,0,0:0:0:0:
221,258,17028,1,0,0:0:0:0:
361,97,17204,1,0,0:0:0:0:
436,323,17381,6,0,L|339:328,1,95
327,324,17645,1,0,0:0:0:0:
313,319,17734,1,0,0:0:0:0:
242,156,17910,1,0,0:0:0:0:
160,317,18087,1,0,0:0:0:0:
331,193,18263,1,0,0:0:0:0:
140,201,18439,1,0,0:0:0:0:
248,376,18616,1,0,0:0:0:0:
240,149,18792,6,0,P|180:98|123:92,1,95
151,93,19057,1,0,0:0:0:0:
136,93,19145,1,0,0:0:0:0:
50,229,19322,1,0,0:0:0:0:
240,149,19498,1,0,0:0:0:0:
160,317,19675,1,0,0:0:0:0:
136,93,19851,1,0,0:0:0:0:
290,230,20028,1,0,0:0:0:0:
84,291,20204,6,0,P|96:366|146:395,1,95
121,376,20469,1,0,0:0:0:0:
135,375,20557,1,0,0:0:0:0:
273,327,20734,1,0,0:0:0:0:
163,219,20910,1,0,0:0:0:0:
400,283,21087,1,0,0:0:0:0:
284,161,21263,1,0,0:0:0:0:
359,369,21439,1,0,0:0:0:0:
379,154,21616,6,0,L|381:55,1,95
380,59,21881,1,0,0:0:0:0:
380,59,21969,1,0,0:0:0:0:
196,84,22145,1,0,0:0:0:0:
290,263,22322,1,0,0:0:0:0:
292,144,22498,1,0,0:0:0:0:
255,155,22587,1,0,0:0:0:0:
219,167,22675,1,0,0:0:0:0:
182,178,22763,1,0,0:0:0:0:
145,188,22851,1,0,0:0:0:0:
108,198,22939,1,0,0:0:0:0:
78,205,23028,6,0,P|64:273|86:356,1,152
301,291,23734,1,0,0:0:0:0:
382,348,23910,1,0,0:0:0:0:
390,247,24087,2,0,P|350:204|300:200,1,76
235,223,24439,1,0,0:0:0:0:
236,336,24616,1,0,0:0:0:0:
391,348,24792,6,0,L|487:348,1,76
230,323,25145,2,0,P|166:309|123:318,1,76
83,363,25498,1,0,0:0:0:0:
183,219,25851,5,0,0:0:0:0:
183,219,26028,2,0,L|277:222,1,76
308,133,26381,1,0,0:0:0:0:
372,241,26557,1,0,0:0:0:0:
299,124,26734,2,0,P|230:108|204:109,1,76
125,135,27087,1,0,0:0:0:0:
343,39,27263,5,0,0:0:0:0:
170,314,27439,1,0,0:0:0:0:
372,241,27616,1,0,0:0:0:0:
225,107,27792,1,0,0:0:0:0:
300,354,27969,1,0,0:0:0:0:
396,131,28145,1,0,0:0:0:0:
396,131,28234,1,0,0:0:0:0:
396,131,28322,1,0,0:0:0:0:
466,327,28498,1,0,0:0:0:0:
165,308,28675,6,0,P|149:258|149:202,1,95
147,215,28939,1,0,0:0:0:0:
147,215,29028,1,0,0:0:0:0:
330,213,29204,1,0,0:0:0:0:
186,382,29381,2,0,P|122:372|99:346,1,95
336,215,29734,2,0,P|386:246|411:289,1,95
307,366,30087,5,0,0:0:0:0:
256,192,30263,1,0,0:0:0:0:
274,158,30351,1,0,0:0:0:0:
306,138,30439,1,0,0:0:0:0:
470,172,30616,1,0,0:0:0:0:
247,276,30792,2,0,P|189:246|173:202,1,95
296,48,31145,5,0,0:0:0:0:
341,37,31233,1,0,0:0:0:0:
388,46,31321,1,0,0:0:0:0:
426,74,31409,1,0,0:0:0:0:
448,111,31498,6,0,L|447:193,1,76
387,256,31851,1,0,0:0:0:0:
136,206,32204,1,0,0:0:0:0:
90,126,32381,1,0,0:0:0:0:
180,129,32557,2,0,L|224:123,2,38
149,303,32910,5,0,0:0:0:0:
223,355,33087,2,0,L|331:357,1,76
370,300,33439,2,0,P|390:352|382:392,1,76
289,277,33792,1,0,0:0:0:0:
351,212,33969,1,0,0:0:0:0:
58,328,34322,5,0,0:0:0:0:
53,223,34498,1,0,0:0:0:0:
153,261,34675,1,0,0:0:0:0:
70,142,34851,2,0,P|20:144|-11:168,1,76
181,173,35204,1,0,0:0:0:0:
181,173,35292,1,0,0:0:0:0:
181,173,35381,2,0,P|197:106|196:83,1,76
106,39,35734,5,0,0:0:0:0:
240,251,35910,1,0,0:0:0:0:
273,51,36087,1,0,0:0:0:0:
114,294,36263,1,0,0:0:0:0:
387,323,36439,5,0,0:0:0:0:
432,318,36528,1,0,0:0:0:0:
476,306,36616,1,0,0:0:0:0:
309,150,36792,1,0,0:0:0:0:
265,164,36881,1,0,0:0:0:0:
225,186,36969,1,0,0:0:0:0:
202,333,37145,6,0,L|305:335,1,95
296,334,37410,1,0,0:0:0:0:
296,334,37498,1,0,0:0:0:0:
225,186,37675,1,0,0:0:0:0:
93,315,37851,1,0,0:0:0:0:
133,141,38028,1,0,0:0:0:0:
304,248,38204,1,0,0:0:0:0:
206,290,38381,1,0,0:0:0:0:
285,117,38557,5,0,0:0:0:0:
311,255,38734,1,0,0:0:0:0:
311,255,38822,1,0,0:0:0:0:
311,255,38910,1,0,0:0:0:0:
203,99,39087,1,0,0:0:0:0:
434,124,39263,5,0,0:0:0:0:
154,222,39439,1,0,0:0:0:0:
433,353,39616,1,0,0:0:0:0:
285,117,39792,1,0,0:0:0:0:
116,328,39969,2,0,L|23:341,1,85.4999973907472
267,230,40322,2,0,L|365:242,1,85.4999973907472
108,120,40675,2,0,L|6:135,2,85.4999973907472
197,62,41204,5,0,0:0:0:0:
176,191,41381,1,0,0:0:0:0:
315,136,41557,1,0,0:0:0:0:
195,72,41734,1,0,0:0:0:0:
161,213,41910,1,0,0:0:0:0:
318,232,42087,1,0,0:0:0:0:
192,82,42263,1,0,0:0:0:0:
216,322,42439,1,0,0:0:0:0:
216,322,42792,6,0,P|162:340|33:313,1,190
161,213,43322,1,0,0:0:0:0:
300,279,43498,2,0,P|346:343|350:379,1,95
216,322,43851,1,0,0:0:0:0:
321,186,44028,2,0,P|388:188|440:205,1,95
205,142,44381,2,0,P|130:106|103:78,1,95
292,92,44734,5,0,0:0:0:0:
239,238,44910,1,0,0:0:0:0:
308,87,45087,2,0,L|416:87,1,95
476,170,45439,1,0,0:0:0:0:
239,238,45616,6,0,P|177:261|131:248,1,95
205,142,45969,2,0,P|211:82|239:38,1,95
318,184,46322,2,0,B|353:217|353:217|373:273,2,95
205,142,46851,1,0,0:0:0:0:
321,329,47028,2,0,B|368:343|368:343|448:330,1,95
480,256,47381,1,0,0:0:0:0:
237,237,47557,2,0,P|173:231|129:207,1,95
105,95,47910,2,0,L|98:49,2,47.5
413,333,48439,6,0,P|396:276|300:162,1,190
237,237,48969,1,0,0:0:0:0:
184,323,49145,2,0,P|128:344|91:337,1,95
163,199,49498,2,0,P|194:165|257:155,1,95
331,261,49851,5,0,0:0:0:0:
311,82,50028,2,0,L|215:54,1,95
411,175,50381,2,0,L|511:169,1,95
459,78,50734,1,0,0:0:0:0:
328,273,50910,6,0,P|313:338|321:376,1,95
416,323,51263,2,0,L|516:326,1,95
243,254,51616,2,0,L|146:249,1,95
111,340,51969,1,0,0:0:0:0:
88,173,52145,2,0,P|93:106|109:61,1,95
240,164,52498,5,0,0:0:0:0:
240,164,52587,1,0,0:0:0:0:
240,164,52675,2,0,P|333:170|331:48,1,237.5
287,47,53204,2,0,P|228:59|184:57,1,95
46,46,53557,5,0,0:0:0:0:
35,92,53645,1,0,0:0:0:0:
30,139,53733,1,0,0:0:0:0:
32,186,53821,1,0,0:0:0:0:
40,233,53909,1,0,0:0:0:0:
53,279,53998,1,0,0:0:0:0:
120,326,54087,6,0,P|196:331|259:328,1,95
291,269,54439,1,0,0:0:0:0:
291,269,54616,1,0,0:0:0:0:
453,184,54792,2,0,L|464:65,1,95
366,62,55145,1,0,0:0:0:0:
366,62,55322,1,0,0:0:0:0:
219,108,55498,6,0,P|199:161|198:216,1,95
292,226,55851,1,0,0:0:0:0:
292,226,56028,1,0,0:0:0:0:
116,117,56204,2,0,L|91:233,1,95
168,290,56557,1,0,0:0:0:0:
168,290,56734,1,0,0:0:0:0:
330,348,56910,5,0,0:0:0:0:
330,348,57263,1,0,0:0:0:0:
404,131,57439,1,0,0:0:0:0:
456,292,57616,1,0,0:0:0:0:
254,144,57792,1,0,0:0:0:0:
254,144,57881,1,0,0:0:0:0:
254,144,57969,2,0,L|195:134,1,47.5
306,249,58145,2,0,L|375:243,1,47.5
172,269,58322,5,0,0:0:0:0:
54,181,58675,5,0,0:0:0:0:
207,137,59028,1,0,0:0:0:0:
229,95,59116,1,0,0:0:0:0:
269,70,59204,1,0,0:0:0:0:
315,65,59292,1,0,0:0:0:0:
359,84,59380,1,0,0:0:0:0:
371,129,59469,1,0,0:0:0:0:
365,185,59557,1,0,0:0:0:0:
371,237,59645,1,0,0:0:0:0:
386,286,59734,6,0,L|506:281,1,113.999996520996
266,217,60087,2,0,P|244:286|261:348,1,113.999996520996
365,185,60439,1,0,0:0:0:0:
218,97,60616,1,0,0:0:0:0:
159,224,60792,1,0,0:0:0:0:
292,65,60969,2,0,P|237:22|172:34,1,113.999996520996
96,108,61322,1,0,0:0:0:0:
372,186,61498,2,0,L|513:183,1,113.999996520996
292,65,61851,5,0,0:0:0:0:
275,280,62028,1,0,0:0:0:0:
450,99,62204,1,0,0:0:0:0:
449,299,62381,1,0,0:0:0:0:
257,167,62557,6,0,B|198:157|198:157|134:172,1,113.999996520996
326,349,62910,2,0,B|385:359|385:359|449:344,1,113.999996520996
257,167,63263,1,0,0:0:0:0:
143,330,63439,1,0,0:0:0:0:
52,158,63616,1,0,0:0:0:0:
331,123,63792,6,0,P|339:188|299:243,1,113.999996520996
145,67,64145,1,0,0:0:0:0:
359,41,64322,2,0,L|495:49,1,113.999996520996
421,220,64675,1,0,0:0:0:0:
236,83,64851,1,0,0:0:0:0:
282,318,65028,1,0,0:0:0:0:
331,123,65204,1,0,0:0:0:0:
154,216,65381,6,0,L|23:225,1,113.999996520996
289,321,65734,2,0,L|440:329,1,113.999996520996
261,200,66087,1,0,0:0:0:0:
184,333,66263,1,0,0:0:0:0:
289,321,66439,1,0,0:0:0:0:
154,216,66616,6,0,B|143:158|143:158|157:74,1,113.999996520996
367,273,66969,2,0,P|380:333|359:384,1,113.999996520996
263,200,67322,2,0,P|312:159|394:147,1,113.999996520996
456,214,67675,1,0,0:0:0:0:
439,106,67851,1,0,0:0:0:0:
278,63,68028,6,0,B|227:58|227:58|196:73|196:73|129:63,1,113.999996520996
366,27,68381,1,0,0:0:0:0:
240,151,68557,1,0,0:0:0:0:
439,106,68734,1,0,0:0:0:0:
278,63,68910,1,0,0:0:0:0:
341,204,69087,5,0,0:0:0:0:
323,239,69175,1,0,0:0:0:0:
290,261,69263,1,0,0:0:0:0:
252,273,69351,1,0,0:0:0:0:
212,275,69439,1,0,0:0:0:0:
173,262,69528,1,0,0:0:0:0:
148,245,69616,6,0,B|70:224|106:105|222:86|310:218|123:231|91:179|115:98|115:98|75:118|42:92,1,398.999987823487
