osu file format v14

[General]
AudioFilename: audio.mp3
AudioLeadIn: 0
PreviewTime: 75785
Countdown: 0
SampleSet: Soft
StackLeniency: 0.2
Mode: 0
LetterboxInBreaks: 0
WidescreenStoryboard: 1

[Editor]
Bookmarks: 1500,12928,24357,35785,58642,75785,81499,93285,94357,105785,117214,129357,140785,152214,163642,175071,193642,195071,205071,216499,227928,239357,250785,262214,267214
DistanceSpacing: 0.4
BeatDivisor: 4
GridSize: 4
TimelineZoom: 2.2

[Metadata]
Title:U.N owen was Youkai Girl ?
TitleUnicode:U.N owen was Youkai Girl ?
Artist:
ArtistUnicode:激戦の人
Creator:-[ Chiya ]-
Version:TAG4 KlasKyuu Collab
Source:東方
Tags:tohou un owen was her hartmann's youkai girl flandre scarlet koishi komeji
BeatmapID:1329762
BeatmapSetID:625439

[Difficulty]
HPDrainRate:0.1
CircleSize:5
OverallDifficulty:8
ApproachRate:8
SliderMultiplier:2.25
SliderTickRate:1

[Events]
//Background and Video events
0,0,"flankoishi.jpg",0,0
//Break Periods
2,131142,137178
//Storyboard Layer 0 (Background)
//Storyboard Layer 1 (Fail)
//Storyboard Layer 2 (Pass)
//Storyboard Layer 3 (Foreground)
//Storyboard Sound Samples

[TimingPoints]
1500,357.142857142857,4,2,0,80,1,0
1500,-125,4,2,1,70,0,0
12928,-100,4,1,1,70,0,0
24357,-83.3333333333333,4,3,1,90,0,1
35785,-111.111111111111,4,1,2,60,0,0
58642,-105.263157894737,4,1,1,65,0,0
75785,-105.263157894737,4,1,1,65,0,0
81499,-83.3333333333333,4,3,1,90,0,1
92928,-111.111111111111,4,3,1,60,0,0
93285,-133.333333333333,4,3,1,50,0,0
94267,-133.333333333333,4,3,1,5,0,0
94357,-111.111111111111,4,2,2,60,0,0
105785,-105.263157894737,4,2,2,65,0,0
117214,-100,4,2,3,70,0,0
129357,-125,4,2,1,60,0,0
140785,-90.9090909090909,4,2,1,90,0,1
151857,-90.9090909090909,4,2,1,90,0,0
152214,-76.9230769230769,4,2,4,90,0,1
154178,-76.9230769230769,4,2,4,90,0,1
163285,-76.9230769230769,4,2,4,90,0,0
163642,-74.0740740740741,4,2,5,90,0,1
175071,-111.111111111111,4,1,3,60,0,0
191499,-71.4285714285714,4,1,3,60,0,0
193642,-142.857142857143,4,1,1,70,0,0
195071,-71.4285714285714,4,1,1,80,0,1
204714,-71.4285714285714,4,1,1,80,0,0
205071,-68.9655172413793,4,1,1,85,0,1
216142,-68.9655172413793,4,1,1,85,0,0
216499,-66.6666666666667,4,2,1,90,0,1
227571,-66.6666666666667,4,2,1,90,0,0
227928,-90.9090909090909,4,2,1,95,0,1
239357,-83.3333333333333,4,3,1,80,0,0
250785,-83.3333333333333,4,3,1,90,0,1
262214,-113.636363636364,4,2,0,10,0,0
267214,-200,4,2,0,10,0,0

[HitObjects]
36,348,1500,5,0,0:0:0:0:
44,260,1678,1,0,0:0:0:0:
112,320,1857,1,0,0:0:0:0:
464,46,2035,5,0,0:0:0:0:
456,134,2213,1,0,0:0:0:0:
388,74,2392,1,0,0:0:0:0:
248,184,2571,5,0,0:0:0:0:
252,188,2749,1,0,0:0:0:0:
252,188,2839,1,0,0:0:0:0:
252,188,2928,1,0,0:0:0:0:
32,36,3107,5,0,0:0:0:0:
480,356,3285,5,0,0:0:0:0:
32,36,3464,5,0,0:0:0:0:
480,356,3642,5,0,0:0:0:0:
256,356,3821,6,0,L|256:260,1,90
252,32,4178,1,0,0:0:0:0:
252,32,4357,1,0,0:0:0:0:
32,360,4535,5,0,0:0:0:0:
484,32,4714,5,0,0:0:0:0:
32,360,4892,5,0,0:0:0:0:
484,32,5071,5,0,0:0:0:0:
243,179,5249,5,0,0:0:0:0:
64,51,5428,5,0,0:0:0:0:
409,332,5607,5,0,0:0:0:0:
243,179,5785,5,0,0:0:0:0:
90,345,5964,5,0,0:0:0:0:
409,38,6142,5,0,0:0:0:0:
243,179,6321,5,0,0:0:0:0:
243,179,6499,1,0,0:0:0:0:
243,179,6678,1,0,0:0:0:0:
36,356,6857,5,0,0:0:0:0:
36,132,7035,2,0,L|36:228,1,90
460,352,7392,5,0,0:0:0:0:
460,128,7570,2,0,L|460:224,1,90
124,352,7928,5,0,0:0:0:0:
124,128,8106,2,0,L|124:224,1,90
380,352,8464,5,0,0:0:0:0:
380,128,8642,2,0,L|380:224,1,90
80,352,8999,5,0,0:0:0:0:
44,256,9178,1,0,0:0:0:0:
12,352,9357,1,0,0:0:0:0:
468,48,9535,5,0,0:0:0:0:
368,84,9714,1,0,0:0:0:0:
472,116,9892,1,0,0:0:0:0:
248,192,10071,5,0,0:0:0:0:
316,192,10249,5,0,0:0:0:0:
180,192,10428,5,0,0:0:0:0:
384,192,10607,5,0,0:0:0:0:
116,192,10785,5,0,0:0:0:0:
448,192,10964,5,0,0:0:0:0:
52,192,11142,1,0,0:0:0:0:
248,28,11321,5,0,0:0:0:0:
252,356,11499,5,0,0:0:0:0:
252,188,11678,5,0,0:0:0:0:
252,188,11857,1,0,0:0:0:0:
252,188,12035,5,0,0:0:0:0:
252,188,12214,1,0,0:0:0:0:
32,32,12392,5,0,0:0:0:0:
32,32,12482,1,0,0:0:0:0:
32,32,12571,1,0,0:0:0:0:
480,360,12749,5,0,0:0:0:0:
480,360,12839,1,0,0:0:0:0:
480,360,12928,1,0,0:0:0:0:
252,188,13107,5,0,0:0:0:0:
48,72,13285,6,0,P|104:92|160:64,1,112.5
464,72,13642,6,0,P|408:92|352:64,1,112.5
464,312,13999,6,0,P|408:292|352:320,1,112.5
48,312,14356,6,0,P|104:292|160:320,1,112.5
84,40,14714,5,0,0:0:0:0:
428,40,14892,5,0,0:0:0:0:
428,344,15071,5,0,0:0:0:0:
84,344,15249,5,0,0:0:0:0:
256,200,15428,6,0,L|256:80,1,112.5
100,256,15785,6,0,P|144:296|200:288,2,112.5
412,256,16321,6,0,P|368:296|312:288,1,112.5
256,60,16678,5,0,0:0:0:0:
256,192,16767,5,0,0:0:0:0:
256,324,16857,5,0,0:0:0:0:
40,192,17035,5,0,0:0:0:0:
472,192,17214,5,0,0:0:0:0:
256,24,17392,5,0,0:0:0:0:
256,360,17571,5,0,0:0:0:0:
88,80,17749,6,0,P|136:108|136:176,1,112.5
52,248,18107,2,0,P|104:276|168:260,2,112.5
460,40,18642,6,0,L|460:160,1,112.5
52,344,18999,6,0,L|52:224,1,112.5
380,120,19357,6,0,L|380:240,1,112.5
132,264,19714,6,0,L|132:144,1,112.5
344,336,20071,6,0,P|400:352|460:332,1,112.5
396,256,20428,2,0,L|396:132,2,112.5
396,256,20964,1,0,0:0:0:0:
344,48,21142,2,0,P|400:32|460:52,1,112.5
52,192,21499,5,0,0:0:0:0:
124,104,21678,1,0,0:0:0:0:
196,192,21857,1,0,0:0:0:0:
124,280,22035,1,0,0:0:0:0:
124,192,22214,1,0,0:0:0:0:
256,44,22392,5,0,0:0:0:0:
408,192,22482,5,0,0:0:0:0:
256,340,22571,5,0,0:0:0:0:
256,48,22749,5,0,0:0:0:0:
72,208,22928,5,0,0:0:0:0:
92,240,23017,1,0,0:0:0:0:
128,260,23107,1,0,0:0:0:0:
168,252,23196,1,0,0:0:0:0:
272,376,23285,5,0,0:0:0:0:
304,356,23374,1,0,0:0:0:0:
324,320,23464,1,0,0:0:0:0:
316,280,23553,1,0,0:0:0:0:
440,176,23642,5,0,0:0:0:0:
420,144,23731,1,0,0:0:0:0:
384,124,23821,1,0,0:0:0:0:
344,132,23910,1,0,0:0:0:0:
240,8,23999,5,0,0:0:0:0:
208,28,24088,1,0,0:0:0:0:
188,64,24178,1,0,0:0:0:0:
196,104,24267,1,0,0:0:0:0:
32,356,24357,5,0,0:0:0:0:
484,28,24535,5,0,0:0:0:0:
484,28,24624,1,0,0:0:0:0:
484,28,24714,2,0,L|484:164,1,134.999995880127
32,32,25071,5,0,0:0:0:0:
484,356,25249,5,0,0:0:0:0:
484,356,25338,1,0,0:0:0:0:
484,356,25428,2,0,L|484:220,1,134.999995880127
484,180,25696,5,0,0:0:0:0:
484,140,25785,2,0,L|336:140,1,134.999995880127
488,352,26142,5,0,0:0:0:0:
488,352,26232,1,0,0:0:0:0:
488,352,26321,1,0,0:0:0:0:
244,24,26499,5,0,0:0:0:0:
32,360,26678,5,0,0:0:0:0:
32,360,26767,1,0,0:0:0:0:
32,360,26857,2,0,L|32:208,1,134.999995880127
32,184,27124,5,0,0:0:0:0:
32,144,27214,2,0,L|176:144,1,134.999995880127
32,360,27571,5,0,0:0:0:0:
32,360,27660,1,0,0:0:0:0:
32,360,27749,1,0,0:0:0:0:
252,16,27928,5,0,0:0:0:0:
252,16,28107,1,0,0:0:0:0:
92,28,28285,6,0,L|8:28,1,67.4999979400635
416,352,28464,6,0,L|500:352,1,67.4999979400635
92,92,28642,6,0,L|8:92,1,67.4999979400635
412,288,28821,6,0,L|496:288,1,67.4999979400635
92,304,28999,6,0,L|8:304,1,67.4999979400635
412,92,29178,6,0,L|496:92,1,67.4999979400635
92,364,29357,6,0,L|8:364,1,67.4999979400635
408,28,29536,6,0,L|492:28,1,67.4999979400635
24,304,29714,6,0,L|24:384,1,67.4999979400635
476,96,29892,2,0,L|476:20,1,67.4999979400635
484,364,30071,5,0,0:0:0:0:
424,364,30249,1,0,0:0:0:0:
424,364,30339,1,0,0:0:0:0:
424,364,30428,2,0,L|352:364,1,67.4999979400635
28,20,30785,5,0,0:0:0:0:
28,20,30874,1,0,0:0:0:0:
28,20,30964,1,0,0:0:0:0:
92,24,31142,2,0,L|164:24,1,67.4999979400635
480,28,31321,5,0,0:0:0:0:
480,28,31410,2,0,L|480:112,1,67.4999979400635
32,296,31678,5,0,0:0:0:0:
32,296,31767,1,0,0:0:0:0:
32,296,31857,2,0,L|32:368,1,67.4999979400635
468,284,32214,5,0,0:0:0:0:
480,292,32392,1,0,0:0:0:0:
480,292,32481,1,0,0:0:0:0:
480,292,32571,2,0,L|480:376,1,67.4999979400635
480,28,32749,5,0,0:0:0:0:
480,28,32839,2,0,L|480:104,1,67.4999979400635
252,24,33107,5,0,0:0:0:0:
252,24,33196,1,0,0:0:0:0:
252,24,33285,1,0,0:0:0:0:
252,24,33464,1,0,0:0:0:0:
256,368,33642,5,0,0:0:0:0:
256,368,33821,1,0,0:0:0:0:
256,368,33910,1,0,0:0:0:0:
256,368,33999,1,0,0:0:0:0:
256,168,34178,5,0,0:0:0:0:
256,168,34357,2,0,B|256:44|88:44|20:192|148:256|256:320|256:360|256:360|256:320|364:256|492:192|424:44|256:44|256:168,1,944.99997116089
112,52,35785,5,0,0:0:0:0:
400,52,35874,5,0,0:0:0:0:
400,332,35964,5,0,0:0:0:0:
112,332,36053,5,0,0:0:0:0:
126,66,36142,5,0,0:0:0:0:
385,66,36231,5,0,0:0:0:0:
385,317,36321,5,0,0:0:0:0:
126,317,36410,5,0,0:0:0:0:
152,91,36499,5,0,0:0:0:0:
359,91,36588,5,0,0:0:0:0:
359,292,36678,5,0,0:0:0:0:
152,292,36767,5,0,0:0:0:0:
183,121,36857,5,0,0:0:0:0:
328,121,36946,5,0,0:0:0:0:
328,262,37036,5,0,0:0:0:0:
183,262,37125,5,0,0:0:0:0:
96,140,37214,6,0,L|128:92,1,50.6249984550477
308,32,37392,6,0,L|356:64,1,50.6249984550477
416,244,37571,6,0,L|384:292,1,50.6249984550477
204,352,37749,6,0,L|156:320,1,50.6249984550477
128,116,37928,6,0,L|184:96,1,50.6249984550477
332,64,38107,6,0,L|352:120,1,50.6249984550477
384,268,38285,6,0,L|328:288,1,50.6249984550477
180,320,38464,6,0,L|160:264,1,50.6249984550477
245,202,38642,5,0,0:0:0:0:
266,202,38731,5,0,0:0:0:0:
266,181,38821,5,0,0:0:0:0:
245,181,38910,5,0,0:0:0:0:
234,213,38999,5,0,0:0:0:0:
277,213,39088,5,0,0:0:0:0:
277,170,39178,5,0,0:0:0:0:
234,170,39267,5,0,0:0:0:0:
212,234,39356,5,0,0:0:0:0:
299,234,39445,5,0,0:0:0:0:
299,149,39535,5,0,0:0:0:0:
212,149,39624,5,0,0:0:0:0:
192,256,39714,5,0,0:0:0:0:
320,256,39803,5,0,0:0:0:0:
320,128,39893,5,0,0:0:0:0:
192,128,39982,5,0,0:0:0:0:
56,56,40071,6,0,L|112:56,1,50.6249984550477
456,328,40249,6,0,L|400:328,1,50.6249984550477
76,56,40428,6,0,L|132:56,1,50.6249984550477
436,328,40607,6,0,L|380:328,1,50.6249984550477
96,56,40785,6,0,L|152:56,1,50.6249984550477
416,328,40964,6,0,L|360:328,1,50.6249984550477
116,56,41142,6,0,L|172:56,1,50.6249984550477
396,328,41321,6,0,L|340:328,1,50.6249984550477
256,152,41499,5,0,0:0:0:0:
256,116,41589,1,0,0:0:0:0:
256,80,41678,1,0,0:0:0:0:
256,44,41767,1,0,0:0:0:0:
216,192,41857,5,0,0:0:0:0:
180,192,41947,1,0,0:0:0:0:
144,192,42036,1,0,0:0:0:0:
108,192,42125,1,0,0:0:0:0:
256,232,42214,5,0,0:0:0:0:
256,268,42304,1,0,0:0:0:0:
256,304,42393,1,0,0:0:0:0:
256,340,42482,1,0,0:0:0:0:
296,192,42571,5,0,0:0:0:0:
332,192,42661,1,0,0:0:0:0:
368,192,42750,1,0,0:0:0:0:
404,192,42839,1,0,0:0:0:0:
76,100,42928,5,0,0:0:0:0:
76,136,43017,1,0,0:0:0:0:
76,168,43107,1,0,0:0:0:0:
76,200,43196,1,0,0:0:0:0:
436,284,43285,5,0,0:0:0:0:
436,248,43374,1,0,0:0:0:0:
436,216,43464,1,0,0:0:0:0:
436,184,43553,1,0,0:0:0:0:
76,284,43642,5,0,0:0:0:0:
76,248,43731,1,0,0:0:0:0:
76,216,43821,1,0,0:0:0:0:
76,184,43910,1,0,0:0:0:0:
436,100,43999,5,0,0:0:0:0:
436,136,44088,1,0,0:0:0:0:
436,168,44178,1,0,0:0:0:0:
436,200,44267,1,0,0:0:0:0:
104,344,44357,6,0,L|180:344,3,50.6249984550477
408,344,44714,6,0,L|408:268,3,50.6249984550477
408,40,45071,6,0,L|332:40,3,50.6249984550477
104,40,45428,6,0,L|104:116,3,50.6249984550477
128,252,45785,6,0,L|52:252,3,50.6249984550477
196,64,46142,6,0,L|196:-12,3,50.6249984550477
384,132,46499,6,0,L|460:132,3,50.6249984550477
316,320,46857,6,0,L|316:396,3,50.6249984550477
28,40,47214,5,0,0:0:0:0:
28,92,47303,1,0,0:0:0:0:
28,144,47392,1,0,0:0:0:0:
28,196,47482,1,0,0:0:0:0:
240,196,47571,5,0,0:0:0:0:
188,196,47660,1,0,0:0:0:0:
136,196,47749,1,0,0:0:0:0:
84,196,47839,1,0,0:0:0:0:
300,360,47928,5,0,0:0:0:0:
300,308,48017,1,0,0:0:0:0:
300,256,48106,1,0,0:0:0:0:
300,204,48196,1,0,0:0:0:0:
364,48,48285,5,0,0:0:0:0:
364,100,48374,1,0,0:0:0:0:
364,152,48463,1,0,0:0:0:0:
364,204,48553,1,0,0:0:0:0:
256,68,48642,6,0,L|256:152,1,50.6249984550477
168,164,48821,6,0,L|232:164,1,50.6249984550477
344,164,48999,6,0,L|280:164,1,50.6249984550477
256,260,49178,6,0,L|256:176,1,50.6249984550477
32,28,49357,6,0,L|76:60,1,50.6249984550477
32,356,49535,6,0,L|76:324,1,50.6249984550477
480,356,49714,6,0,L|436:324,1,50.6249984550477
480,28,49892,6,0,L|436:60,1,50.6249984550477
104,236,50071,5,0,0:0:0:0:
128,280,50160,1,0,0:0:0:0:
164,316,50249,1,0,0:0:0:0:
212,328,50338,1,0,0:0:0:0:
300,344,50428,5,0,0:0:0:0:
344,320,50517,1,0,0:0:0:0:
380,284,50606,1,0,0:0:0:0:
392,236,50695,1,0,0:0:0:0:
408,148,50785,5,0,0:0:0:0:
384,104,50874,1,0,0:0:0:0:
348,68,50963,1,0,0:0:0:0:
300,56,51052,1,0,0:0:0:0:
212,40,51142,5,0,0:0:0:0:
168,64,51231,1,0,0:0:0:0:
132,100,51320,1,0,0:0:0:0:
120,148,51409,1,0,0:0:0:0:
416,320,51499,6,0,P|390:317|368:305,3,50.6249984550477
96,64,51857,6,0,P|121:66|143:78,3,50.6249984550477
384,32,52214,6,0,P|381:57|369:79,3,50.6249984550477
128,352,52571,6,0,P|130:326|142:304,3,50.6249984550477
32,304,52928,5,0,0:0:0:0:
32,304,53017,1,0,0:0:0:0:
32,304,53107,1,0,0:0:0:0:
32,304,53196,1,0,0:0:0:0:
480,304,53285,5,0,0:0:0:0:
480,304,53374,1,0,0:0:0:0:
480,304,53464,1,0,0:0:0:0:
480,304,53553,1,0,0:0:0:0:
480,80,53642,5,0,0:0:0:0:
480,80,53731,1,0,0:0:0:0:
480,80,53821,1,0,0:0:0:0:
480,80,53910,1,0,0:0:0:0:
32,80,53999,5,0,0:0:0:0:
32,80,54088,1,0,0:0:0:0:
32,80,54178,1,0,0:0:0:0:
32,80,54267,1,0,0:0:0:0:
172,192,54357,6,0,L|116:192,3,50.6249984550477
256,276,54714,6,0,L|256:332,3,50.6249984550477
256,108,55071,6,0,L|256:52,3,50.6249984550477
340,192,55428,6,0,L|396:192,3,50.6249984550477
444,192,55785,5,0,0:0:0:0:
392,192,55874,1,0,0:0:0:0:
340,192,55964,1,0,0:0:0:0:
288,192,56053,1,0,0:0:0:0:
256,380,56142,5,0,0:0:0:0:
256,328,56231,1,0,0:0:0:0:
256,276,56321,1,0,0:0:0:0:
256,224,56410,1,0,0:0:0:0:
256,4,56499,5,0,0:0:0:0:
256,56,56588,1,0,0:0:0:0:
256,108,56678,1,0,0:0:0:0:
256,160,56767,1,0,0:0:0:0:
68,192,56857,5,0,0:0:0:0:
120,192,56946,1,0,0:0:0:0:
172,192,57036,1,0,0:0:0:0:
224,192,57125,1,0,0:0:0:0:
404,148,57214,6,0,L|424:84,3,50.6249984550477
108,236,57571,6,0,L|88:300,3,50.6249984550477
256,68,57928,6,0,B|200:160|312:160|256:264,1,202.499993820191
256,344,58374,5,0,0:0:0:0:
256,292,58464,1,0,0:0:0:0:
256,240,58553,1,0,0:0:0:0:
36,356,58642,5,0,0:0:0:0:
84,332,58732,1,0,0:0:0:0:
76,280,58821,1,0,0:0:0:0:
92,228,58910,1,0,0:0:0:0:
296,336,58999,5,0,0:0:0:0:
344,356,59089,1,0,0:0:0:0:
396,340,59178,1,0,0:0:0:0:
444,364,59267,1,0,0:0:0:0:
412,128,59357,5,0,0:0:0:0:
364,104,59446,1,0,0:0:0:0:
348,52,59535,1,0,0:0:0:0:
300,28,59624,1,0,0:0:0:0:
152,196,59714,5,0,0:0:0:0:
104,216,59803,1,0,0:0:0:0:
68,256,59892,1,0,0:0:0:0:
60,308,59982,1,0,0:0:0:0:
216,352,60071,5,0,0:0:0:0:
236,304,60160,1,0,0:0:0:0:
260,256,60249,1,0,0:0:0:0:
300,220,60339,1,0,0:0:0:0:
408,104,60428,5,0,0:0:0:0:
408,156,60517,1,0,0:0:0:0:
328,212,60607,5,0,0:0:0:0:
328,264,60696,1,0,0:0:0:0:
456,296,60785,5,0,0:0:0:0:
428,340,60874,1,0,0:0:0:0:
376,356,60964,1,0,0:0:0:0:
324,360,61053,1,0,0:0:0:0:
192,280,61142,5,0,0:0:0:0:
180,228,61232,1,0,0:0:0:0:
172,176,61321,1,0,0:0:0:0:
188,124,61410,1,0,0:0:0:0:
320,56,61499,6,0,L|424:52,1,53.4374985730648
68,264,61678,6,0,L|20:308,1,53.4374985730648
352,296,61857,6,0,L|408:328,1,53.4374985730648
132,92,62035,6,0,L|80:48,1,53.4374985730648
208,280,62214,6,0,L|180:352,1,53.4374985730648
244,112,62392,5,0,0:0:0:0:
212,68,62482,1,0,0:0:0:0:
256,36,62571,1,0,0:0:0:0:
288,80,62660,1,0,0:0:0:0:
376,36,62749,6,0,L|420:80,1,53.4374985730648
136,68,62928,6,0,L|100:120,1,53.4374985730648
416,216,63107,6,0,L|444:272,1,53.4374985730648
108,232,63285,6,0,L|76:280,1,53.4374985730648
340,304,63464,6,0,L|372:352,1,53.4374985730648
144,324,63642,6,0,L|116:372,1,53.4374985730648
244,184,63821,5,0,0:0:0:0:
244,184,63910,1,0,0:0:0:0:
252,192,63999,1,0,0:0:0:0:
252,192,64088,1,0,0:0:0:0:
252,192,64177,1,0,0:0:0:0:
32,360,64357,5,0,0:0:0:0:
488,24,64535,5,0,0:0:0:0:
96,360,64714,5,0,0:0:0:0:
424,24,64892,5,0,0:0:0:0:
164,356,65071,5,0,0:0:0:0:
360,28,65249,5,0,0:0:0:0:
232,360,65428,5,0,0:0:0:0:
292,32,65607,5,0,0:0:0:0:
480,360,65785,5,0,0:0:0:0:
24,24,65963,5,0,0:0:0:0:
416,360,66142,5,0,0:0:0:0:
88,24,66320,5,0,0:0:0:0:
348,356,66499,5,0,0:0:0:0:
152,28,66677,5,0,0:0:0:0:
280,360,66856,5,0,0:0:0:0:
220,32,67035,5,0,0:0:0:0:
152,192,67214,6,0,L|92:192,1,53.4374985730648
384,272,67392,6,0,L|384:208,1,53.4374985730648
152,176,67571,6,0,L|92:176,1,53.4374985730648
408,272,67749,6,0,L|408:208,1,53.4374985730648
152,156,67928,6,0,L|92:156,1,53.4374985730648
436,272,68107,6,0,L|436:208,1,53.4374985730648
152,136,68285,6,0,L|92:136,1,53.4374985730648
460,272,68463,6,0,L|460:208,1,53.4374985730648
256,192,68642,12,0,69892,0:0:0:0:
51,26,70071,5,0,0:0:0:0:
226,70,70160,5,0,0:0:0:0:
187,294,70249,5,0,0:0:0:0:
51,45,70339,5,0,0:0:0:0:
226,89,70428,5,0,0:0:0:0:
187,313,70517,5,0,0:0:0:0:
51,65,70607,5,0,0:0:0:0:
226,109,70696,5,0,0:0:0:0:
187,333,70785,5,0,0:0:0:0:
51,84,70875,5,0,0:0:0:0:
226,128,70964,5,0,0:0:0:0:
187,352,71053,5,0,0:0:0:0:
460,26,71142,5,0,0:0:0:0:
285,70,71231,5,0,0:0:0:0:
324,294,71320,5,0,0:0:0:0:
460,45,71410,5,0,0:0:0:0:
285,89,71499,5,0,0:0:0:0:
324,313,71588,5,0,0:0:0:0:
460,65,71678,5,0,0:0:0:0:
285,109,71767,5,0,0:0:0:0:
324,333,71856,5,0,0:0:0:0:
460,84,71946,5,0,0:0:0:0:
285,128,72035,5,0,0:0:0:0:
324,352,72124,5,0,0:0:0:0:
148,120,72214,5,0,0:0:0:0:
368,284,72303,5,0,0:0:0:0:
148,136,72392,5,0,0:0:0:0:
368,268,72482,5,0,0:0:0:0:
148,152,72571,5,0,0:0:0:0:
368,248,72660,5,0,0:0:0:0:
148,168,72749,5,0,0:0:0:0:
368,228,72839,5,0,0:0:0:0:
148,188,72928,5,0,0:0:0:0:
368,208,73017,5,0,0:0:0:0:
148,208,73107,5,0,0:0:0:0:
368,188,73196,5,0,0:0:0:0:
148,228,73285,5,0,0:0:0:0:
368,168,73374,5,0,0:0:0:0:
148,248,73464,5,0,0:0:0:0:
368,148,73553,5,0,0:0:0:0:
182,85,73642,5,0,0:0:0:0:
349,302,73731,5,0,0:0:0:0:
198,84,73820,5,0,0:0:0:0:
333,302,73910,5,0,0:0:0:0:
214,84,73999,5,0,0:0:0:0:
313,303,74088,5,0,0:0:0:0:
230,84,74177,5,0,0:0:0:0:
293,303,74267,5,0,0:0:0:0:
250,84,74356,5,0,0:0:0:0:
273,303,74445,5,0,0:0:0:0:
270,83,74535,5,0,0:0:0:0:
253,304,74624,5,0,0:0:0:0:
290,83,74713,5,0,0:0:0:0:
233,304,74802,5,0,0:0:0:0:
310,83,74892,5,0,0:0:0:0:
213,304,74981,5,0,0:0:0:0:
24,200,75071,5,0,0:0:0:0:
24,176,75160,1,0,0:0:0:0:
128,204,75249,5,0,0:0:0:0:
128,176,75339,1,0,0:0:0:0:
352,208,75428,5,0,0:0:0:0:
352,180,75517,1,0,0:0:0:0:
480,208,75607,5,0,0:0:0:0:
480,180,75696,1,0,0:0:0:0:
36,356,75785,5,0,0:0:0:0:
56,308,75874,1,0,0:0:0:0:
104,284,75964,1,0,0:0:0:0:
132,240,76053,1,0,0:0:0:0:
96,124,76142,5,0,0:0:0:0:
136,88,76232,1,0,0:0:0:0:
188,84,76321,1,0,0:0:0:0:
236,64,76410,1,0,0:0:0:0:
376,128,76499,5,0,0:0:0:0:
328,156,76589,1,0,0:0:0:0:
320,208,76678,1,0,0:0:0:0:
268,220,76767,1,0,0:0:0:0:
180,292,76857,5,0,0:0:0:0:
228,312,76946,1,0,0:0:0:0:
280,320,77035,1,0,0:0:0:0:
332,312,77124,1,0,0:0:0:0:
440,228,77214,5,0,0:0:0:0:
432,176,77303,1,0,0:0:0:0:
456,128,77392,1,0,0:0:0:0:
440,76,77482,1,0,0:0:0:0:
320,56,77571,6,0,L|240:68,1,53.4374985730648
184,156,77749,6,0,L|116:164,1,53.4374985730648
100,280,77928,6,0,L|40:288,1,53.4374985730648
348,312,78107,6,0,L|420:336,1,53.4374985730648
416,188,78285,5,0,0:0:0:0:
388,144,78374,1,0,0:0:0:0:
340,120,78464,1,0,0:0:0:0:
312,76,78553,1,0,0:0:0:0:
188,104,78642,5,0,0:0:0:0:
156,148,78732,1,0,0:0:0:0:
248,196,78821,5,0,0:0:0:0:
288,232,78910,1,0,0:0:0:0:
180,284,78999,5,0,0:0:0:0:
148,328,79089,1,0,0:0:0:0:
272,332,79178,5,0,0:0:0:0:
324,332,79267,1,0,0:0:0:0:
376,324,79357,1,0,0:0:0:0:
424,300,79446,1,0,0:0:0:0:
424,184,79535,5,0,0:0:0:0:
428,132,79624,1,0,0:0:0:0:
400,88,79714,1,0,0:0:0:0:
348,88,79803,1,0,0:0:0:0:
264,164,79892,5,0,0:0:0:0:
212,164,79982,1,0,0:0:0:0:
168,132,80071,1,0,0:0:0:0:
256,192,80249,12,0,81321,0:0:0:0:
100,112,81499,6,0,P|168:132|236:104,1,134.999995880127
168,304,81767,1,0,0:0:0:0:
168,304,81857,2,0,L|168:144,2,134.999995880127
344,304,82303,5,0,0:0:0:0:
344,304,82393,2,0,L|344:144,2,134.999995880127
412,112,82928,6,0,P|344:132|276:104,1,134.999995880127
92,100,83196,1,0,0:0:0:0:
92,100,83285,2,0,P|132:125|219:109,2,134.999995880127
256,288,83732,5,0,0:0:0:0:
256,288,83821,2,0,L|256:148,2,134.999995880127
191,339,84357,6,0,P|251:367|312:344,1,134.999995880127
256,192,84624,1,0,0:0:0:0:
320,44,84714,2,0,P|260:16|199:39,2,134.999995880127
256,192,85160,5,0,0:0:0:0:
160,192,85249,2,0,L|16:192,2,134.999995880127
352,108,85785,6,0,L|424:52,1,67.4999979400635
340,288,85964,6,0,L|396:360,1,67.4999979400635
160,276,86142,6,0,L|88:332,1,67.4999979400635
172,96,86321,6,0,L|116:24,1,67.4999979400635
64,184,86499,6,0,P|95:197|132:200,1,67.4999979400635
248,384,86678,6,0,P|261:352|264:316,1,67.4999979400635
448,200,86857,6,0,P|416:186|380:184,1,67.4999979400635
264,0,87035,6,0,P|250:31|248:68,1,67.4999979400635
412,272,87214,6,0,P|344:252|276:280,1,134.999995880127
344,80,87482,1,0,0:0:0:0:
344,80,87572,2,0,L|344:240,2,134.999995880127
168,80,88018,5,0,0:0:0:0:
168,80,88108,2,0,L|168:240,2,134.999995880127
100,272,88643,6,0,P|168:252|236:280,1,134.999995880127
420,284,88911,1,0,0:0:0:0:
420,284,89000,2,0,P|379:258|292:274,2,134.999995880127
256,96,89447,5,0,0:0:0:0:
256,96,89536,2,0,L|256:236,2,134.999995880127
320,44,90072,6,0,P|260:16|199:39,1,134.999995880127
256,192,90339,1,0,0:0:0:0:
191,339,90429,2,0,P|251:367|312:344,2,134.999995880127
256,192,90875,5,0,0:0:0:0:
352,192,90964,2,0,L|496:192,2,134.999995880127
160,276,91500,6,0,L|88:332,1,67.4999979400635
172,96,91679,6,0,L|116:24,1,67.4999979400635
352,108,91857,6,0,L|424:52,1,67.4999979400635
340,288,92036,6,0,L|396:360,1,67.4999979400635
448,200,92214,6,0,P|416:186|380:184,1,67.4999979400635
264,0,92393,6,0,P|250:31|248:68,1,67.4999979400635
64,184,92572,6,0,P|95:197|132:200,1,67.4999979400635
248,384,92750,6,0,P|261:352|264:316,1,67.4999979400635
256,100,92928,5,0,0:0:0:0:
256,192,93017,12,0,94267,0:0:0:0:
20,364,94357,5,0,0:0:0:0:
16,24,94535,5,0,0:0:0:0:
488,24,94714,5,0,0:0:0:0:
496,368,94892,5,0,0:0:0:0:
252,24,95071,6,0,L|252:180,2,151.874995365143
492,364,95785,5,0,0:0:0:0:
496,24,95963,5,0,0:0:0:0:
24,24,96142,5,0,0:0:0:0:
16,368,96320,5,0,0:0:0:0:
492,364,96499,5,0,0:0:0:0:
496,24,96678,5,0,0:0:0:0:
160,260,97035,5,0,0:0:0:0:
156,116,97213,1,0,0:0:0:0:
348,120,97392,1,0,0:0:0:0:
348,260,97570,1,0,0:0:0:0:
252,188,97749,1,0,0:0:0:0:
252,260,97928,2,0,L|252:104,2,151.874995365143
160,260,98642,5,0,0:0:0:0:
156,116,98820,1,0,0:0:0:0:
348,120,98999,1,0,0:0:0:0:
348,260,99177,1,0,0:0:0:0:
160,260,99357,1,0,0:0:0:0:
156,116,99535,1,0,0:0:0:0:
352,260,99892,5,0,0:0:0:0:
356,116,100070,1,0,0:0:0:0:
164,120,100249,1,0,0:0:0:0:
164,260,100427,1,0,0:0:0:0:
260,188,100606,1,0,0:0:0:0:
260,260,100785,2,0,L|260:104,2,151.874995365143
352,260,101499,5,0,0:0:0:0:
356,116,101677,1,0,0:0:0:0:
164,120,101856,1,0,0:0:0:0:
164,260,102034,1,0,0:0:0:0:
352,260,102214,1,0,0:0:0:0:
356,116,102392,1,0,0:0:0:0:
352,260,102749,5,0,0:0:0:0:
356,116,102927,1,0,0:0:0:0:
164,120,103106,1,0,0:0:0:0:
164,260,103284,1,0,0:0:0:0:
260,188,103463,1,0,0:0:0:0:
260,260,103642,2,0,L|260:104,2,151.874995365143
256,364,104357,5,0,0:0:0:0:
16,188,104535,5,0,0:0:0:0:
252,16,104714,5,0,0:0:0:0:
496,192,104892,5,0,0:0:0:0:
16,188,105071,5,0,0:0:0:0:
496,192,105249,5,0,0:0:0:0:
256,360,105607,5,0,0:0:0:0:
36,32,105785,5,0,0:0:0:0:
144,32,105964,1,0,0:0:0:0:
144,140,106142,1,0,0:0:0:0:
36,140,106321,1,0,0:0:0:0:
472,352,106499,5,0,0:0:0:0:
472,32,106767,1,0,0:0:0:0:
472,352,107035,1,0,0:0:0:0:
36,352,107214,5,0,0:0:0:0:
144,352,107393,1,0,0:0:0:0:
144,244,107571,1,0,0:0:0:0:
36,244,107750,1,0,0:0:0:0:
468,32,107928,6,0,L|468:160,1,106.87499714613
472,360,108464,1,0,0:0:0:0:
476,32,108642,5,0,0:0:0:0:
368,32,108821,1,0,0:0:0:0:
368,140,108999,1,0,0:0:0:0:
476,140,109178,1,0,0:0:0:0:
40,352,109356,5,0,0:0:0:0:
40,32,109624,1,0,0:0:0:0:
40,352,109892,1,0,0:0:0:0:
476,352,110071,5,0,0:0:0:0:
368,352,110250,1,0,0:0:0:0:
368,244,110428,1,0,0:0:0:0:
476,244,110607,1,0,0:0:0:0:
44,32,110785,6,0,L|44:160,1,106.87499714613
40,360,111321,1,0,0:0:0:0:
476,352,111499,5,0,0:0:0:0:
368,352,111678,1,0,0:0:0:0:
368,244,111856,1,0,0:0:0:0:
476,244,112035,1,0,0:0:0:0:
40,32,112213,5,0,0:0:0:0:
40,352,112481,1,0,0:0:0:0:
40,32,112749,1,0,0:0:0:0:
476,32,112928,5,0,0:0:0:0:
368,32,113107,1,0,0:0:0:0:
368,140,113285,1,0,0:0:0:0:
476,140,113464,1,0,0:0:0:0:
44,352,113642,6,0,L|44:224,1,106.87499714613
40,24,114178,1,0,0:0:0:0:
36,352,114357,5,0,0:0:0:0:
144,352,114536,1,0,0:0:0:0:
144,244,114714,1,0,0:0:0:0:
36,244,114893,1,0,0:0:0:0:
472,32,115071,5,0,0:0:0:0:
472,352,115339,1,0,0:0:0:0:
472,32,115607,1,0,0:0:0:0:
36,32,115786,5,0,0:0:0:0:
144,32,115965,1,0,0:0:0:0:
144,140,116143,1,0,0:0:0:0:
36,140,116322,1,0,0:0:0:0:
468,352,116500,6,0,L|468:224,1,106.87499714613
472,24,117036,1,0,0:0:0:0:
24,28,117214,5,0,0:0:0:0:
24,192,117392,1,0,0:0:0:0:
24,192,117482,1,0,0:0:0:0:
24,192,117571,1,0,0:0:0:0:
24,368,117749,1,0,0:0:0:0:
252,24,117928,5,0,0:0:0:0:
252,188,118106,1,0,0:0:0:0:
252,188,118196,1,0,0:0:0:0:
252,188,118285,1,0,0:0:0:0:
252,364,118463,1,0,0:0:0:0:
492,28,118642,5,0,0:0:0:0:
492,192,118820,1,0,0:0:0:0:
492,192,118910,1,0,0:0:0:0:
492,192,118999,1,0,0:0:0:0:
492,368,119177,1,0,0:0:0:0:
492,368,119357,5,0,0:0:0:0:
492,204,119535,1,0,0:0:0:0:
492,204,119625,1,0,0:0:0:0:
492,204,119714,1,0,0:0:0:0:
492,28,119892,1,0,0:0:0:0:
260,364,120071,5,0,0:0:0:0:
260,200,120249,1,0,0:0:0:0:
260,200,120339,1,0,0:0:0:0:
260,200,120428,1,0,0:0:0:0:
260,24,120606,1,0,0:0:0:0:
24,356,120785,5,0,0:0:0:0:
24,192,120963,1,0,0:0:0:0:
24,192,121053,1,0,0:0:0:0:
24,192,121142,1,0,0:0:0:0:
24,16,121320,1,0,0:0:0:0:
24,356,121499,5,0,0:0:0:0:
252,364,121677,1,0,0:0:0:0:
252,364,121767,1,0,0:0:0:0:
252,364,121856,1,0,0:0:0:0:
488,356,122034,1,0,0:0:0:0:
20,188,122214,5,0,0:0:0:0:
248,196,122392,1,0,0:0:0:0:
248,196,122482,1,0,0:0:0:0:
248,196,122571,1,0,0:0:0:0:
484,188,122749,1,0,0:0:0:0:
20,20,122928,5,0,0:0:0:0:
248,28,123106,1,0,0:0:0:0:
248,28,123196,1,0,0:0:0:0:
248,28,123285,1,0,0:0:0:0:
484,20,123463,1,0,0:0:0:0:
488,356,123642,5,0,0:0:0:0:
260,364,123820,1,0,0:0:0:0:
260,364,123910,1,0,0:0:0:0:
260,364,123999,1,0,0:0:0:0:
24,356,124177,1,0,0:0:0:0:
484,184,124357,5,0,0:0:0:0:
256,192,124535,1,0,0:0:0:0:
256,192,124625,1,0,0:0:0:0:
256,192,124714,1,0,0:0:0:0:
20,184,124892,1,0,0:0:0:0:
480,20,125071,5,0,0:0:0:0:
252,28,125249,1,0,0:0:0:0:
252,28,125339,1,0,0:0:0:0:
252,28,125428,1,0,0:0:0:0:
16,20,125606,1,0,0:0:0:0:
488,372,125785,5,0,0:0:0:0:
380,288,125964,2,0,L|328:240,2,56.25
252,188,126321,1,0,0:0:0:0:
24,372,126499,5,0,0:0:0:0:
132,288,126678,2,0,L|184:240,2,56.25
260,188,127035,1,0,0:0:0:0:
488,12,127214,5,0,0:0:0:0:
380,96,127393,2,0,L|328:144,2,56.25
252,196,127750,1,0,0:0:0:0:
24,12,127928,5,0,0:0:0:0:
132,96,128107,2,0,L|184:144,2,56.25
260,196,128464,1,0,0:0:0:0:
256,192,128642,12,0,129357,0:0:0:0:
256,192,137928,12,0,140428,0:0:0:0:
124,312,140785,5,0,0:0:0:0:
84,264,140874,1,0,0:0:0:0:
76,204,140964,1,0,0:0:0:0:
88,144,141053,1,0,0:0:0:0:
120,92,141142,1,0,0:0:0:0:
180,80,141232,1,0,0:0:0:0:
240,68,141321,1,0,0:0:0:0:
300,60,141410,1,0,0:0:0:0:
400,152,141499,5,0,0:0:0:0:
356,196,141589,1,0,0:0:0:0:
324,248,141678,1,0,0:0:0:0:
280,292,141767,1,0,0:0:0:0:
224,316,141857,1,0,0:0:0:0:
164,312,141946,1,0,0:0:0:0:
116,272,142035,1,0,0:0:0:0:
60,244,142124,1,0,0:0:0:0:
136,144,142214,5,0,0:0:0:0:
176,96,142303,1,0,0:0:0:0:
228,60,142392,1,0,0:0:0:0:
292,60,142482,1,0,0:0:0:0:
348,80,142571,1,0,0:0:0:0:
404,108,142660,1,0,0:0:0:0:
428,164,142749,1,0,0:0:0:0:
444,224,142839,1,0,0:0:0:0:
316,280,142928,5,0,0:0:0:0:
296,224,143017,1,0,0:0:0:0:
272,168,143107,1,0,0:0:0:0:
232,120,143196,1,0,0:0:0:0:
172,104,143285,1,0,0:0:0:0:
112,108,143374,1,0,0:0:0:0:
68,152,143464,1,0,0:0:0:0:
48,212,143553,1,0,0:0:0:0:
40,312,143642,6,0,L|40:380,1,61.8750018882752
460,92,143821,6,0,L|460:24,1,61.8750018882752
100,308,143999,6,0,L|100:376,1,61.8750018882752
400,92,144178,6,0,L|400:24,1,61.8750018882752
164,312,144357,6,0,L|164:380,1,61.8750018882752
336,92,144536,6,0,L|336:24,1,61.8750018882752
228,308,144714,6,0,L|228:376,1,61.8750018882752
272,96,144893,6,0,L|272:28,1,61.8750018882752
292,304,145071,6,0,L|292:372,1,61.8750018882752
248,200,145249,5,0,0:0:0:0:
248,200,145339,1,0,0:0:0:0:
312,200,145428,5,0,0:0:0:0:
312,200,145517,1,0,0:0:0:0:
376,200,145607,5,0,0:0:0:0:
376,200,145696,1,0,0:0:0:0:
440,200,145785,5,0,0:0:0:0:
440,224,145874,1,0,0:0:0:0:
436,248,145964,1,0,0:0:0:0:
420,268,146053,1,0,0:0:0:0:
404,288,146142,1,0,0:0:0:0:
384,300,146232,1,0,0:0:0:0:
280,272,146321,5,0,0:0:0:0:
260,256,146410,1,0,0:0:0:0:
244,240,146499,1,0,0:0:0:0:
224,224,146589,1,0,0:0:0:0:
132,128,146678,5,0,0:0:0:0:
128,104,146767,1,0,0:0:0:0:
124,80,146857,1,0,0:0:0:0:
136,60,146946,1,0,0:0:0:0:
296,56,147035,5,0,0:0:0:0:
296,80,147124,1,0,0:0:0:0:
296,104,147214,1,0,0:0:0:0:
296,128,147303,1,0,0:0:0:0:
416,140,147392,5,0,0:0:0:0:
416,116,147482,1,0,0:0:0:0:
416,92,147571,1,0,0:0:0:0:
416,68,147660,1,0,0:0:0:0:
420,248,147749,5,0,0:0:0:0:
420,272,147839,1,0,0:0:0:0:
420,296,147928,1,0,0:0:0:0:
420,320,148017,1,0,0:0:0:0:
296,320,148107,5,0,0:0:0:0:
296,296,148196,1,0,0:0:0:0:
296,272,148285,1,0,0:0:0:0:
296,248,148374,1,0,0:0:0:0:
172,248,148464,5,0,0:0:0:0:
172,272,148553,1,0,0:0:0:0:
172,296,148642,1,0,0:0:0:0:
172,320,148732,1,0,0:0:0:0:
64,316,148821,5,0,0:0:0:0:
64,292,148910,1,0,0:0:0:0:
64,268,148999,1,0,0:0:0:0:
252,92,149089,1,0,0:0:0:0:
488,188,149178,5,0,0:0:0:0:
28,192,149267,5,0,0:0:0:0:
392,120,149357,6,0,L|468:120,1,61.8750018882752
72,120,149535,6,0,L|40:56,1,61.8750018882752
396,180,149714,6,0,L|472:180,1,61.8750018882752
128,96,149892,6,0,L|96:32,1,61.8750018882752
400,240,150071,6,0,L|476:240,1,61.8750018882752
184,80,150249,6,0,L|152:16,1,61.8750018882752
400,304,150428,6,0,L|476:304,1,61.8750018882752
244,64,150607,6,0,L|212:0,1,61.8750018882752
404,364,150786,6,0,L|480:364,1,61.8750018882752
104,356,150964,6,0,L|32:356,1,61.8750018882752
376,100,151142,6,0,L|424:52,1,61.8750018882752
140,196,151321,6,0,L|72:196,1,61.8750018882752
356,196,151499,6,0,L|432:196,1,61.8750018882752
256,68,151857,6,0,L|256:208,1,123.75000377655
256,192,152214,6,0,B|328:264|256:376|256:376|184:264|256:192|256:192|184:264|72:192|72:192|184:120|256:192|256:192|184:120|256:8|256:8|328:120|256:192|256:192|328:120|440:192|440:192|328:264|256:192|256:192,1,1608.74992635727
76,192,154267,5,0,0:0:0:0:
256,12,154357,5,0,0:0:0:0:
436,192,154535,5,0,0:0:0:0:
256,372,154714,6,0,L|256:216,1,146.249993305207
104,68,155071,6,0,L|172:144,1,73.1249966526033
132,344,155249,6,0,L|208:276,1,73.1249966526033
408,316,155428,6,0,L|340:240,1,73.1249966526033
380,40,155607,6,0,L|304:108,1,73.1249966526033
77,111,155785,6,0,L|162:167,1,73.1249966526033
175,370,155964,6,0,L|231:285,1,73.1249966526033
434,272,156142,6,0,L|349:216,1,73.1249966526033
336,13,156321,6,0,L|280:98,1,73.1249966526033
62,160,156499,6,0,L|159:192,1,73.1249966526033
224,385,156678,6,0,L|256:288,1,73.1249966526033
449,223,156857,6,0,L|352:191,1,73.1249966526033
287,0,157035,6,0,L|255:95,1,73.1249966526033
60,211,157214,6,0,L|162:217,1,73.1249966526033
275,387,157392,6,0,L|281:285,1,73.1249966526033
451,172,157571,6,0,L|349:166,1,73.1249966526033
236,0,157749,6,0,L|230:98,1,73.1249966526033
378,168,157928,6,0,L|451:172,1,73.1249966526033
279,314,158106,6,0,L|275:387,1,73.1249966526033
133,215,158285,6,0,L|60:211,1,73.1249966526033
232,69,158463,6,0,L|236:-3,1,73.1249966526033
380,200,158642,6,0,L|449:223,1,73.1249966526033
247,316,158820,6,0,L|224:385,1,73.1249966526033
131,183,158999,6,0,L|62:160,1,73.1249966526033
264,67,159178,6,0,L|287:-1,1,73.1249966526033
373,232,159356,6,0,L|434:272,1,73.1249966526033
215,309,159535,6,0,L|175:370,1,73.1249966526033
138,151,159713,6,0,L|77:111,1,73.1249966526033
296,74,159892,6,0,L|336:13,1,73.1249966526033
359,261,160070,6,0,L|408:316,1,73.1249966526033
186,295,160249,6,0,L|132:344,1,73.1249966526033
152,122,160428,6,0,L|104:68,1,73.1249966526033
325,88,160606,6,0,L|380:40,1,73.1249966526033
180,264,160785,5,0,0:0:0:0:
156,292,160874,1,0,0:0:0:0:
120,304,160964,1,0,0:0:0:0:
84,296,161053,1,0,0:0:0:0:
184,116,161142,5,0,0:0:0:0:
156,92,161231,1,0,0:0:0:0:
144,56,161321,1,0,0:0:0:0:
152,20,161410,1,0,0:0:0:0:
332,120,161499,5,0,0:0:0:0:
356,92,161588,1,0,0:0:0:0:
392,80,161678,1,0,0:0:0:0:
428,88,161767,1,0,0:0:0:0:
328,268,161857,5,0,0:0:0:0:
356,292,161946,1,0,0:0:0:0:
368,328,162036,1,0,0:0:0:0:
360,364,162125,1,0,0:0:0:0:
152,364,162214,5,0,0:0:0:0:
144,328,162303,1,0,0:0:0:0:
156,292,162393,1,0,0:0:0:0:
184,268,162482,1,0,0:0:0:0:
84,88,162572,5,0,0:0:0:0:
120,80,162661,1,0,0:0:0:0:
156,92,162751,1,0,0:0:0:0:
180,120,162840,1,0,0:0:0:0:
360,20,162929,5,0,0:0:0:0:
368,56,163018,1,0,0:0:0:0:
356,92,163108,1,0,0:0:0:0:
328,116,163197,1,0,0:0:0:0:
428,296,163286,5,0,0:0:0:0:
392,304,163375,1,0,0:0:0:0:
356,292,163465,1,0,0:0:0:0:
332,264,163554,1,0,0:0:0:0:
32,32,163642,6,0,L|196:32,1,151.875000579357
188,80,163910,1,0,0:0:0:0:
180,124,163999,2,0,L|16:124,1,151.875000579357
28,124,164267,1,0,0:0:0:0:
480,28,164357,6,0,L|480:184,1,151.875000579357
480,216,164624,1,0,0:0:0:0:
480,260,164714,2,0,L|320:260,1,151.875000579357
328,260,164982,1,0,0:0:0:0:
28,368,165071,6,0,L|28:192,1,151.875000579357
28,184,165339,1,0,0:0:0:0:
40,156,165428,1,0,0:0:0:0:
56,132,165517,1,0,0:0:0:0:
76,108,165607,1,0,0:0:0:0:
100,88,165696,1,0,0:0:0:0:
484,40,165785,5,0,0:0:0:0:
460,60,165874,1,0,0:0:0:0:
448,88,165964,1,0,0:0:0:0:
428,108,166053,1,0,0:0:0:0:
416,136,166142,1,0,0:0:0:0:
404,164,166232,1,0,0:0:0:0:
400,196,166321,1,0,0:0:0:0:
408,224,166410,1,0,0:0:0:0:
192,300,166499,5,0,0:0:0:0:
172,276,166589,1,0,0:0:0:0:
156,252,166678,1,0,0:0:0:0:
140,228,166767,1,0,0:0:0:0:
124,200,166857,1,0,0:0:0:0:
108,180,166946,1,0,0:0:0:0:
352,48,167035,5,0,0:0:0:0:
360,76,167124,1,0,0:0:0:0:
368,104,167214,1,0,0:0:0:0:
368,136,167303,1,0,0:0:0:0:
372,168,167392,1,0,0:0:0:0:
372,200,167482,1,0,0:0:0:0:
456,360,167571,5,0,0:0:0:0:
424,356,167660,1,0,0:0:0:0:
396,352,167749,1,0,0:0:0:0:
364,348,167839,1,0,0:0:0:0:
336,344,167928,1,0,0:0:0:0:
308,336,168017,1,0,0:0:0:0:
96,36,168107,6,0,L|16:36,1,75.9375002896786
420,272,168285,6,0,L|500:272,1,75.9375002896786
104,192,168464,6,0,L|24:192,1,75.9375002896786
420,192,168642,6,0,L|500:192,1,75.9375002896786
104,116,168821,6,0,L|24:116,1,75.9375002896786
424,356,168999,6,0,L|504:356,1,75.9375002896786
104,260,169178,6,0,L|24:260,1,75.9375002896786
416,116,169356,6,0,L|496:116,1,75.9375002896786
252,32,169535,5,0,0:0:0:0:
228,52,169624,1,0,0:0:0:0:
344,204,169714,5,0,0:0:0:0:
360,228,169803,1,0,0:0:0:0:
164,232,169892,5,0,0:0:0:0:
140,252,169982,1,0,0:0:0:0:
304,336,170071,5,0,0:0:0:0:
324,360,170160,1,0,0:0:0:0:
156,132,170249,5,0,0:0:0:0:
132,112,170339,1,0,0:0:0:0:
376,112,170428,5,0,0:0:0:0:
400,92,170517,1,0,0:0:0:0:
196,304,170607,5,0,0:0:0:0:
172,320,170696,1,0,0:0:0:0:
248,80,170785,5,0,0:0:0:0:
248,48,170874,1,0,0:0:0:0:
252,256,170964,5,0,0:0:0:0:
256,288,171053,1,0,0:0:0:0:
268,316,171142,1,0,0:0:0:0:
288,340,171232,1,0,0:0:0:0:
320,340,171321,1,0,0:0:0:0:
352,340,171410,1,0,0:0:0:0:
472,48,171499,5,0,0:0:0:0:
420,68,171589,1,0,0:0:0:0:
368,84,171678,1,0,0:0:0:0:
316,100,171767,1,0,0:0:0:0:
32,40,171857,5,0,0:0:0:0:
68,76,171946,1,0,0:0:0:0:
100,116,172035,1,0,0:0:0:0:
132,160,172124,1,0,0:0:0:0:
448,204,172214,5,0,0:0:0:0:
404,236,172303,1,0,0:0:0:0:
364,272,172392,1,0,0:0:0:0:
324,308,172482,1,0,0:0:0:0:
72,328,172571,5,0,0:0:0:0:
100,284,172660,1,0,0:0:0:0:
128,240,172749,1,0,0:0:0:0:
156,196,172839,1,0,0:0:0:0:
256,24,172928,5,0,0:0:0:0:
256,76,173017,1,0,0:0:0:0:
256,128,173107,1,0,0:0:0:0:
256,180,173196,1,0,0:0:0:0:
256,356,173285,5,0,0:0:0:0:
256,304,173374,1,0,0:0:0:0:
256,252,173464,1,0,0:0:0:0:
256,200,173553,1,0,0:0:0:0:
256,192,173642,12,0,174892,0:0:0:0:
384,100,175071,5,0,0:0:0:0:
348,320,175190,5,0,0:0:0:0:
128,284,175309,5,0,0:0:0:0:
391,111,175428,5,0,0:0:0:0:
336,327,175547,5,0,0:0:0:0:
120,272,175666,5,0,0:0:0:0:
398,123,175785,5,0,0:0:0:0:
324,334,175904,5,0,0:0:0:0:
113,260,176023,5,0,0:0:0:0:
403,136,176142,5,0,0:0:0:0:
311,339,176261,5,0,0:0:0:0:
108,247,176380,5,0,0:0:0:0:
407,149,176499,5,0,0:0:0:0:
298,343,176619,5,0,0:0:0:0:
104,234,176738,5,0,0:0:0:0:
410,162,176857,5,0,0:0:0:0:
285,346,176976,5,0,0:0:0:0:
101,221,177095,5,0,0:0:0:0:
412,176,177214,5,0,0:0:0:0:
271,348,177333,5,0,0:0:0:0:
99,207,177452,5,0,0:0:0:0:
413,190,177571,5,0,0:0:0:0:
257,349,177690,5,0,0:0:0:0:
98,193,177809,5,0,0:0:0:0:
384,284,177928,5,0,0:0:0:0:
348,64,178047,5,0,0:0:0:0:
128,100,178166,5,0,0:0:0:0:
391,272,178285,5,0,0:0:0:0:
336,56,178404,5,0,0:0:0:0:
120,111,178523,5,0,0:0:0:0:
398,260,178642,5,0,0:0:0:0:
324,49,178761,5,0,0:0:0:0:
113,123,178880,5,0,0:0:0:0:
403,247,178999,5,0,0:0:0:0:
311,44,179118,5,0,0:0:0:0:
108,136,179237,5,0,0:0:0:0:
407,234,179356,5,0,0:0:0:0:
298,40,179476,5,0,0:0:0:0:
104,149,179595,5,0,0:0:0:0:
410,221,179714,5,0,0:0:0:0:
285,37,179833,5,0,0:0:0:0:
101,162,179952,5,0,0:0:0:0:
412,207,180071,5,0,0:0:0:0:
271,35,180190,5,0,0:0:0:0:
99,176,180309,5,0,0:0:0:0:
413,193,180428,5,0,0:0:0:0:
257,34,180517,5,0,0:0:0:0:
98,190,180607,5,0,0:0:0:0:
254,349,180696,5,0,0:0:0:0:
368,232,180785,6,0,P|388:208|400:168,2,67.4999979400635
296,80,181142,6,0,P|272:60|232:48,2,67.4999979400635
144,152,181499,6,0,P|124:176|112:216,2,67.4999979400635
216,304,181857,6,0,P|240:324|280:336,2,67.4999979400635
452,40,182214,5,0,0:0:0:0:
60,344,182333,5,0,0:0:0:0:
492,116,182452,5,0,0:0:0:0:
19,267,182571,5,0,0:0:0:0:
503,201,182690,5,0,0:0:0:0:
8,182,182809,5,0,0:0:0:0:
256,348,182928,6,0,B|292:252|208:252|256:152,1,202.499993820191
88,192,183404,5,0,0:0:0:0:
256,44,183523,1,0,0:0:0:0:
424,192,183642,5,0,0:0:0:0:
490,206,183761,1,0,0:0:0:0:
444,256,183880,1,0,0:0:0:0:
88,192,183999,5,0,0:0:0:0:
22,178,184118,1,0,0:0:0:0:
68,128,184237,1,0,0:0:0:0:
280,300,184357,5,0,0:0:0:0:
214,314,184476,1,0,0:0:0:0:
260,364,184595,1,0,0:0:0:0:
232,84,184714,5,0,0:0:0:0:
298,70,184833,1,0,0:0:0:0:
252,20,184952,1,0,0:0:0:0:
80,268,185071,6,0,L|152:288,2,67.4999979400635
432,268,185428,6,0,L|360:288,2,67.4999979400635
256,36,185785,6,0,B|232:100|256:196|256:196|268:144,1,202.499993820191
144,152,186499,6,0,P|124:176|112:216,2,67.4999979400635
216,304,186856,6,0,P|240:324|280:336,2,67.4999979400635
368,232,187213,6,0,P|388:208|400:168,2,67.4999979400635
296,80,187571,6,0,P|272:60|232:48,2,67.4999979400635
60,344,187928,5,0,0:0:0:0:
452,40,188047,5,0,0:0:0:0:
19,267,188166,5,0,0:0:0:0:
492,116,188285,5,0,0:0:0:0:
8,182,188404,5,0,0:0:0:0:
503,201,188523,5,0,0:0:0:0:
256,36,188642,6,0,B|220:132|304:132|256:232,1,202.499993820191
424,192,189118,5,0,0:0:0:0:
256,340,189237,1,0,0:0:0:0:
88,192,189356,5,0,0:0:0:0:
22,178,189475,1,0,0:0:0:0:
68,128,189594,1,0,0:0:0:0:
424,192,189713,5,0,0:0:0:0:
490,206,189832,1,0,0:0:0:0:
444,256,189951,1,0,0:0:0:0:
232,84,190071,5,0,0:0:0:0:
298,70,190190,1,0,0:0:0:0:
252,20,190309,1,0,0:0:0:0:
280,300,190428,5,0,0:0:0:0:
214,314,190547,1,0,0:0:0:0:
260,364,190666,1,0,0:0:0:0:
420,152,190785,6,0,L|420:72,2,67.4999979400635
92,152,191142,6,0,L|92:72,2,67.4999979400635
256,120,191499,6,0,B|256:20|208:4|208:4|256:20|304:4|304:4|256:20|256:120|256:120|352:120|416:100|416:100|352:120|416:152|416:152|352:120|256:120|256:120|256:396|320:376|320:376|256:396|192:376|192:376|256:396|256:120|256:120|160:120|96:152|96:152|160:120|96:100|96:100|160:120|256:120|256:120,1,1889.99994232178
24,188,193821,5,0,0:0:0:0:
469,254,193999,5,0,0:0:0:0:
34,117,194178,5,0,0:0:0:0:
435,321,194357,5,0,0:0:0:0:
68,50,194536,5,0,0:0:0:0:
387,369,194714,5,0,0:0:0:0:
116,2,194893,5,0,0:0:0:0:
480,184,195071,5,0,0:0:0:0:
24,188,195250,5,0,0:0:0:0:
468,113,195428,5,0,0:0:0:0:
35,258,195607,5,0,0:0:0:0:
435,50,195785,5,0,0:0:0:0:
68,321,195964,5,0,0:0:0:0:
384,0,196142,5,0,0:0:0:0:
119,371,196321,5,0,0:0:0:0:
480,184,196499,5,0,0:0:0:0:
24,188,196678,5,0,0:0:0:0:
480,264,196857,5,0,0:0:0:0:
24,104,197036,5,0,0:0:0:0:
480,108,197214,5,0,0:0:0:0:
20,276,197393,5,0,0:0:0:0:
480,184,197482,5,0,0:0:0:0:
24,188,197571,5,0,0:0:0:0:
480,184,197749,5,0,0:0:0:0:
24,188,197928,5,0,0:0:0:0:
469,254,198106,5,0,0:0:0:0:
34,117,198285,5,0,0:0:0:0:
435,321,198464,5,0,0:0:0:0:
68,50,198643,5,0,0:0:0:0:
387,369,198821,5,0,0:0:0:0:
116,2,199000,5,0,0:0:0:0:
480,184,199178,5,0,0:0:0:0:
24,188,199357,5,0,0:0:0:0:
468,113,199535,5,0,0:0:0:0:
35,258,199714,5,0,0:0:0:0:
435,50,199892,5,0,0:0:0:0:
68,321,200071,5,0,0:0:0:0:
384,0,200249,5,0,0:0:0:0:
119,371,200428,5,0,0:0:0:0:
480,184,200606,5,0,0:0:0:0:
24,188,200785,5,0,0:0:0:0:
480,184,200964,5,0,0:0:0:0:
24,188,201143,5,0,0:0:0:0:
480,184,201321,5,0,0:0:0:0:
248,28,201499,5,0,0:0:0:0:
248,364,201678,5,0,0:0:0:0:
179,42,201857,5,0,0:0:0:0:
316,349,202036,5,0,0:0:0:0:
316,42,202214,5,0,0:0:0:0:
179,349,202393,5,0,0:0:0:0:
123,83,202571,5,0,0:0:0:0:
372,308,202750,5,0,0:0:0:0:
372,83,202928,5,0,0:0:0:0:
123,308,203107,5,0,0:0:0:0:
97,148,203196,5,0,0:0:0:0:
417,252,203285,5,0,0:0:0:0:
248,28,203464,5,0,0:0:0:0:
256,168,203642,6,0,B|256:44|88:44|20:192|148:256|256:320|256:360|256:360|256:320|364:256|492:192|424:44|256:44|256:168,1,944.99997116089
48,168,205071,5,0,0:0:0:0:
464,216,205160,5,0,0:0:0:0:
36,112,205249,5,0,0:0:0:0:
476,272,205339,5,0,0:0:0:0:
56,60,205428,5,0,0:0:0:0:
456,324,205517,5,0,0:0:0:0:
108,32,205607,5,0,0:0:0:0:
404,352,205696,5,0,0:0:0:0:
52,44,205785,5,0,0:0:0:0:
460,340,205874,5,0,0:0:0:0:
108,32,205963,5,0,0:0:0:0:
404,352,206052,5,0,0:0:0:0:
160,52,206142,5,0,0:0:0:0:
352,332,206231,5,0,0:0:0:0:
188,104,206321,5,0,0:0:0:0:
324,280,206410,5,0,0:0:0:0:
188,64,206499,5,0,0:0:0:0:
324,320,206588,5,0,0:0:0:0:
200,120,206677,5,0,0:0:0:0:
312,264,206766,5,0,0:0:0:0:
180,171,206856,5,0,0:0:0:0:
332,213,206945,5,0,0:0:0:0:
128,200,207035,5,0,0:0:0:0:
384,184,207124,5,0,0:0:0:0:
176,192,207214,5,0,0:0:0:0:
336,192,207303,5,0,0:0:0:0:
120,204,207392,5,0,0:0:0:0:
392,180,207481,5,0,0:0:0:0:
69,184,207571,5,0,0:0:0:0:
443,200,207660,5,0,0:0:0:0:
40,132,207750,5,0,0:0:0:0:
472,252,207839,5,0,0:0:0:0:
108,100,207928,6,0,L|180:56,1,81.5625024890901
404,284,208107,6,0,L|332:328,1,81.5625024890901
201,26,208285,6,0,L|285:38,1,81.5625024890901
310,357,208464,6,0,L|226:345,1,81.5625024890901
320,30,208642,6,0,L|376:93,1,81.5625024890901
191,353,208821,6,0,L|135:290,1,81.5625024890901
409,109,208999,6,0,L|411:194,1,81.5625024890901
102,274,209178,6,0,L|100:189,1,81.5625024890901
488,24,209357,5,0,0:0:0:0:
440,56,209446,1,0,0:0:0:0:
396,88,209535,1,0,0:0:0:0:
352,124,209624,1,0,0:0:0:0:
488,360,209714,5,0,0:0:0:0:
440,328,209803,1,0,0:0:0:0:
396,296,209892,1,0,0:0:0:0:
352,260,209981,1,0,0:0:0:0:
24,24,210071,5,0,0:0:0:0:
72,56,210160,1,0,0:0:0:0:
116,88,210249,1,0,0:0:0:0:
160,124,210338,1,0,0:0:0:0:
24,360,210428,5,0,0:0:0:0:
72,328,210517,1,0,0:0:0:0:
116,296,210606,1,0,0:0:0:0:
160,260,210695,1,0,0:0:0:0:
60,136,210785,6,0,P|128:176|196:136,1,163.12500497818
128,72,211142,2,0,L|128:240,1,163.12500497818
452,248,211499,6,0,P|384:208|316:248,1,163.12500497818
384,312,211856,2,0,L|384:144,1,163.12500497818
200,328,212214,6,0,P|116:352|44:324,1,163.12500497818
128,264,212571,2,0,L|128:88,1,163.12500497818
312,56,212928,6,0,P|396:32|468:60,1,163.12500497818
384,120,213285,2,0,L|384:296,1,163.12500497818
188,304,213642,6,0,P|112:340|44:312,2,163.12500497818
324,80,214178,6,0,P|400:44|468:72,1,163.12500497818
256,312,214535,5,0,0:0:0:0:
256,312,214624,1,0,0:0:0:0:
256,312,214714,2,0,L|256:136,1,163.12500497818
256,40,215071,5,0,0:0:0:0:
256,192,215249,12,0,216321,0:0:0:0:
60,56,216499,5,0,0:0:0:0:
69,132,216588,1,0,0:0:0:0:
142,158,216677,1,0,0:0:0:0:
197,105,216766,1,0,0:0:0:0:
452,56,216857,5,0,0:0:0:0:
442,132,216946,1,0,0:0:0:0:
369,158,217035,1,0,0:0:0:0:
314,105,217124,1,0,0:0:0:0:
60,328,217214,5,0,0:0:0:0:
69,251,217303,1,0,0:0:0:0:
142,225,217392,1,0,0:0:0:0:
197,278,217481,1,0,0:0:0:0:
452,328,217571,5,0,0:0:0:0:
442,251,217660,1,0,0:0:0:0:
369,225,217749,1,0,0:0:0:0:
314,278,217838,1,0,0:0:0:0:
56,68,217928,6,0,L|148:48,1,84.3750032186509
456,316,218107,6,0,L|364:336,1,84.3750032186509
44,172,218285,5,0,0:0:0:0:
44,196,218374,1,0,0:0:0:0:
132,172,218464,5,0,0:0:0:0:
132,196,218553,1,0,0:0:0:0:
468,172,218642,5,0,0:0:0:0:
468,196,218731,1,0,0:0:0:0:
380,172,218821,5,0,0:0:0:0:
380,196,218910,1,0,0:0:0:0:
296,168,218999,5,0,0:0:0:0:
296,192,219088,1,0,0:0:0:0:
216,172,219178,5,0,0:0:0:0:
216,196,219267,1,0,0:0:0:0:
24,360,219357,6,0,L|112:296,1,84.3750032186509
488,24,219535,6,0,L|412:88,1,84.3750032186509
52,340,219714,6,0,L|144:272,1,84.3750032186509
464,48,219892,6,0,L|392:104,1,84.3750032186509
84,320,220071,6,0,L|168:252,1,84.3750032186509
440,68,220249,6,0,L|344:140,1,84.3750032186509
112,300,220428,6,0,L|180:240,1,84.3750032186509
412,92,220607,6,0,L|336:144,1,84.3750032186509
24,24,220785,6,0,L|100:84,1,84.3750032186509
488,364,220964,6,0,L|392:296,1,84.3750032186509
88,76,221142,6,0,L|176:144,1,84.3750032186509
420,316,221321,6,0,L|344:260,1,84.3750032186509
252,56,221499,5,0,0:0:0:0:
252,88,221589,1,0,0:0:0:0:
252,120,221678,1,0,0:0:0:0:
252,328,221767,5,0,0:0:0:0:
252,296,221857,1,0,0:0:0:0:
252,264,221946,1,0,0:0:0:0:
252,192,222035,5,0,0:0:0:0:
252,192,222124,1,0,0:0:0:0:
252,192,222214,1,0,0:0:0:0:
24,24,222303,6,0,L|112:88,1,84.3750032186509
488,360,222481,6,0,L|412:296,1,84.3750032186509
52,44,222660,6,0,L|144:112,1,84.3750032186509
464,336,222838,6,0,L|392:280,1,84.3750032186509
84,64,223017,6,0,L|168:132,1,84.3750032186509
440,316,223195,6,0,L|344:244,1,84.3750032186509
112,84,223374,6,0,L|180:144,1,84.3750032186509
412,292,223553,6,0,L|336:240,1,84.3750032186509
24,360,223731,6,0,L|100:300,1,84.3750032186509
488,20,223910,6,0,L|392:88,1,84.3750032186509
88,308,224088,6,0,L|176:240,1,84.3750032186509
420,68,224267,6,0,L|344:124,1,84.3750032186509
156,256,224446,6,0,L|244:196,1,84.3750032186509
352,120,224624,6,0,L|264:180,1,84.3750032186509
224,160,224803,5,0,0:0:0:0:
280,224,224892,5,0,0:0:0:0:
180,120,224982,5,0,0:0:0:0:
320,272,225071,5,0,0:0:0:0:
136,72,225160,5,0,0:0:0:0:
364,316,225249,5,0,0:0:0:0:
120,132,225339,5,0,0:0:0:0:
392,260,225428,5,0,0:0:0:0:
116,192,225517,5,0,0:0:0:0:
400,200,225607,5,0,0:0:0:0:
120,252,225696,5,0,0:0:0:0:
400,140,225785,5,0,0:0:0:0:
132,308,225874,5,0,0:0:0:0:
376,88,225964,5,0,0:0:0:0:
176,344,226053,5,0,0:0:0:0:
332,52,226142,5,0,0:0:0:0:
232,356,226232,5,0,0:0:0:0:
276,40,226321,5,0,0:0:0:0:
288,352,226410,5,0,0:0:0:0:
220,40,226499,5,0,0:0:0:0:
340,336,226589,5,0,0:0:0:0:
168,52,226678,5,0,0:0:0:0:
384,304,226767,5,0,0:0:0:0:
128,84,226857,5,0,0:0:0:0:
416,260,226946,5,0,0:0:0:0:
96,128,227035,5,0,0:0:0:0:
424,204,227124,5,0,0:0:0:0:
92,184,227214,5,0,0:0:0:0:
428,148,227303,5,0,0:0:0:0:
96,236,227392,5,0,0:0:0:0:
416,96,227482,5,0,0:0:0:0:
116,284,227571,5,0,0:0:0:0:
384,52,227660,5,0,0:0:0:0:
156,316,227749,5,0,0:0:0:0:
344,24,227839,5,0,0:0:0:0:
44,84,227928,5,0,0:0:0:0:
56,96,228017,1,0,0:0:0:0:
68,112,228107,1,0,0:0:0:0:
84,124,228196,1,0,0:0:0:0:
100,136,228285,1,0,0:0:0:0:
116,144,228374,1,0,0:0:0:0:
136,148,228464,1,0,0:0:0:0:
156,148,228553,1,0,0:0:0:0:
304,112,228642,5,0,0:0:0:0:
308,132,228732,1,0,0:0:0:0:
316,148,228821,1,0,0:0:0:0:
328,164,228910,1,0,0:0:0:0:
340,180,228999,1,0,0:0:0:0:
348,196,229089,1,0,0:0:0:0:
356,212,229178,1,0,0:0:0:0:
356,232,229267,1,0,0:0:0:0:
468,300,229357,5,0,0:0:0:0:
456,288,229446,1,0,0:0:0:0:
444,272,229536,1,0,0:0:0:0:
428,260,229625,1,0,0:0:0:0:
412,248,229714,1,0,0:0:0:0:
396,240,229803,1,0,0:0:0:0:
376,236,229893,1,0,0:0:0:0:
356,236,229982,1,0,0:0:0:0:
208,272,230071,5,0,0:0:0:0:
204,252,230161,1,0,0:0:0:0:
196,236,230250,1,0,0:0:0:0:
184,220,230339,1,0,0:0:0:0:
172,204,230428,1,0,0:0:0:0:
164,188,230518,1,0,0:0:0:0:
156,172,230607,1,0,0:0:0:0:
156,152,230696,1,0,0:0:0:0:
84,36,230785,5,0,0:0:0:0:
428,36,230874,5,0,0:0:0:0:
72,76,230964,5,0,0:0:0:0:
440,76,231053,5,0,0:0:0:0:
52,116,231142,5,0,0:0:0:0:
460,116,231231,5,0,0:0:0:0:
40,156,231321,5,0,0:0:0:0:
472,156,231410,5,0,0:0:0:0:
40,200,231499,5,0,0:0:0:0:
472,200,231588,5,0,0:0:0:0:
60,240,231678,5,0,0:0:0:0:
452,240,231767,5,0,0:0:0:0:
96,260,231857,5,0,0:0:0:0:
416,260,231946,5,0,0:0:0:0:
116,296,232035,5,0,0:0:0:0:
396,296,232124,5,0,0:0:0:0:
176,76,232214,6,0,L|80:44,1,61.8750018882752
336,76,232392,6,0,L|432:44,1,61.8750018882752
172,152,232571,6,0,L|96:168,1,61.8750018882752
340,152,232749,6,0,L|416:168,1,61.8750018882752
176,232,232928,6,0,L|104:292,1,61.8750018882752
336,232,233106,6,0,L|408:292,1,61.8750018882752
212,308,233285,6,0,L|176:368,1,61.8750018882752
300,308,233463,6,0,L|336:368,1,61.8750018882752
36,32,233642,5,0,0:0:0:0:
476,352,233732,5,0,0:0:0:0:
48,72,233821,5,0,0:0:0:0:
464,312,233911,5,0,0:0:0:0:
80,104,233999,5,0,0:0:0:0:
432,280,234089,5,0,0:0:0:0:
120,120,234178,5,0,0:0:0:0:
392,264,234268,5,0,0:0:0:0:
164,112,234357,5,0,0:0:0:0:
348,272,234447,5,0,0:0:0:0:
208,116,234535,5,0,0:0:0:0:
304,268,234625,5,0,0:0:0:0:
240,148,234713,5,0,0:0:0:0:
272,236,234803,5,0,0:0:0:0:
256,188,234892,5,0,0:0:0:0:
256,196,234982,5,0,0:0:0:0:
476,32,235071,5,0,0:0:0:0:
36,352,235161,5,0,0:0:0:0:
464,72,235250,5,0,0:0:0:0:
48,312,235340,5,0,0:0:0:0:
432,104,235428,5,0,0:0:0:0:
80,280,235518,5,0,0:0:0:0:
392,120,235607,5,0,0:0:0:0:
120,264,235697,5,0,0:0:0:0:
348,112,235786,5,0,0:0:0:0:
164,272,235876,5,0,0:0:0:0:
304,116,235964,5,0,0:0:0:0:
208,268,236054,5,0,0:0:0:0:
272,148,236142,5,0,0:0:0:0:
240,236,236232,5,0,0:0:0:0:
256,188,236321,5,0,0:0:0:0:
256,196,236411,5,0,0:0:0:0:
52,44,236499,5,0,0:0:0:0:
28,80,236589,1,0,0:0:0:0:
24,124,236678,1,0,0:0:0:0:
44,160,236767,1,0,0:0:0:0:
460,340,236857,5,0,0:0:0:0:
484,304,236947,1,0,0:0:0:0:
488,260,237036,1,0,0:0:0:0:
468,224,237125,1,0,0:0:0:0:
4,209,237214,5,0,0:0:0:0:
9,252,237304,1,0,0:0:0:0:
34,289,237393,1,0,0:0:0:0:
73,303,237482,1,0,0:0:0:0:
507,174,237571,5,0,0:0:0:0:
502,131,237661,1,0,0:0:0:0:
477,94,237750,1,0,0:0:0:0:
438,80,237839,1,0,0:0:0:0:
140,152,237928,6,0,L|88:72,3,61.8750018882752
216,308,238285,6,0,L|136:360,3,61.8750018882752
372,232,238642,6,0,L|424:312,3,61.8750018882752
296,76,238999,6,0,L|376:24,3,61.8750018882752
28,32,239357,5,0,0:0:0:0:
120,32,239535,1,0,0:0:0:0:
76,32,239624,1,0,0:0:0:0:
28,32,239714,1,0,0:0:0:0:
120,32,239892,1,0,0:0:0:0:
120,100,240071,1,0,0:0:0:0:
72,100,240160,1,0,0:0:0:0:
28,100,240249,1,0,0:0:0:0:
124,164,240428,1,0,0:0:0:0:
76,164,240517,1,0,0:0:0:0:
32,164,240606,1,0,0:0:0:0:
28,352,240785,5,0,0:0:0:0:
120,352,240963,1,0,0:0:0:0:
76,352,241052,1,0,0:0:0:0:
28,352,241142,1,0,0:0:0:0:
120,352,241320,1,0,0:0:0:0:
120,284,241499,1,0,0:0:0:0:
72,284,241588,1,0,0:0:0:0:
28,284,241677,1,0,0:0:0:0:
124,220,241856,1,0,0:0:0:0:
76,220,241945,1,0,0:0:0:0:
32,220,242034,1,0,0:0:0:0:
484,32,242214,5,0,0:0:0:0:
392,32,242392,1,0,0:0:0:0:
436,32,242481,1,0,0:0:0:0:
484,32,242571,1,0,0:0:0:0:
392,32,242749,1,0,0:0:0:0:
392,100,242928,1,0,0:0:0:0:
440,100,243017,1,0,0:0:0:0:
484,100,243106,1,0,0:0:0:0:
388,164,243285,1,0,0:0:0:0:
436,164,243374,1,0,0:0:0:0:
480,164,243463,1,0,0:0:0:0:
108,360,243642,6,0,L|24:360,1,67.4999979400635
112,296,243821,2,0,L|32:296,1,67.4999979400635
476,360,243999,6,0,L|392:360,1,67.4999979400635
480,296,244178,2,0,L|400:296,1,67.4999979400635
96,96,244357,6,0,L|12:96,1,67.4999979400635
100,32,244536,2,0,L|20:32,1,67.4999979400635
488,100,244714,6,0,L|404:100,1,67.4999979400635
492,36,244893,2,0,L|412:36,1,67.4999979400635
484,352,245071,5,0,0:0:0:0:
392,352,245249,1,0,0:0:0:0:
436,352,245338,1,0,0:0:0:0:
484,352,245428,1,0,0:0:0:0:
392,352,245606,1,0,0:0:0:0:
392,284,245785,1,0,0:0:0:0:
440,284,245874,1,0,0:0:0:0:
484,284,245963,1,0,0:0:0:0:
388,220,246142,1,0,0:0:0:0:
436,220,246231,1,0,0:0:0:0:
480,220,246320,1,0,0:0:0:0:
28,32,246499,5,0,0:0:0:0:
120,32,246677,1,0,0:0:0:0:
76,32,246766,1,0,0:0:0:0:
28,32,246856,1,0,0:0:0:0:
120,32,247034,1,0,0:0:0:0:
120,100,247213,1,0,0:0:0:0:
72,100,247302,1,0,0:0:0:0:
28,100,247391,1,0,0:0:0:0:
124,164,247570,1,0,0:0:0:0:
76,164,247659,1,0,0:0:0:0:
32,164,247748,1,0,0:0:0:0:
28,352,247928,5,0,0:0:0:0:
120,352,248106,1,0,0:0:0:0:
76,352,248195,1,0,0:0:0:0:
28,352,248285,1,0,0:0:0:0:
120,352,248463,1,0,0:0:0:0:
120,284,248642,1,0,0:0:0:0:
72,284,248731,1,0,0:0:0:0:
28,284,248820,1,0,0:0:0:0:
124,220,248999,1,0,0:0:0:0:
76,220,249088,1,0,0:0:0:0:
32,220,249177,1,0,0:0:0:0:
184,36,249357,5,0,0:0:0:0:
328,348,249446,5,0,0:0:0:0:
134,70,249535,5,0,0:0:0:0:
377,313,249624,5,0,0:0:0:0:
100,118,249714,5,0,0:0:0:0:
411,265,249803,5,0,0:0:0:0:
84,176,249892,5,0,0:0:0:0:
427,207,249981,5,0,0:0:0:0:
412,120,250071,5,0,0:0:0:0:
100,264,250160,5,0,0:0:0:0:
377,70,250249,5,0,0:0:0:0:
134,313,250338,5,0,0:0:0:0:
329,36,250428,5,0,0:0:0:0:
182,347,250517,5,0,0:0:0:0:
271,20,250606,5,0,0:0:0:0:
240,363,250695,5,0,0:0:0:0:
100,272,250785,6,0,P|168:252|236:280,1,134.999995880127
420,284,251053,1,0,0:0:0:0:
420,284,251142,2,0,P|380:259|293:275,2,134.999995880127
256,96,251589,5,0,0:0:0:0:
256,96,251678,2,0,L|256:236,2,134.999995880127
321,45,252214,6,0,P|261:17|200:40,1,134.999995880127
256,192,252481,1,0,0:0:0:0:
192,340,252571,2,0,P|252:368|313:345,2,134.999995880127
256,192,253017,5,0,0:0:0:0:
352,192,253106,2,0,L|496:192,2,134.999995880127
160,276,253642,6,0,L|88:332,1,67.4999979400635
172,96,253821,6,0,L|116:24,1,67.4999979400635
352,108,253999,6,0,L|424:52,1,67.4999979400635
340,288,254178,6,0,L|396:360,1,67.4999979400635
448,200,254356,6,0,P|417:187|380:184,1,67.4999979400635
264,0,254535,6,0,P|251:32|248:68,1,67.4999979400635
64,184,254714,6,0,P|96:198|132:200,1,67.4999979400635
248,384,254892,6,0,P|262:353|264:316,1,67.4999979400635
100,112,255071,6,0,P|168:132|236:104,1,134.999995880127
168,304,255339,1,0,0:0:0:0:
168,304,255429,2,0,L|168:144,2,134.999995880127
344,304,255875,5,0,0:0:0:0:
344,304,255965,2,0,L|344:144,2,134.999995880127
412,112,256500,6,0,P|344:132|276:104,1,134.999995880127
92,100,256768,1,0,0:0:0:0:
92,100,256857,2,0,P|133:126|220:110,2,134.999995880127
256,288,257304,5,0,0:0:0:0:
256,288,257393,2,0,L|256:148,2,134.999995880127
192,340,257929,6,0,P|252:368|313:345,1,134.999995880127
256,192,258196,1,0,0:0:0:0:
321,45,258286,2,0,P|261:17|200:40,2,134.999995880127
256,192,258732,5,0,0:0:0:0:
160,192,258821,2,0,L|16:192,2,134.999995880127
352,108,259357,6,0,L|424:52,1,67.4999979400635
340,288,259536,6,0,L|396:360,1,67.4999979400635
160,276,259714,6,0,L|88:332,1,67.4999979400635
172,96,259893,6,0,L|116:24,1,67.4999979400635
64,184,260071,6,0,P|96:198|132:200,1,67.4999979400635
248,384,260250,6,0,P|262:353|264:316,1,67.4999979400635
448,200,260429,6,0,P|417:187|380:184,1,67.4999979400635
264,0,260607,6,0,P|251:32|248:68,1,67.4999979400635
256,256,260785,5,0,0:0:0:0:
256,288,260874,1,0,0:0:0:0:
256,324,260964,1,0,0:0:0:0:
256,356,261053,1,0,0:0:0:0:
192,192,261142,5,0,0:0:0:0:
160,192,261231,1,0,0:0:0:0:
124,192,261321,1,0,0:0:0:0:
92,192,261410,1,0,0:0:0:0:
256,128,261499,5,0,0:0:0:0:
256,96,261588,1,0,0:0:0:0:
256,60,261678,1,0,0:0:0:0:
256,28,261767,1,0,0:0:0:0:
320,192,261857,5,0,0:0:0:0:
352,192,261946,1,0,0:0:0:0:
388,192,262036,1,0,0:0:0:0:
256,192,262214,6,0,B|328:192|512:192|460:140|460:52|360:84|360:84|408:-20|308:-20|256:-68|256:120|256:192|256:192|256:120|256:-68|204:-20|104:-20|152:84|152:84|52:52|52:140|-4:192|184:192|256:192|256:192|184:192|-4:192|52:244|52:332|152:300|152:300|104:404|204:404|256:456|256:264|256:192|256:192|256:264|256:456|308:404|408:404|360:300|360:300|460:332|460:244|512:192|328:192|256:192|256:192,1,2772.00008459473
