osu file format v14

[General]
AudioFilename: audio.mp3
AudioLeadIn: 0
PreviewTime: 75785
Countdown: 0
SampleSet: Soft
StackLeniency: 0.3
Mode: 0
LetterboxInBreaks: 0
WidescreenStoryboard: 0

[Editor]
DistanceSpacing: 0.8
BeatDivisor: 4
GridSize: 4
TimelineZoom: 2.2

[Metadata]
Title:U.N owen was Youkai Girl ?
TitleUnicode:U.N owen was Youkai Girl ?
Artist:
ArtistUnicode:激戦の人
Creator:-[ Chiya ]-
Version:Forbidden Rose
Source:東方
Tags:tohou un owen was her hartmann's youkai girl flandre scarlet koishi komeji
BeatmapID:1322262
BeatmapSetID:625439

[Difficulty]
HPDrainRate:0.4
CircleSize:4.3
OverallDifficulty:8.5
ApproachRate:9.5
SliderMultiplier:1.8
SliderTickRate:1

[Events]
//Background and Video events
0,0,"flankoishi.jpg",0,0
//Break Periods
2,92949,93832
2,173842,174546
2,191699,193117
//Storyboard Layer 0 (Background)
//Storyboard Layer 1 (Fail)
//Storyboard Layer 2 (Pass)
//Storyboard Layer 3 (Foreground)
//Storyboard Sound Samples

[TimingPoints]
1500,357.142857142857,4,2,0,80,1,0
12571,-83.3333333333333,4,1,0,80,0,0
20428,-50,4,1,0,80,0,0
20785,-83.3333333333333,4,1,0,80,0,0
24357,-66.6666666666667,4,3,0,80,0,1
34357,-50,4,3,0,80,0,0
34624,-50,4,2,0,5,0,0
34714,-50,4,3,0,80,0,0
35249,-50,4,3,0,5,0,0
35428,-100,4,2,0,80,0,0
58642,-100,4,1,0,80,0,0
66142,-50,4,1,0,80,0,0
66499,-100,4,1,0,80,0,0
77571,-50,4,1,0,80,0,0
77928,-100,4,1,0,80,0,0
81499,-100,4,3,0,80,0,0
94357,-90.9090909090909,4,2,0,80,0,0
117214,-90.9090909090909,4,3,0,80,0,0
118107,-83.3333333333333,4,3,0,80,0,0
118821,-76.9230769230769,4,3,0,80,0,0
119535,-71.4285714285714,4,3,0,80,0,0
120249,-66.6666666666667,4,3,0,80,0,0
120964,-62.5,4,3,0,80,0,0
121678,-58.8235294117647,4,3,0,80,0,0
123107,-71.4285714285714,4,3,0,80,0,0
123821,-66.6666666666667,4,3,0,80,0,0
125249,-62.5,4,3,0,80,0,0
126678,-58.8235294117647,4,3,0,80,0,0
127392,-55.5555555555556,4,3,0,80,0,0
128107,-50,4,3,0,80,0,0
129357,-100,4,2,0,80,0,0
140785,-83.3333333333333,4,1,0,80,0,0
151857,-50,4,1,0,80,0,0
152214,-106.382978723404,4,2,0,80,0,0
154357,-100,4,2,0,80,0,0
162214,-200,4,2,0,80,0,0
162749,-100,4,2,0,80,0,0
193642,-83.3333333333333,4,1,0,80,0,1
216499,-71.4285714285714,4,2,0,80,0,1
227928,-58.8235294117647,4,3,0,80,0,1
229982,-58.8235294117647,4,3,0,5,0,1
230071,-58.8235294117647,4,3,0,80,0,1
230339,-58.8235294117647,4,3,0,5,0,1
230428,-58.8235294117647,4,3,0,80,0,1
230696,-58.8235294117647,4,3,0,5,0,1
230785,-58.8235294117647,4,3,0,80,0,1
232839,-58.8235294117647,4,3,0,5,0,1
232928,-58.8235294117647,4,3,0,80,0,1
233196,-58.8235294117647,4,3,0,5,0,1
233285,-58.8235294117647,4,3,0,80,0,1
236053,-58.8235294117647,4,3,0,5,0,1
236142,-58.8235294117647,4,3,0,80,0,1
236410,-58.8235294117647,4,3,0,5,0,1
236499,-58.8235294117647,4,3,0,80,0,1
238999,-50,4,2,0,80,0,1
249357,-200,4,2,0,80,0,1
250428,-50,4,3,0,80,0,1
260785,-200,4,3,0,80,0,1
265785,-83.3333333333333,4,2,0,5,0,0

[HitObjects]
196,268,1500,5,12,0:0:0:0:
160,348,1678,1,2,0:0:0:0:
100,280,1857,1,8,0:0:0:0:
124,60,2035,2,0,P|76:120|88:148,1,90,2|8,0:0|0:0,0:0:0:0:
152,144,2392,2,0,P|160:192|128:216,1,90,2|8,0:0|0:0,0:0:0:0:
40,200,2749,1,2,0:0:0:0:
40,200,2839,1,0,0:0:0:0:
40,200,2928,1,8,0:0:0:0:
264,304,3107,1,0,0:0:0:0:
232,324,3285,5,8,0:0:0:0:
80,56,3464,1,0,0:0:0:0:
64,32,3642,5,8,0:0:0:0:
68,320,3821,1,0,0:0:0:0:
68,352,3999,5,8,0:0:0:0:
144,80,4178,1,0,0:0:0:0:
132,112,4357,5,8,0:0:0:0:
0,264,4535,1,2,0:0:0:0:
160,208,4714,1,8,0:0:0:0:
0,64,4892,2,0,P|60:40|76:56,1,90,2|8,0:0|0:0,0:0:0:0:
148,104,5249,1,2,0:0:0:0:
240,104,5428,2,0,P|252:56|220:24,1,90,8|2,0:0|0:0,0:0:0:0:
228,27,5696,1,0,0:0:0:0:
228,27,5785,1,8,0:0:0:0:
176,292,5964,1,0,0:0:0:0:
176,292,6142,5,8,0:0:0:0:
64,72,6321,1,0,0:0:0:0:
64,72,6499,5,8,0:0:0:0:
164,180,6678,1,0,0:0:0:0:
164,180,6857,1,8,0:0:0:0:
164,180,7035,6,0,L|164:124,2,45,2|0|8,0:0|0:0|0:0,0:0:0:0:
120,260,7392,1,2,0:0:0:0:
212,260,7571,1,8,0:0:0:0:
104,160,7749,1,2,0:0:0:0:
220,160,7928,1,8,0:0:0:0:
252,68,8107,1,2,0:0:0:0:
64,64,8285,1,8,0:0:0:0:
0,140,8464,1,2,0:0:0:0:
316,144,8642,1,8,0:0:0:0:
44,212,8821,6,0,L|124:156,1,90,2|8,0:0|0:0,0:0:0:0:
272,224,9178,2,0,L|196:156,1,90,2|8,0:0|0:0,0:0:0:0:
116,104,9535,1,0,0:0:0:0:
116,104,9624,1,0,0:0:0:0:
116,104,9714,1,8,0:0:0:0:
56,232,9892,1,0,0:0:0:0:
0,356,10071,5,8,0:0:0:0:
228,352,10249,1,2,0:0:0:0:
72,356,10428,1,8,0:0:0:0:
156,356,10607,1,2,0:0:0:0:
0,356,10785,1,8,0:0:0:0:
228,352,10964,1,2,0:0:0:0:
72,356,11142,1,8,0:0:0:0:
156,356,11321,5,2,0:0:0:0:
228,352,11499,1,8,0:0:0:0:
72,356,11678,1,2,0:0:0:0:
0,356,11857,1,8,0:0:0:0:
156,356,12035,1,2,0:0:0:0:
228,352,12214,1,8,0:0:0:0:
400,288,12571,5,0,0:0:0:0:
400,288,12928,1,8,0:0:0:0:
260,360,13107,1,0,0:0:0:0:
288,196,13285,1,0,0:0:0:0:
396,112,13464,1,0,0:0:0:0:
508,212,13642,1,8,0:0:0:0:
416,304,13821,1,0,0:0:0:0:
364,192,13999,2,0,P|300:152|316:8,1,215.999993408203,0|8,0:0|0:0,0:0:0:0:
408,80,14535,5,0,0:0:0:0:
512,144,14714,1,0,0:0:0:0:
284,200,14892,1,0,0:0:0:0:
512,144,15071,1,8,0:0:0:0:
392,176,15249,1,0,0:0:0:0:
284,200,15428,1,0,0:0:0:0:
512,144,15607,1,0,0:0:0:0:
284,72,15785,5,8,0:0:0:0:
244,168,15964,2,0,P|204:104|212:72,1,107.999996704102,0|8,0:0|0:0,0:0:0:0:
316,204,16321,2,0,P|348:152|340:100,1,107.999996704102,0|8,0:0|0:0,0:0:0:0:
236,272,16678,1,0,0:0:0:0:
272,312,16767,1,0,0:0:0:0:
320,336,16857,1,8,0:0:0:0:
404,344,17035,1,0,0:0:0:0:
196,352,17214,1,8,0:0:0:0:
276,352,17392,1,0,0:0:0:0:
356,352,17571,1,8,0:0:0:0:
276,352,17749,5,0,0:0:0:0:
356,352,17928,1,8,0:0:0:0:
432,352,18107,1,0,0:0:0:0:
508,352,18285,1,8,0:0:0:0:
432,352,18464,1,0,0:0:0:0:
508,352,18642,1,8,0:0:0:0:
504,204,18821,1,0,0:0:0:0:
504,204,18999,6,0,P|488:128|432:208,1,215.999993408203,0|8,0:0|0:0,0:0:0:0:
423,197,19535,1,0,0:0:0:0:
423,197,19714,2,0,P|375:121|335:213,1,215.999993408203,0|8,0:0|0:0,0:0:0:0:
324,197,20249,1,0,0:0:0:0:
324,197,20428,2,0,P|367:121|411:213,2,180,0|0|8,0:0|0:0|0:0,0:0:0:0:
324,197,20964,1,0,0:0:0:0:
324,197,21142,1,0,0:0:0:0:
324,197,21321,1,0,0:0:0:0:
400,324,21499,5,8,0:0:0:0:
448,248,21678,1,0,0:0:0:0:
376,192,21857,1,8,0:0:0:0:
456,140,22035,1,0,0:0:0:0:
364,88,22214,1,8,0:0:0:0:
464,44,22392,1,0,0:0:0:0:
464,44,22482,1,0,0:0:0:0:
464,44,22571,1,8,0:0:0:0:
464,44,22749,1,0,0:0:0:0:
464,44,22928,1,8,0:0:0:0:
256,192,23107,12,0,24178,0:0:0:0:
28,376,24357,5,8,0:0:0:0:
120,348,24535,1,2,0:0:0:0:
156,340,24624,1,0,0:0:0:0:
188,316,24714,2,0,P|172:236|116:252,1,135.000005149842,8|2,0:0|0:0,0:0:0:0:
76,292,25071,1,8,0:0:0:0:
36,304,25160,1,0,0:0:0:0:
0,308,25249,2,0,P|-12:228|32:200,1,135.000005149842,2|8,0:0|0:0,0:0:0:0:
64,192,25517,1,0,0:0:0:0:
104,184,25607,2,0,P|128:152|112:120,2,67.5000025749208,2|0|8,0:0|0:0|0:0,0:0:0:0:
92,216,25874,5,0,0:0:0:0:
112,244,25964,2,0,P|180:224|200:156,1,135.000005149842,2|8,0:0|0:0,0:0:0:0:
208,92,26321,1,2,0:0:0:0:
116,48,26499,1,8,0:0:0:0:
84,64,26589,1,0,0:0:0:0:
52,80,26678,2,0,P|24:152|56:160,1,135.000005149842,2|8,0:0|0:0,0:0:0:0:
88,160,26946,1,0,0:0:0:0:
128,152,27035,2,0,P|168:168|160:204,2,67.5000025749208,2|0|8,0:0|0:0|0:0,0:0:0:0:
112,112,27303,1,0,0:0:0:0:
132,76,27392,2,0,P|200:60|212:120,1,135.000005149842,2|8,0:0|0:0,0:0:0:0:
169,187,27749,5,2,0:0:0:0:
96,204,27928,1,8,0:0:0:0:
64,220,28017,1,0,0:0:0:0:
32,232,28107,2,0,P|8:296|64:344,1,135.000005149842,2|8,0:0|0:0,0:0:0:0:
96,336,28374,1,0,0:0:0:0:
124,320,28464,2,0,L|176:256,1,67.5000025749208,2|0,0:0|0:0,0:0:0:0:
180,236,28642,2,0,L|196:164,1,67.5000025749208,8|0,0:0|0:0,0:0:0:0:
160,152,28821,2,0,L|120:72,1,67.5000025749208,2|0,0:0|0:0,0:0:0:0:
192,116,28999,2,0,L|208:48,1,67.5000025749208,8|0,0:0|0:0,0:0:0:0:
152,80,29178,2,0,L|116:24,1,67.5000025749208,2|0,0:0|0:0,0:0:0:0:
104,144,29357,6,0,L|48:96,1,67.5000025749208,8|0,0:0|0:0,0:0:0:0:
176,252,29535,2,0,L|212:184,1,67.5000025749208,2|0,0:0|0:0,0:0:0:0:
64,224,29714,2,0,L|0:184,1,67.5000025749208,8|0,0:0|0:0,0:0:0:0:
72,352,29892,2,0,L|124:296,1,67.5000025749208,2|0,0:0|0:0,0:0:0:0:
32,380,30071,5,8,0:0:0:0:
120,348,30249,1,2,0:0:0:0:
156,340,30338,1,0,0:0:0:0:
188,316,30428,2,0,P|172:236|116:252,1,135.000005149842,8|2,0:0|0:0,0:0:0:0:
76,292,30785,1,8,0:0:0:0:
36,304,30874,1,0,0:0:0:0:
0,308,30963,2,0,P|-12:228|32:200,1,135.000005149842,2|8,0:0|0:0,0:0:0:0:
64,192,31231,1,0,0:0:0:0:
104,184,31321,2,0,P|128:152|112:120,2,67.5000025749208,2|0|8,0:0|0:0|0:0,0:0:0:0:
92,216,31588,5,0,0:0:0:0:
112,244,31678,2,0,P|180:224|200:156,1,135.000005149842,2|8,0:0|0:0,0:0:0:0:
208,92,32035,1,2,0:0:0:0:
116,48,32213,1,8,0:0:0:0:
84,64,32303,1,0,0:0:0:0:
52,80,32392,2,0,P|24:152|56:160,1,135.000005149842,2|8,0:0|0:0,0:0:0:0:
88,160,32660,1,0,0:0:0:0:
128,152,32749,2,0,P|168:168|160:204,2,67.5000025749208,2|0|8,0:0|0:0|0:0,0:0:0:0:
112,112,33017,1,0,0:0:0:0:
132,76,33106,2,0,P|200:60|212:120,1,135.000005149842,2|8,0:0|0:0,0:0:0:0:
200,132,33374,5,0,0:0:0:0:
176,148,33464,2,0,P|136:224|184:256,1,135.000005149842,2|8,0:0|0:0,0:0:0:0:
184,260,33732,2,0,L|240:304,3,67.5000025749208,0|2|0|8,0:0|0:0|0:0|0:0,0:0:0:0:
240,328,34089,2,0,L|164:368,2,67.5000025749208,0|2|0,0:0|0:0|0:0,0:0:0:0:
204,324,34357,2,0,P|64:304|24:192,1,270,8|0,0:0|0:0,0:0:0:0:
44,160,34714,2,0,P|300:184|200:324,1,540
296,72,35428,6,2,L|320:64,7,22.5
338,57,35785,1,8,0:0:0:0:
352,164,35964,1,0,0:0:0:0:
352,164,36142,1,0,0:0:0:0:
472,92,36321,1,0,0:0:0:0:
472,92,36499,1,8,0:0:0:0:
344,340,36678,1,0,0:0:0:0:
344,340,36857,1,0,0:0:0:0:
344,48,37035,1,0,0:0:0:0:
344,48,37214,5,8,0:0:0:0:
480,356,37392,1,0,0:0:0:0:
480,356,37571,1,0,0:0:0:0:
296,192,37749,1,0,0:0:0:0:
296,192,37928,1,8,0:0:0:0:
312,56,38107,1,0,0:0:0:0:
312,56,38285,2,0,P|416:56|476:120,1,180,0|8,0:0|0:0,0:0:0:0:
464,148,38732,5,0,0:0:0:0:
448,188,38821,1,0,0:0:0:0:
416,220,38910,1,0,0:0:0:0:
376,236,38999,1,0,0:0:0:0:
332,224,39089,1,0,0:0:0:0:
300,192,39178,1,0,0:0:0:0:
284,152,39267,1,0,0:0:0:0:
304,148,39357,6,0,P|352:220|472:220,1,180,8|0,0:0|0:0,0:0:0:0:
460,196,39803,1,0,0:0:0:0:
436,160,39892,1,0,0:0:0:0:
392,164,39982,1,0,0:0:0:0:
360,196,40071,2,0,P|396:276|424:208,2,180,8|0|8,0:0|0:0|0:0,0:0:0:0:
404,180,40874,1,0,0:0:0:0:
448,188,40964,1,0,0:0:0:0:
472,224,41053,1,0,0:0:0:0:
476,268,41142,2,2,L|484:232,7,22.5
472,296,41499,5,8,0:0:0:0:
436,320,41589,1,0,0:0:0:0:
392,324,41678,1,0,0:0:0:0:
352,304,41767,1,0,0:0:0:0:
308,288,41857,2,0,P|252:236|336:240,1,180,0|8,0:0|0:0,0:0:0:0:
368,212,42303,1,0,0:0:0:0:
412,200,42392,1,0,0:0:0:0:
452,176,42482,1,0,0:0:0:0:
484,144,42571,2,0,P|484:84|424:136,3,180,0|8|0|8,0:0|0:0|0:0|0:0,0:0:0:0:
444,176,43732,5,0,0:0:0:0:
448,220,43821,1,0,0:0:0:0:
440,264,43910,1,0,0:0:0:0:
416,304,43999,2,0,P|368:360|352:280,1,180,0|8,0:0|0:0,0:0:0:0:
372,256,44446,1,0,0:0:0:0:
404,224,44535,1,0,0:0:0:0:
436,192,44624,1,0,0:0:0:0:
476,168,44714,2,0,P|500:80|460:88,1,180,0|8,0:0|0:0,0:0:0:0:
424,100,45160,5,0,0:0:0:0:
380,116,45249,1,0,0:0:0:0:
336,124,45339,1,0,0:0:0:0:
292,136,45428,2,0,P|296:64|404:56,1,180,0|8,0:0|0:0,0:0:0:0:
432,40,45874,1,0,0:0:0:0:
476,48,45964,1,0,0:0:0:0:
504,84,46053,1,0,0:0:0:0:
480,120,46142,2,0,B|460:196|460:196|508:292,1,180,0|8,0:0|0:0,0:0:0:0:
296,348,46857,6,2,L|296:320,7,22.5
296,368,47214,1,8,0:0:0:0:
296,240,47571,2,2,L|296:204,7,22.5
296,264,47928,1,8,0:0:0:0:
480,324,48285,2,2,L|480:296,7,22.5
480,344,48642,1,8,0:0:0:0:
480,216,48999,2,2,L|480:180,7,22.5
480,240,49356,1,8,0:0:0:0:
480,40,49714,5,0,0:0:0:0:
456,76,49803,1,0,0:0:0:0:
440,116,49892,1,0,0:0:0:0:
436,160,49982,1,0,0:0:0:0:
464,196,50071,1,8,0:0:0:0:
400,260,50249,1,0,0:0:0:0:
336,324,50428,1,0,0:0:0:0:
304,292,50517,1,0,0:0:0:0:
284,252,50607,1,0,0:0:0:0:
272,208,50696,1,0,0:0:0:0:
264,164,50785,1,8,0:0:0:0:
372,104,50964,1,0,0:0:0:0:
480,40,51142,5,0,0:0:0:0:
480,40,51232,1,0,0:0:0:0:
480,40,51321,1,0,0:0:0:0:
480,40,51410,1,0,0:0:0:0:
480,40,51499,1,8,0:0:0:0:
388,40,51678,1,0,0:0:0:0:
300,52,51857,1,0,0:0:0:0:
300,52,51946,1,0,0:0:0:0:
300,52,52035,1,0,0:0:0:0:
300,52,52124,1,0,0:0:0:0:
300,52,52214,1,8,0:0:0:0:
472,220,52571,6,2,L|472:256,7,22.5
468,264,52928,1,8,0:0:0:0:
452,304,53017,1,0,0:0:0:0:
412,324,53107,1,0,0:0:0:0:
368,320,53196,1,0,0:0:0:0:
332,292,53285,1,0,0:0:0:0:
332,248,53374,1,0,0:0:0:0:
360,212,53464,1,0,0:0:0:0:
392,180,53553,1,0,0:0:0:0:
424,136,53642,5,8,0:0:0:0:
428,92,53732,1,0,0:0:0:0:
384,80,53821,1,0,0:0:0:0:
344,96,53910,1,0,0:0:0:0:
348,140,53999,1,0,0:0:0:0:
360,176,54089,1,0,0:0:0:0:
396,204,54178,1,0,0:0:0:0:
436,224,54267,1,0,0:0:0:0:
476,248,54357,5,8,0:0:0:0:
488,292,54446,1,0,0:0:0:0:
492,336,54535,1,0,0:0:0:0:
448,344,54624,1,0,0:0:0:0:
404,332,54714,1,0,0:0:0:0:
372,304,54803,1,0,0:0:0:0:
352,264,54892,1,0,0:0:0:0:
332,224,54982,1,0,0:0:0:0:
304,188,55071,5,8,0:0:0:0:
308,144,55160,1,0,0:0:0:0:
328,104,55249,1,0,0:0:0:0:
340,60,55339,1,0,0:0:0:0:
380,40,55428,1,0,0:0:0:0:
424,40,55517,1,0,0:0:0:0:
464,60,55607,1,0,0:0:0:0:
488,100,55696,1,0,0:0:0:0:
500,144,55785,6,2,L|512:184,7,22.5,10|2|2|2|2|2|2|2,0:0|0:0|0:0|0:0|0:0|0:0|0:0|0:0,0:0:0:0:
364,184,56142,2,2,L|356:212,7,22.5
480,252,56499,2,2,L|496:284,7,22.5,10|2|2|2|2|2|2|2,0:0|0:0|0:0|0:0|0:0|0:0|0:0|0:0,0:0:0:0:
372,292,56857,2,2,L|360:324,7,22.5
304,228,57214,2,2,L|264:244,7,22.5,10|2|2|2|2|2|2|2,0:0|0:0|0:0|0:0|0:0|0:0|0:0|0:0,0:0:0:0:
408,100,57571,2,2,L|388:72,7,22.5
388,220,57928,2,2,L|376:200,15,22.5,10|2|2|2|2|2|2|2|10|2|10|2|10|2|10|2,0:0|0:0|0:0|0:0|0:0|0:0|0:0|0:0|0:0|0:0|0:0|0:0|0:0|0:0|0:0|0:0,0:0:0:0:
368,168,58642,5,14,0:0:0:0:
396,132,58732,1,0,0:0:0:0:
384,88,58821,1,0,0:0:0:0:
412,52,58910,1,0,0:0:0:0:
440,76,58999,1,8,0:0:0:0:
432,112,59089,1,0,0:0:0:0:
396,132,59178,1,0,0:0:0:0:
368,96,59267,1,0,0:0:0:0:
336,64,59357,1,8,0:0:0:0:
292,56,59446,5,0,0:0:0:0:
264,92,59535,1,0,0:0:0:0:
280,136,59624,1,0,0:0:0:0:
320,160,59714,1,8,0:0:0:0:
364,152,59803,1,0,0:0:0:0:
408,156,59892,1,0,0:0:0:0:
440,188,59982,1,0,0:0:0:0:
440,232,60071,1,8,0:0:0:0:
416,268,60160,1,0,0:0:0:0:
372,276,60249,1,0,0:0:0:0:
332,296,60339,1,0,0:0:0:0:
292,316,60428,5,8,0:0:0:0:
240,224,60607,1,0,0:0:0:0:
276,104,60785,1,8,0:0:0:0:
512,0,61142,1,8,0:0:0:0:
512,384,61499,5,8,0:0:0:0:
260,0,61678,1,2,0:0:0:0:
500,192,61857,1,8,0:0:0:0:
260,384,62035,1,2,0:0:0:0:
396,4,62214,1,8,0:0:0:0:
260,192,62392,1,2,0:0:0:0:
304,192,62482,1,0,0:0:0:0:
348,192,62571,1,8,0:0:0:0:
396,192,62749,5,2,0:0:0:0:
440,192,62928,1,8,0:0:0:0:
484,192,63107,1,2,0:0:0:0:
484,104,63285,1,8,0:0:0:0:
484,272,63464,1,2,0:0:0:0:
432,344,63642,1,8,0:0:0:0:
400,312,63732,1,0,0:0:0:0:
356,316,63821,1,0,0:0:0:0:
324,348,63910,1,0,0:0:0:0:
288,360,63999,6,2,L|288:336,7,22.5
288,328,64357,1,8,0:0:0:0:
288,284,64446,1,0,0:0:0:0:
288,240,64535,1,0,0:0:0:0:
288,196,64624,1,0,0:0:0:0:
288,152,64714,2,0,P|336:108|304:168,1,180,0|8,0:0|0:0,0:0:0:0:
280,172,65160,1,0,0:0:0:0:
244,172,65249,1,0,0:0:0:0:
220,148,65339,1,0,0:0:0:0:
236,116,65428,2,0,P|272:176|224:144,1,180,0|8,0:0|0:0,0:0:0:0:
204,128,65874,5,0,0:0:0:0:
204,92,65964,1,0,0:0:0:0:
228,64,66053,1,0,0:0:0:0:
268,44,66142,2,0,P|304:84|244:52,2,180,0|0|8,0:0|0:0|0:0,0:0:0:0:
268,44,66857,1,0,0:0:0:0:
504,380,67214,5,8,0:0:0:0:
384,204,67392,1,2,0:0:0:0:
268,384,67571,1,8,0:0:0:0:
504,380,67749,1,2,0:0:0:0:
268,384,67928,1,8,0:0:0:0:
384,204,68107,1,2,0:0:0:0:
384,180,68196,1,0,0:0:0:0:
384,156,68285,1,8,0:0:0:0:
268,384,68464,1,2,0:0:0:0:
504,380,68642,1,8,0:0:0:0:
256,192,68821,12,0,69892,0:0:0:0:
328,72,70071,5,8,0:0:0:0:
464,128,70249,2,0,L|472:184,2,45,2|0|8,0:0|0:0|0:0,0:0:0:0:
460,100,70517,1,0,0:0:0:0:
456,72,70607,1,0,0:0:0:0:
336,232,70785,5,8,0:0:0:0:
472,288,70964,2,0,L|480:344,2,45,2|0|8,0:0|0:0|0:0,0:0:0:0:
468,260,71232,1,0,0:0:0:0:
464,232,71321,1,0,0:0:0:0:
292,356,71499,1,8,0:0:0:0:
352,172,71857,2,0,L|328:160,3,22.5,8|0|0|0,0:0|0:0|0:0|0:0,0:0:0:0:
352,172,72035,2,0,L|376:148,3,22.5,2|0|0|0,0:0|0:0|0:0|0:0,0:0:0:0:
352,172,72214,2,0,L|372:200,4,22.5,8|0|0|0|2,0:0|0:0|0:0|0:0|0:0,0:0:0:0:
352,172,72571,1,8,0:0:0:0:
512,0,72928,5,8,0:0:0:0:
264,376,73107,1,2,0:0:0:0:
512,0,73285,1,8,0:0:0:0:
264,376,73464,1,2,0:0:0:0:
512,376,73642,1,8,0:0:0:0:
264,12,73821,1,2,0:0:0:0:
512,376,73999,1,8,0:0:0:0:
264,12,74178,1,2,0:0:0:0:
508,192,74357,1,8,0:0:0:0:
256,188,74535,1,2,0:0:0:0:
508,192,74714,1,8,0:0:0:0:
256,188,74892,1,2,0:0:0:0:
508,192,75071,1,8,0:0:0:0:
376,192,75428,2,2,L|376:164,7,22.5
376,212,75785,6,0,P|340:272|432:272,1,180,8|0,0:0|0:0,0:0:0:0:
448,252,76232,1,0,0:0:0:0:
436,208,76321,1,0,0:0:0:0:
392,208,76410,1,0,0:0:0:0:
376,248,76499,2,0,P|344:304|432:372,1,180,8|0,0:0|0:0,0:0:0:0:
440,336,76946,5,0,0:0:0:0:
424,296,77035,1,0,0:0:0:0:
440,256,77124,1,0,0:0:0:0:
484,248,77214,1,8,0:0:0:0:
480,204,77303,1,0,0:0:0:0:
448,176,77392,1,0,0:0:0:0:
456,132,77482,1,0,0:0:0:0:
416,108,77571,6,0,B|392:72|320:68|348:148|360:156|408:160|416:108,2,180,0|0|8,0:0|0:0|0:0,0:0:0:0:
356,276,78285,1,0,0:0:0:0:
284,24,78642,1,8,0:0:0:0:
380,292,78821,1,2,0:0:0:0:
392,88,78999,1,8,0:0:0:0:
312,200,79178,5,2,0:0:0:0:
480,360,79357,1,8,0:0:0:0:
304,80,79535,1,2,0:0:0:0:
336,88,79624,1,0,0:0:0:0:
364,96,79714,1,8,0:0:0:0:
488,128,79892,1,2,0:0:0:0:
256,192,80071,1,8,0:0:0:0:
256,192,80160,12,0,81321,0:0:0:0:
236,172,81499,5,8,0:0:0:0:
208,56,81678,1,2,0:0:0:0:
164,52,81768,1,0,0:0:0:0:
120,60,81857,2,0,P|64:72|72:116,1,90,8|2,0:0|0:0,0:0:0:0:
136,144,82214,1,8,0:0:0:0:
224,128,82392,1,2,0:0:0:0:
236,172,82482,1,0,0:0:0:0:
208,208,82571,2,0,P|176:256|136:240,1,90,8|2,0:0|0:0,0:0:0:0:
112,228,82839,1,0,0:0:0:0:
72,204,82928,2,0,L|32:172,2,45,8|0|2,0:0|0:0|0:0,0:0:0:0:
112,184,83196,5,0,0:0:0:0:
152,160,83285,2,0,P|200:128|172:96,1,90,8|2,0:0|0:0,0:0:0:0:
116,60,83642,1,8,0:0:0:0:
40,108,83821,1,2,0:0:0:0:
24,148,83910,1,0,0:0:0:0:
52,184,83999,2,0,P|100:224|72:264,1,90,8|2,0:0|0:0,0:0:0:0:
64,276,84267,1,0,0:0:0:0:
96,308,84357,2,0,L|84:356,2,45,8|0|2,0:0|0:0|0:0,0:0:0:0:
132,284,84624,1,0,0:0:0:0:
164,252,84714,2,0,P|148:180|116:180,1,90,8|2,0:0|0:0,0:0:0:0:
88,112,85071,5,8,0:0:0:0:
148,48,85249,1,2,0:0:0:0:
192,36,85339,1,0,0:0:0:0:
228,64,85428,2,0,P|256:128|240:160,1,90,8|2,0:0|0:0,0:0:0:0:
172,188,85785,2,0,L|124:224,1,45,8|0,0:0|0:0,0:0:0:0:
152,304,85964,2,0,L|104:336,1,45,2|0,0:0|0:0,0:0:0:0:
44,280,86142,2,0,L|0:312,1,45,8|0,0:0|0:0,0:0:0:0:
56,168,86321,2,0,L|8:208,1,45,2|0,0:0|0:0,0:0:0:0:
152,92,86499,2,0,L|104:128,1,45,8|0,0:0|0:0,0:0:0:0:
176,216,86678,2,0,L|132:248,1,45,2|0,0:0|0:0,0:0:0:0:
176,328,86857,2,0,L|128:352,1,45,8|0,0:0|0:0,0:0:0:0:
68,312,87035,2,0,L|16:344,1,45,2|0,0:0|0:0,0:0:0:0:
56,224,87214,5,8,0:0:0:0:
40,136,87392,1,2,0:0:0:0:
44,92,87482,1,0,0:0:0:0:
64,52,87571,2,0,P|124:24|128:44,1,90,8|2,0:0|0:0,0:0:0:0:
188,76,87928,1,8,0:0:0:0:
164,164,88107,1,2,0:0:0:0:
120,160,88196,1,0,0:0:0:0:
80,140,88285,2,0,P|32:156|20:200,1,90,8|2,0:0|0:0,0:0:0:0:
56,216,88553,1,0,0:0:0:0:
92,244,88642,2,0,P|112:296|84:328,1,90,8|2,0:0|0:0,0:0:0:0:
184,324,88999,5,8,0:0:0:0:
212,240,89178,1,2,0:0:0:0:
220,196,89267,1,0,0:0:0:0:
208,152,89357,2,0,P|168:96|120:112,1,90,0|2,0:0|0:0,0:0:0:0:
120,64,89624,1,0,0:0:0:0:
76,52,89714,2,0,P|16:120|20:132,1,90,8|2,0:0|0:0,0:0:0:0:
44,140,89982,1,0,0:0:0:0:
76,172,90071,2,0,L|112:208,2,45,8|0|2,0:0|0:0|0:0,0:0:0:0:
32,188,90339,1,0,0:0:0:0:
36,232,90428,2,0,P|40:300|76:316,1,90,8|2,0:0|0:0,0:0:0:0:
144,320,90785,5,8,0:0:0:0:
148,220,90964,1,2,0:0:0:0:
184,192,91053,1,0,0:0:0:0:
204,152,91142,2,0,P|208:88|180:84,1,90,8|2,0:0|0:0,0:0:0:0:
152,84,91410,1,0,0:0:0:0:
112,104,91499,2,0,L|40:148,1,45,8|0,0:0|0:0,0:0:0:0:
72,216,91678,2,0,L|24:244,1,45,2|0,0:0|0:0,0:0:0:0:
160,272,91857,2,0,L|220:260,1,45,8|0,0:0|0:0,0:0:0:0:
84,344,92035,2,0,L|40:364,1,45,2|0,0:0|0:0,0:0:0:0:
192,356,92214,2,0,L|260:356,1,45,8|0,0:0|0:0,0:0:0:0:
237,356,92392,5,0,0:0:0:0:
237,356,92482,1,0,0:0:0:0:
237,356,92571,1,0,0:0:0:0:
448,68,92749,1,0,0:0:0:0:
134,45,94357,5,0,0:0:0:0:
405,55,94536,1,2,0:0:0:0:
396,311,94714,1,0,0:0:0:0:
125,301,94893,1,2,0:0:0:0:
512,360,95071,6,2,P|444:312|388:340,2,148.50000453186
370,63,95785,1,0,0:0:0:0:
370,334,95964,1,2,0:0:0:0:
113,334,96142,1,0,0:0:0:0:
113,63,96321,1,2,0:0:0:0:
420,140,96499,5,0,0:0:0:0:
280,373,96678,1,2,0:0:0:0:
59,240,96856,1,0,0:0:0:0:
199,8,97035,1,2,0:0:0:0:
378,45,97214,5,0,0:0:0:0:
107,55,97392,1,2,0:0:0:0:
116,311,97571,1,0,0:0:0:0:
387,301,97750,1,0,0:0:0:0:
364,160,97928,6,2,P|304:128|264:192,2,148.50000453186
256,364,98642,1,0,0:0:0:0:
438,162,98821,1,2,0:0:0:0:
246,0,98999,1,0,0:0:0:0:
65,192,99178,1,2,0:0:0:0:
398,318,99357,5,0,0:0:0:0:
99,318,99536,1,2,0:0:0:0:
99,34,99714,1,0,0:0:0:0:
398,34,99892,1,2,0:0:0:0:
336,296,100071,5,0,0:0:0:0:
332,114,100250,1,2,0:0:0:0:
164,114,100428,1,0,0:0:0:0:
164,292,100607,1,2,0:0:0:0:
336,296,100785,2,2,P|400:292|372:360,2,148.50000453186
283,320,101499,5,0,0:0:0:0:
391,171,101678,1,2,0:0:0:0:
250,68,101856,1,0,0:0:0:0:
141,217,102035,1,2,0:0:0:0:
324,267,102214,5,0,0:0:0:0:
324,108,102393,1,0,0:0:0:0:
172,108,102571,1,0,0:0:0:0:
172,267,102750,1,2,0:0:0:0:
336,120,102928,5,0,0:0:0:0:
336,269,103107,1,2,0:0:0:0:
194,269,103285,1,0,0:0:0:0:
194,120,103464,1,2,0:0:0:0:
352,120,103642,2,2,L|508:116,2,148.50000453186
185,120,104357,5,0,0:0:0:0:
188,288,104536,1,2,0:0:0:0:
332,292,104714,1,0,0:0:0:0:
328,120,104892,1,2,0:0:0:0:
185,120,105071,1,0,0:0:0:0:
188,288,105249,1,2,0:0:0:0:
100,340,105785,5,0,0:0:0:0:
400,48,105964,1,2,0:0:0:0:
400,48,106142,1,0,0:0:0:0:
100,340,106321,1,2,0:0:0:0:
100,340,106499,2,2,P|48:304|68:228,2,148.50000453186
428,68,107214,1,0,0:0:0:0:
276,196,107392,1,2,0:0:0:0:
424,340,107571,1,0,0:0:0:0:
288,72,107749,5,2,0:0:0:0:
136,200,107927,1,0,0:0:0:0:
284,344,108106,1,2,0:0:0:0:
100,192,108464,6,0,L|-8:192,1,99.0000030212403,2|0,0:0|0:0,0:0:0:0:
84,48,108821,1,2,0:0:0:0:
208,196,109000,1,0,0:0:0:0:
80,336,109178,1,2,0:0:0:0:
208,196,109357,2,2,L|44:196,2,148.50000453186
456,68,110071,5,0,0:0:0:0:
304,196,110249,1,2,0:0:0:0:
452,340,110428,1,0,0:0:0:0:
44,64,110607,5,2,0:0:0:0:
196,192,110785,1,0,0:0:0:0:
48,336,110964,1,2,0:0:0:0:
412,196,111321,6,0,L|536:196,1,99.0000030212403,2|0,0:0|0:0,0:0:0:0:
372,344,111678,1,2,0:0:0:0:
248,212,111857,1,0,0:0:0:0:
128,348,112035,1,2,0:0:0:0:
100,192,112214,2,2,L|-80:192,2,148.50000453186
408,184,112928,5,0,0:0:0:0:
256,8,113107,1,2,0:0:0:0:
100,188,113285,1,0,0:0:0:0:
412,211,113464,5,2,0:0:0:0:
256,367,113643,1,0,0:0:0:0:
104,207,113821,1,2,0:0:0:0:
256,268,114178,2,0,L|256:384,1,99.0000030212403,2|0,0:0|0:0,0:0:0:0:
412,112,114535,5,2,0:0:0:0:
256,268,114714,1,0,0:0:0:0:
104,108,114892,1,2,0:0:0:0:
252,132,115071,2,2,L|252:-24,2,148.50000453186
20,368,115785,1,0,0:0:0:0:
248,196,115964,1,2,0:0:0:0:
484,368,116142,1,0,0:0:0:0:
248,196,116321,1,2,0:0:0:0:
496,20,116499,1,0,0:0:0:0:
248,196,116678,1,2,0:0:0:0:
20,24,116857,1,0,0:0:0:0:
248,196,117035,1,2,0:0:0:0:
248,196,117214,5,8,0:0:0:0:
424,332,117392,2,2,L|424:208,1,99.0000030212403,2|10,0:0|0:0,0:0:0:0:
248,196,117749,1,2,0:0:0:0:
248,168,117839,1,0,0:0:0:0:
248,140,117928,1,8,0:0:0:0:
420,176,118107,2,2,L|420:48,1,107.999996704102,2|10,0:0|0:0,0:0:0:0:
248,196,118464,1,2,0:0:0:0:
248,160,118553,1,0,0:0:0:0:
248,124,118642,1,8,0:0:0:0:
104,328,118821,2,2,L|104:200,1,116.999994644165,2|10,0:0|0:0,0:0:0:0:
248,196,119178,5,2,0:0:0:0:
248,148,119267,1,0,0:0:0:0:
248,100,119357,1,8,0:0:0:0:
104,144,119535,2,2,L|104:0,1,125.999996154785,2|10,0:0|0:0,0:0:0:0:
248,196,119892,1,2,0:0:0:0:
248,140,119982,1,0,0:0:0:0:
248,84,120071,1,8,0:0:0:0:
416,192,120249,2,2,L|416:40,1,135.000005149842,2|10,0:0|0:0,0:0:0:0:
248,196,120607,5,2,0:0:0:0:
248,264,120696,1,0,0:0:0:0:
248,332,120785,1,8,0:0:0:0:
88,192,120964,2,2,L|88:336,1,144,2|10,0:0|0:0,0:0:0:0:
248,196,121321,1,2,0:0:0:0:
248,264,121410,1,0,0:0:0:0:
248,332,121499,1,8,0:0:0:0:
400,196,121678,2,2,L|400:372,1,153.000002918243,2|10,0:0|0:0,0:0:0:0:
248,196,122035,5,2,0:0:0:0:
248,128,122124,1,0,0:0:0:0:
248,60,122214,1,8,0:0:0:0:
108,192,122392,2,2,L|108:32,1,153.000002918243,2|10,0:0|0:0,0:0:0:0:
248,196,122749,1,2,0:0:0:0:
248,148,122839,1,0,0:0:0:0:
248,104,122928,1,8,0:0:0:0:
400,192,123107,2,2,L|400:60,1,125.999996154785,2|10,0:0|0:0,0:0:0:0:
248,196,123464,5,2,0:0:0:0:
248,232,123553,1,0,0:0:0:0:
248,268,123642,1,8,0:0:0:0:
104,192,123821,2,2,L|104:328,1,135.000005149842,2|10,0:0|0:0,0:0:0:0:
248,196,124178,1,2,0:0:0:0:
248,244,124267,1,0,0:0:0:0:
248,292,124357,1,8,0:0:0:0:
392,200,124535,2,2,L|392:352,1,135.000005149842,2|10,0:0|0:0,0:0:0:0:
248,196,124892,5,2,0:0:0:0:
248,140,124982,1,0,0:0:0:0:
248,88,125071,1,8,0:0:0:0:
100,112,125249,2,2,L|-4:4,1,144,2|10,0:0|0:0,0:0:0:0:
248,196,125607,1,2,0:0:0:0:
252,260,125696,1,0,0:0:0:0:
256,324,125785,1,8,0:0:0:0:
360,280,125964,2,2,L|484:380,1,144,2|10,0:0|0:0,0:0:0:0:
248,196,126321,5,2,0:0:0:0:
248,124,126410,1,0,0:0:0:0:
248,52,126499,1,8,0:0:0:0:
388,120,126678,2,2,L|524:16,1,153.000002918243,2|10,0:0|0:0,0:0:0:0:
248,196,127035,1,2,0:0:0:0:
248,280,127124,1,0,0:0:0:0:
248,364,127214,1,8,0:0:0:0:
140,272,127392,2,2,L|0:360,1,161.999995056153,2|10,0:0|0:0,0:0:0:0:
248,196,127749,5,2,0:0:0:0:
248,100,127839,1,0,0:0:0:0:
248,4,127928,1,8,0:0:0:0:
248,4,128107,2,2,L|248:204,1,180,2|10,0:0|0:0,0:0:0:0:
256,192,129357,5,8,0:0:0:0:
104,96,129535,1,2,0:0:0:0:
108,296,129714,1,0,0:0:0:0:
104,96,129892,1,2,0:0:0:0:
256,192,130071,1,8,0:0:0:0:
344,192,130249,2,0,L|460:192,1,90,2|0,0:0|0:0,0:0:0:0:
434,192,130607,1,2,0:0:0:0:
434,192,130696,1,0,0:0:0:0:
434,192,130785,1,8,0:0:0:0:
264,304,130964,1,2,0:0:0:0:
56,340,131142,5,0,0:0:0:0:
104,184,131321,1,2,0:0:0:0:
164,32,131499,5,8,0:0:0:0:
272,204,131678,1,2,0:0:0:0:
352,364,131857,5,0,0:0:0:0:
420,164,132035,1,2,0:0:0:0:
256,188,132214,5,8,0:0:0:0:
180,188,132392,1,2,0:0:0:0:
332,188,132571,1,0,0:0:0:0:
256,188,132749,1,2,0:0:0:0:
180,188,132928,1,8,0:0:0:0:
332,188,133107,1,2,0:0:0:0:
108,184,133285,1,0,0:0:0:0:
256,188,133464,1,2,0:0:0:0:
180,188,133642,1,8,0:0:0:0:
332,188,133821,1,2,0:0:0:0:
488,192,133999,5,0,0:0:0:0:
248,188,134178,1,2,0:0:0:0:
4,188,134357,1,8,0:0:0:0:
92,192,134535,1,2,0:0:0:0:
408,192,134714,1,0,0:0:0:0:
252,188,134892,1,2,0:0:0:0:
252,188,134982,1,0,0:0:0:0:
252,188,135071,1,8,0:0:0:0:
252,112,135249,5,2,0:0:0:0:
332,188,135427,1,0,0:0:0:0:
180,188,135606,1,2,0:0:0:0:
256,256,135784,1,8,0:0:0:0:
340,112,135964,1,2,0:0:0:0:
180,260,136142,1,0,0:0:0:0:
404,184,136321,5,2,0:0:0:0:
256,188,136499,1,8,0:0:0:0:
336,248,136677,1,2,0:0:0:0:
176,116,136857,1,0,0:0:0:0:
256,188,137035,1,2,0:0:0:0:
104,188,137214,1,8,0:0:0:0:
252,28,137571,5,0,0:0:0:0:
252,28,137928,1,8,0:0:0:0:
252,96,138107,1,2,0:0:0:0:
252,168,138285,1,0,0:0:0:0:
188,132,138464,1,2,0:0:0:0:
304,224,138642,1,8,0:0:0:0:
252,96,138821,1,2,0:0:0:0:
200,220,138999,5,0,0:0:0:0:
208,308,139178,1,2,0:0:0:0:
256,232,139357,1,8,0:0:0:0:
256,364,139535,1,2,0:0:0:0:
316,264,139714,1,0,0:0:0:0:
256,300,139892,1,2,0:0:0:0:
256,364,140071,1,8,0:0:0:0:
256,364,140428,1,0,0:0:0:0:
60,192,140785,5,8,0:0:0:0:
140,108,140964,1,2,0:0:0:0:
208,248,141142,1,8,0:0:0:0:
120,352,141321,2,0,P|72:308|88:248,1,107.999996704102,2|8,0:0|0:0,0:0:0:0:
72,60,141678,1,2,0:0:0:0:
248,180,141857,1,8,0:0:0:0:
296,332,142035,1,2,0:0:0:0:
296,332,142124,1,0,0:0:0:0:
296,332,142214,1,8,0:0:0:0:
404,200,142392,1,2,0:0:0:0:
464,48,142571,5,8,0:0:0:0:
248,196,142749,1,2,0:0:0:0:
76,344,142928,5,8,0:0:0:0:
132,180,143107,1,2,0:0:0:0:
216,32,143285,5,8,0:0:0:0:
328,264,143464,1,2,0:0:0:0:
480,196,143642,5,8,0:0:0:0:
384,128,143821,1,2,0:0:0:0:
480,196,143999,1,8,0:0:0:0:
332,88,144178,1,2,0:0:0:0:
480,196,144357,1,8,0:0:0:0:
276,44,144535,1,2,0:0:0:0:
480,196,144714,1,8,0:0:0:0:
244,196,144892,1,2,0:0:0:0:
244,196,144982,1,0,0:0:0:0:
244,196,145071,1,8,0:0:0:0:
248,372,145249,1,2,0:0:0:0:
0,200,145428,2,0,P|24:144|164:92,1,215.999993408203,8|8,0:0|0:0,0:0:0:0:
76,312,146321,5,2,0:0:0:0:
112,312,146410,1,0,0:0:0:0:
148,312,146499,1,8,0:0:0:0:
296,312,146678,1,2,0:0:0:0:
224,308,146857,1,8,0:0:0:0:
364,312,147035,1,2,0:0:0:0:
296,312,147214,1,8,0:0:0:0:
432,308,147392,1,2,0:0:0:0:
224,308,147571,1,8,0:0:0:0:
364,312,147749,5,2,0:0:0:0:
432,308,147928,1,8,0:0:0:0:
296,312,148107,1,2,0:0:0:0:
364,312,148285,1,8,0:0:0:0:
228,312,148464,1,2,0:0:0:0:
364,312,148642,1,8,0:0:0:0:
364,312,148999,1,8,0:0:0:0:
216,312,149357,5,8,0:0:0:0:
288,308,149536,1,2,0:0:0:0:
148,312,149714,1,8,0:0:0:0:
216,312,149892,1,2,0:0:0:0:
80,308,150071,1,8,0:0:0:0:
288,308,150250,1,2,0:0:0:0:
148,312,150428,5,8,0:0:0:0:
80,308,150607,1,2,0:0:0:0:
216,312,150786,1,8,0:0:0:0:
148,312,150964,1,2,0:0:0:0:
284,312,151143,1,8,0:0:0:0:
148,312,151321,1,2,0:0:0:0:
356,308,151499,1,8,0:0:0:0:
464,312,151857,2,2,L|464:116,1,180,14|2,0:0|0:0,0:0:0:0:
256,168,152214,6,0,B|256:44|88:44|20:192|148:256|256:320|256:348|256:348|256:320|364:256|492:192|424:44|256:44|256:168,1,928.12503540516
180,280,154357,6,0,P|236:320|260:288,1,90,8|2,0:0|0:0,0:0:0:0:
292,240,154714,2,0,P|324:184|348:200,1,90,8|2,0:0|0:0,0:0:0:0:
420,176,155071,1,8,0:0:0:0:
436,136,155160,1,0,0:0:0:0:
416,96,155249,1,2,0:0:0:0:
380,68,155339,1,0,0:0:0:0:
336,56,155428,1,8,0:0:0:0:
292,64,155517,1,0,0:0:0:0:
260,96,155607,1,2,0:0:0:0:
220,116,155696,5,0,0:0:0:0:
184,92,155785,1,8,0:0:0:0:
144,72,155874,1,0,0:0:0:0:
116,36,155964,1,2,0:0:0:0:
72,48,156053,1,0,0:0:0:0:
52,88,156142,1,8,0:0:0:0:
60,132,156232,1,0,0:0:0:0:
96,156,156321,1,2,0:0:0:0:
120,196,156410,1,0,0:0:0:0:
100,236,156499,1,8,0:0:0:0:
132,268,156589,5,0,0:0:0:0:
176,260,156678,1,2,0:0:0:0:
208,288,156767,1,0,0:0:0:0:
248,264,156857,1,8,0:0:0:0:
260,220,156946,1,0,0:0:0:0:
232,188,157035,1,2,0:0:0:0:
196,160,157124,1,0,0:0:0:0:
188,116,157214,1,8,0:0:0:0:
208,76,157303,1,0,0:0:0:0:
252,64,157392,1,2,0:0:0:0:
300,92,157482,5,0,0:0:0:0:
352,104,157571,1,8,0:0:0:0:
404,96,157660,1,0,0:0:0:0:
452,136,157749,1,2,0:0:0:0:
488,188,157839,1,0,0:0:0:0:
476,248,157928,1,8,0:0:0:0:
412,260,158017,1,0,0:0:0:0:
348,240,158107,1,2,0:0:0:0:
316,184,158196,1,0,0:0:0:0:
252,176,158285,1,8,0:0:0:0:
204,208,158374,5,0,0:0:0:0:
192,272,158464,1,2,0:0:0:0:
152,328,158553,1,0,0:0:0:0:
88,304,158642,1,8,0:0:0:0:
64,248,158732,1,0,0:0:0:0:
64,176,158821,1,2,0:0:0:0:
100,116,158910,1,0,0:0:0:0:
156,76,158999,1,8,0:0:0:0:
224,56,159089,1,0,0:0:0:0:
292,52,159178,1,2,0:0:0:0:
360,68,159267,5,0,0:0:0:0:
412,96,159357,1,8,0:0:0:0:
424,144,159446,1,0,0:0:0:0:
388,180,159535,1,2,0:0:0:0:
344,192,159624,1,0,0:0:0:0:
300,176,159714,1,8,0:0:0:0:
276,216,159803,1,0,0:0:0:0:
232,208,159892,1,2,0:0:0:0:
212,248,159982,1,0,0:0:0:0:
168,248,160071,1,8,0:0:0:0:
132,220,160160,1,0,0:0:0:0:
128,176,160249,5,2,0:0:0:0:
84,164,160339,1,0,0:0:0:0:
52,196,160428,1,8,0:0:0:0:
52,240,160517,1,0,0:0:0:0:
84,272,160607,1,2,0:0:0:0:
120,300,160696,1,0,0:0:0:0:
164,300,160785,2,0,P|214:316|240:268,1,90,8|2,0:0|0:0,0:0:0:0:
264,208,161142,2,0,P|304:156|356:156,1,90,8|2,0:0|0:0,0:0:0:0:
412,184,161499,1,8,0:0:0:0:
456,104,161678,5,2,0:0:0:0:
432,68,161767,1,0,0:0:0:0:
392,52,161857,1,8,0:0:0:0:
304,72,162035,1,2,0:0:0:0:
124,104,162214,2,0,P|96:184|92:192,1,90,8|8,0:0|0:0,0:0:0:0:
280,304,162749,5,2,0:0:0:0:
324,300,162839,1,0,0:0:0:0:
352,264,162928,1,8,0:0:0:0:
344,220,163017,1,0,0:0:0:0:
360,176,163107,1,2,0:0:0:0:
400,152,163196,1,0,0:0:0:0:
388,108,163285,1,8,0:0:0:0:
412,72,163374,1,0,0:0:0:0:
376,44,163464,1,2,0:0:0:0:
332,52,163553,1,0,0:0:0:0:
296,76,163642,6,0,L|200:104,1,90,8|2,0:0|0:0,0:0:0:0:
120,84,163999,2,0,L|8:108,1,90,8|2,0:0|0:0,0:0:0:0:
16,144,164267,1,0,0:0:0:0:
32,188,164357,2,0,P|88:216|72:248,1,90,8|2,0:0|0:0,0:0:0:0:
60,268,164624,1,0,0:0:0:0:
56,312,164714,2,0,P|96:352|140:328,1,90,8|2,0:0|0:0,0:0:0:0:
148,308,164982,1,0,0:0:0:0:
184,280,165071,2,0,P|232:232|276:236,1,90,8|2,0:0|0:0,0:0:0:0:
428,320,165428,5,8,0:0:0:0:
452,280,165517,1,0,0:0:0:0:
456,236,165607,1,2,0:0:0:0:
420,208,165696,1,0,0:0:0:0:
444,168,165785,1,8,0:0:0:0:
412,140,165874,1,0,0:0:0:0:
396,100,165964,1,2,0:0:0:0:
356,80,166053,1,0,0:0:0:0:
312,96,166142,1,8,0:0:0:0:
300,140,166232,1,0,0:0:0:0:
256,128,166321,1,2,0:0:0:0:
232,168,166410,1,0,0:0:0:0:
192,148,166499,6,0,P|140:156|104:128,1,90,8|2,0:0|0:0,0:0:0:0:
124,92,166767,1,0,0:0:0:0:
156,60,166857,2,0,L|260:52,1,90,8|2,0:0|0:0,0:0:0:0:
276,84,167124,1,0,0:0:0:0:
320,80,167214,2,0,P|400:80|416:96,1,90,8|2,0:0|0:0,0:0:0:0:
448,96,167482,1,0,0:0:0:0:
476,132,167571,2,0,P|476:212|444:224,1,90,8|2,0:0|0:0,0:0:0:0:
432,216,167839,5,0,0:0:0:0:
392,196,167928,1,8,0:0:0:0:
372,236,168017,1,0,0:0:0:0:
344,200,168107,1,2,0:0:0:0:
324,240,168196,1,0,0:0:0:0:
296,208,168285,1,8,0:0:0:0:
276,248,168374,1,0,0:0:0:0:
252,208,168464,1,2,0:0:0:0:
232,248,168553,1,0,0:0:0:0:
196,220,168642,1,8,0:0:0:0:
196,264,168732,5,0,0:0:0:0:
156,244,168821,1,2,0:0:0:0:
152,288,168910,1,0,0:0:0:0:
116,264,168999,1,8,0:0:0:0:
100,308,169089,1,0,0:0:0:0:
68,276,169178,1,2,0:0:0:0:
52,316,169267,1,0,0:0:0:0:
24,280,169357,2,0,P|24:216|48:160,1,90,8|2,0:0|0:0,0:0:0:0:
116,164,169714,2,0,P|168:128|168:88,1,90,8|2,0:0|0:0,0:0:0:0:
252,52,170071,6,0,P|308:52|312:112,1,90,8|2,0:0|0:0,0:0:0:0:
280,156,170428,2,0,P|288:208|332:228,1,90,8|2,0:0|0:0,0:0:0:0:
400,188,170785,2,0,P|464:224|456:264,1,90,8|2,0:0|0:0,0:0:0:0:
444,272,171053,1,0,0:0:0:0:
400,272,171142,2,0,P|344:256|324:224,1,90,8|2,0:0|0:0,0:0:0:0:
352,196,171410,1,0,0:0:0:0:
372,156,171499,1,8,0:0:0:0:
356,116,171589,1,0,0:0:0:0:
316,92,171678,1,2,0:0:0:0:
272,80,171767,1,0,0:0:0:0:
232,96,171857,1,8,0:0:0:0:
204,160,171946,5,0,0:0:0:0:
144,200,172035,1,2,0:0:0:0:
72,188,172124,1,0,0:0:0:0:
44,120,172214,1,8,0:0:0:0:
84,60,172303,1,0,0:0:0:0:
148,28,172392,1,2,0:0:0:0:
220,24,172482,1,0,0:0:0:0:
252,84,172571,1,8,0:0:0:0:
276,152,172660,1,0,0:0:0:0:
344,172,172749,1,2,0:0:0:0:
396,120,172839,5,0,0:0:0:0:
468,132,172928,1,8,0:0:0:0:
500,196,173017,1,0,0:0:0:0:
488,268,173107,1,2,0:0:0:0:
440,320,173196,1,0,0:0:0:0:
372,348,173285,1,8,0:0:0:0:
308,320,173374,1,0,0:0:0:0:
248,280,173464,1,2,0:0:0:0:
180,260,173553,1,0,0:0:0:0:
116,292,173642,1,12,0:0:0:0:
488,64,175071,5,2,0:0:0:0:
476,96,175190,1,2,0:0:0:0:
460,128,175309,1,2,0:0:0:0:
408,88,175428,1,2,0:0:0:0:
384,116,175547,1,2,0:0:0:0:
364,148,175666,1,2,0:0:0:0:
312,108,175785,1,2,0:0:0:0:
288,136,175904,1,2,0:0:0:0:
268,164,176023,1,2,0:0:0:0:
216,116,176142,5,2,0:0:0:0:
188,140,176261,1,2,0:0:0:0:
160,160,176380,1,2,0:0:0:0:
216,208,176499,1,2,0:0:0:0:
188,232,176619,1,2,0:0:0:0:
160,256,176738,1,2,0:0:0:0:
216,304,176857,1,2,0:0:0:0:
184,324,176976,1,2,0:0:0:0:
152,340,177095,1,2,0:0:0:0:
72,328,177214,5,2,0:0:0:0:
52,300,177333,1,2,0:0:0:0:
80,280,177452,1,2,0:0:0:0:
48,216,177571,1,2,0:0:0:0:
20,196,177690,1,2,0:0:0:0:
52,180,177809,1,2,0:0:0:0:
136,168,177928,1,2,0:0:0:0:
108,144,178047,1,2,0:0:0:0:
140,128,178166,1,2,0:0:0:0:
132,40,178285,5,2,0:0:0:0:
144,72,178404,1,2,0:0:0:0:
176,56,178523,1,2,0:0:0:0:
264,44,178642,1,2,0:0:0:0:
268,80,178761,1,2,0:0:0:0:
272,116,178880,1,2,0:0:0:0:
208,124,178999,1,2,0:0:0:0:
208,160,179119,1,2,0:0:0:0:
212,196,179238,1,2,0:0:0:0:
288,184,179357,5,2,0:0:0:0:
292,220,179476,1,2,0:0:0:0:
296,256,179595,1,2,0:0:0:0:
252,312,179714,1,2,0:0:0:0:
280,336,179833,1,2,0:0:0:0:
308,360,179952,1,2,0:0:0:0:
376,332,180071,1,2,0:0:0:0:
388,300,180190,1,2,0:0:0:0:
420,320,180309,1,2,0:0:0:0:
476,284,180428,5,10,0:0:0:0:
496,252,180547,1,10,0:0:0:0:
460,244,180666,1,10,0:0:0:0:
384,252,180785,1,10,0:0:0:0:
392,216,180904,1,2,0:0:0:0:
356,212,181023,1,2,0:0:0:0:
396,144,181142,1,10,0:0:0:0:
400,108,181261,1,2,0:0:0:0:
364,100,181380,1,2,0:0:0:0:
304,148,181499,5,10,0:0:0:0:
316,116,181619,1,2,0:0:0:0:
280,116,181738,1,2,0:0:0:0:
212,128,181857,1,10,0:0:0:0:
224,160,181976,1,2,0:0:0:0:
232,196,182095,1,2,0:0:0:0:
164,192,182214,1,10,0:0:0:0:
144,220,182333,1,2,0:0:0:0:
168,244,182452,1,2,0:0:0:0:
208,304,182571,1,10,0:0:0:0:
268,292,182690,1,2,0:0:0:0:
320,244,182809,1,2,0:0:0:0:
336,160,182928,1,10,0:0:0:0:
476,344,183285,5,10,0:0:0:0:
464,300,183404,1,2,0:0:0:0:
452,252,183523,1,2,0:0:0:0:
412,280,183642,1,10,0:0:0:0:
392,236,183761,1,2,0:0:0:0:
364,200,183880,1,2,0:0:0:0:
340,240,183999,1,10,0:0:0:0:
308,204,184119,1,2,0:0:0:0:
280,164,184238,1,2,0:0:0:0:
324,144,184357,5,10,0:0:0:0:
296,104,184476,1,2,0:0:0:0:
260,72,184595,1,2,0:0:0:0:
300,44,184714,1,10,0:0:0:0:
348,44,184833,1,2,0:0:0:0:
360,92,184952,1,2,0:0:0:0:
404,72,185071,1,10,0:0:0:0:
448,48,185190,1,2,0:0:0:0:
440,96,185309,1,2,0:0:0:0:
484,116,185428,1,10,0:0:0:0:
456,156,185547,1,2,0:0:0:0:
480,196,185666,1,2,0:0:0:0:
432,200,185785,1,10,0:0:0:0:
148,216,186499,5,10,0:0:0:0:
120,256,186619,1,2,0:0:0:0:
96,212,186738,1,2,0:0:0:0:
148,216,186857,1,10,0:0:0:0:
120,256,186976,1,2,0:0:0:0:
96,212,187095,1,2,0:0:0:0:
148,216,187214,5,10,0:0:0:0:
160,168,187333,1,2,0:0:0:0:
192,204,187452,1,2,0:0:0:0:
148,216,187571,1,10,0:0:0:0:
160,168,187690,1,2,0:0:0:0:
192,204,187809,1,2,0:0:0:0:
236,272,187928,1,10,0:0:0:0:
272,272,188047,1,2,0:0:0:0:
308,264,188166,1,2,0:0:0:0:
416,208,188285,1,10,0:0:0:0:
380,144,188404,1,2,0:0:0:0:
320,180,188523,1,2,0:0:0:0:
356,244,188642,1,10,0:0:0:0:
96,108,188999,5,10,0:0:0:0:
152,88,189119,1,2,0:0:0:0:
184,136,189238,1,2,0:0:0:0:
280,108,189357,1,10,0:0:0:0:
324,148,189476,1,2,0:0:0:0:
296,204,189595,1,2,0:0:0:0:
196,244,189714,1,10,0:0:0:0:
232,292,189833,1,2,0:0:0:0:
292,296,189952,1,2,0:0:0:0:
392,324,190071,5,10,0:0:0:0:
408,268,190190,1,2,0:0:0:0:
420,208,190309,1,2,0:0:0:0:
488,160,190428,1,10,0:0:0:0:
440,124,190547,1,2,0:0:0:0:
388,92,190666,1,2,0:0:0:0:
436,32,190785,1,10,0:0:0:0:
376,36,190904,1,2,0:0:0:0:
332,80,191023,1,2,0:0:0:0:
340,172,191142,1,10,0:0:0:0:
284,156,191261,1,2,0:0:0:0:
224,168,191380,1,2,0:0:0:0:
176,208,191499,1,10,0:0:0:0:
480,364,193642,5,12,0:0:0:0:
448,56,193999,1,8,0:0:0:0:
120,292,194357,1,8,0:0:0:0:
448,56,194714,1,8,0:0:0:0:
120,292,195071,1,12,0:0:0:0:
72,80,195428,1,8,0:0:0:0:
376,16,195607,1,2,0:0:0:0:
340,296,195785,1,8,0:0:0:0:
484,24,196142,1,8,0:0:0:0:
32,192,196499,5,8,0:0:0:0:
252,24,196678,1,2,0:0:0:0:
488,192,196857,1,8,0:0:0:0:
252,24,197035,1,2,0:0:0:0:
32,192,197214,1,8,0:0:0:0:
252,360,197392,1,2,0:0:0:0:
252,280,197482,1,0,0:0:0:0:
252,200,197571,1,8,0:0:0:0:
488,364,197749,1,2,0:0:0:0:
252,200,197928,5,8,0:0:0:0:
28,360,198107,1,2,0:0:0:0:
252,200,198285,1,8,0:0:0:0:
488,364,198464,1,2,0:0:0:0:
252,200,198642,1,8,0:0:0:0:
252,24,198999,2,2,L|252:68,7,26.9999991760254,10|2|2|2|2|2|2|2,0:0|0:0|0:0|0:0|0:0|0:0|0:0|0:0,0:0:0:0:
252,76,199357,5,8,0:0:0:0:
252,108,199446,1,0,0:0:0:0:
252,140,199535,1,0,0:0:0:0:
252,172,199624,1,0,0:0:0:0:
228,192,199714,2,0,P|188:228|284:232,1,215.999993408203,8|8,0:0|0:0,0:0:0:0:
288,216,200160,1,0,0:0:0:0:
292,184,200249,1,0,0:0:0:0:
304,152,200339,1,0,0:0:0:0:
332,136,200428,2,0,P|404:120|320:84,1,215.999993408203,8|8,0:0|0:0,0:0:0:0:
296,80,200874,5,0,0:0:0:0:
264,80,200964,1,0,0:0:0:0:
232,80,201053,1,0,0:0:0:0:
160,128,201142,1,8,0:0:0:0:
148,160,201232,1,0,0:0:0:0:
136,188,201321,1,2,0:0:0:0:
124,220,201410,1,0,0:0:0:0:
212,232,201499,5,8,0:0:0:0:
228,260,201589,1,0,0:0:0:0:
240,292,201678,1,0,0:0:0:0:
256,320,201767,1,0,0:0:0:0:
344,304,201857,1,8,0:0:0:0:
376,292,201946,1,0,0:0:0:0:
408,284,202035,1,0,0:0:0:0:
440,280,202124,1,0,0:0:0:0:
460,188,202214,5,8,0:0:0:0:
432,204,202303,1,0,0:0:0:0:
332,204,202392,1,2,0:0:0:0:
304,184,202482,1,0,0:0:0:0:
384,120,202571,1,8,0:0:0:0:
384,152,202660,1,0,0:0:0:0:
384,184,202749,2,0,P|356:240|304:256,1,107.999996704102,2|8,0:0|0:0,0:0:0:0:
284,264,203017,1,0,0:0:0:0:
236,208,203107,1,2,0:0:0:0:
176,248,203196,1,0,0:0:0:0:
224,304,203285,1,8,0:0:0:0:
0,376,203464,2,0,L|0:248,1,107.999996704102,2|8,0:0|0:0,0:0:0:0:
256,192,203732,12,4,204892,0:0:0:0:
384,160,205071,5,8,0:0:0:0:
348,108,205160,1,0,0:0:0:0:
296,72,205249,1,6,0:0:0:0:
232,60,205339,1,0,0:0:0:0:
168,64,205428,1,8,0:0:0:0:
164,316,205607,1,6,0:0:0:0:
336,260,205785,1,8,0:0:0:0:
288,216,205874,1,0,0:0:0:0:
232,184,205964,1,6,0:0:0:0:
168,168,206053,1,0,0:0:0:0:
104,156,206142,1,8,0:0:0:0:
336,260,206321,1,6,0:0:0:0:
84,284,206499,5,8,0:0:0:0:
64,224,206588,1,0,0:0:0:0:
32,168,206677,1,6,0:0:0:0:
44,104,206767,1,0,0:0:0:0:
88,56,206856,1,8,0:0:0:0:
148,36,206945,1,0,0:0:0:0:
212,28,207035,1,6,0:0:0:0:
276,36,207124,1,0,0:0:0:0:
316,88,207214,1,8,0:0:0:0:
312,152,207303,1,0,0:0:0:0:
332,212,207392,1,6,0:0:0:0:
396,216,207482,1,0,0:0:0:0:
452,248,207571,1,8,0:0:0:0:
372,336,207749,1,6,0:0:0:0:
252,368,207928,5,8,0:0:0:0:
220,356,208017,1,0,0:0:0:0:
176,304,208107,1,6,0:0:0:0:
196,280,208196,1,0,0:0:0:0:
308,264,208285,1,8,0:0:0:0:
276,260,208374,1,0,0:0:0:0:
160,212,208464,1,6,0:0:0:0:
192,200,208553,1,0,0:0:0:0:
296,180,208642,1,8,0:0:0:0:
264,172,208732,1,0,0:0:0:0:
164,132,208821,1,6,0:0:0:0:
108,160,208910,1,0,0:0:0:0:
92,224,208999,1,8,0:0:0:0:
140,352,209178,1,6,0:0:0:0:
480,28,209357,5,8,0:0:0:0:
488,76,209535,1,6,0:0:0:0:
480,352,209714,1,8,0:0:0:0:
444,352,209892,1,6,0:0:0:0:
400,356,210071,1,8,0:0:0:0:
240,360,210249,1,6,0:0:0:0:
16,360,210428,6,0,L|64:360,7,26.9999991760254,8|0|0|0|6|0|0|0,0:0|0:0|0:0|0:0|0:0|0:0|0:0|0:0,0:0:0:0:
64,360,210785,1,8,0:0:0:0:
64,244,210964,1,6,0:0:0:0:
80,112,211142,1,8,0:0:0:0:
204,232,211321,1,6,0:0:0:0:
136,352,211499,1,8,0:0:0:0:
300,236,211678,1,6,0:0:0:0:
176,108,211857,1,8,0:0:0:0:
392,232,212035,1,6,0:0:0:0:
232,352,212214,1,8,0:0:0:0:
468,236,212392,5,6,0:0:0:0:
304,140,212571,1,8,0:0:0:0:
360,352,212749,1,6,0:0:0:0:
428,144,212928,1,8,0:0:0:0:
400,256,213107,1,6,0:0:0:0:
488,360,213285,1,8,0:0:0:0:
328,216,213464,1,6,0:0:0:0:
448,52,213642,5,8,0:0:0:0:
276,364,213821,1,6,0:0:0:0:
248,96,213999,1,8,0:0:0:0:
480,312,214178,1,6,0:0:0:0:
96,308,214357,1,8,0:0:0:0:
444,64,214535,1,6,0:0:0:0:
452,128,214624,1,0,0:0:0:0:
440,192,214714,1,8,0:0:0:0:
92,196,214892,1,6,0:0:0:0:
92,196,215071,1,8,0:0:0:0:
256,192,215160,12,0,216321,0:0:0:0:
40,360,216499,5,8,0:0:0:0:
88,136,216678,1,2,0:0:0:0:
196,356,216857,1,8,0:0:0:0:
180,228,217035,2,0,P|124:216|64:256,1,125.999996154785,2|8,0:0|0:0,0:0:0:0:
68,248,217392,2,0,P|128:216|184:232,1,125.999996154785,2|8,0:0|0:0,0:0:0:0:
180,229,217749,1,2,0:0:0:0:
124,224,217839,1,0,0:0:0:0:
68,248,217928,1,8,0:0:0:0:
120,328,218107,1,2,0:0:0:0:
64,112,218285,5,8,0:0:0:0:
312,196,218464,1,2,0:0:0:0:
192,348,218642,5,8,0:0:0:0:
100,200,218821,1,2,0:0:0:0:
220,24,218999,5,8,0:0:0:0:
296,192,219178,1,2,0:0:0:0:
32,192,219357,5,8,0:0:0:0:
292,192,219535,1,2,0:0:0:0:
104,192,219714,1,8,0:0:0:0:
360,192,219892,1,2,0:0:0:0:
176,192,220071,1,8,0:0:0:0:
428,192,220249,1,2,0:0:0:0:
248,192,220428,1,8,0:0:0:0:
496,192,220607,5,2,0:0:0:0:
320,192,220785,1,8,0:0:0:0:
176,192,220964,1,2,0:0:0:0:
32,192,221142,1,8,0:0:0:0:
320,192,221321,1,2,0:0:0:0:
480,192,221499,1,8,0:0:0:0:
152,192,221678,1,2,0:0:0:0:
384,192,221857,1,8,0:0:0:0:
296,188,222035,5,2,0:0:0:0:
240,188,222124,1,0,0:0:0:0:
188,188,222214,1,8,0:0:0:0:
252,28,222392,1,2,0:0:0:0:
252,224,222571,1,8,0:0:0:0:
252,96,222749,1,2,0:0:0:0:
252,292,222928,1,8,0:0:0:0:
252,156,223107,1,2,0:0:0:0:
252,356,223285,1,8,0:0:0:0:
372,256,223464,5,2,0:0:0:0:
252,356,223642,1,8,0:0:0:0:
148,260,223821,1,2,0:0:0:0:
252,356,223999,1,8,0:0:0:0:
252,156,224178,1,2,0:0:0:0:
252,356,224357,1,8,0:0:0:0:
252,156,224535,1,2,0:0:0:0:
252,356,224714,1,8,0:0:0:0:
376,276,224892,1,2,0:0:0:0:
480,192,225071,5,8,0:0:0:0:
220,192,225249,1,2,0:0:0:0:
408,192,225428,1,8,0:0:0:0:
152,192,225606,1,2,0:0:0:0:
336,192,225785,1,8,0:0:0:0:
84,192,225964,1,2,0:0:0:0:
264,192,226142,1,8,0:0:0:0:
16,192,226321,1,2,0:0:0:0:
192,192,226499,1,8,0:0:0:0:
412,192,226678,5,2,0:0:0:0:
480,192,226856,1,8,0:0:0:0:
100,192,227035,1,2,0:0:0:0:
32,192,227213,1,8,0:0:0:0:
172,192,227392,1,2,0:0:0:0:
256,192,227571,1,8,0:0:0:0:
348,192,227749,1,2,0:0:0:0:
104,92,227928,6,0,L|188:56,1,76.5000014591217,8|0,0:0|0:0,0:0:0:0:
208,168,228107,2,0,L|292:184,1,76.5000014591217,6|0,0:0|0:0,0:0:0:0:
280,72,228285,2,0,L|360:56,1,76.5000014591217,8|0,0:0|0:0,0:0:0:0:
368,152,228464,2,0,L|440:192,1,76.5000014591217,6|0,0:0|0:0,0:0:0:0:
512,260,228642,2,0,L|456:324,1,76.5000014591217,8|0,0:0|0:0,0:0:0:0:
352,268,228821,2,0,L|384:344,1,76.5000014591217,6|0,0:0|0:0,0:0:0:0:
264,352,228999,2,0,L|204:304,1,76.5000014591217,8|0,0:0|0:0,0:0:0:0:
168,276,229178,1,6,0:0:0:0:
124,272,229267,1,0,0:0:0:0:
80,288,229357,1,8,0:0:0:0:
76,32,229535,1,6,0:0:0:0:
124,140,229714,6,0,P|212:208|304:152,1,229.500004377365,8|0,0:0|0:0,0:0:0:0:
260,140,230071,2,0,P|380:204|340:264,1,229.500004377365,8|0,0:0|0:0,0:0:0:0:
320,232,230428,2,0,P|364:336|448:288,1,229.500004377365,8|0,0:0|0:0,0:0:0:0:
428,252,230785,6,0,L|368:168,1,76.5000014591217,8|0,0:0|0:0,0:0:0:0:
476,112,230964,2,0,L|508:28,1,76.5000014591217,6|0,0:0|0:0,0:0:0:0:
340,28,231142,2,0,L|232:28,1,76.5000014591217,8|0,0:0|0:0,0:0:0:0:
304,132,231321,2,0,L|232:188,1,76.5000014591217,6|0,0:0|0:0,0:0:0:0:
176,64,231499,2,0,L|104:40,1,76.5000014591217,8|0,0:0|0:0,0:0:0:0:
152,152,231678,2,0,L|96:220,1,76.5000014591217,6|0,0:0|0:0,0:0:0:0:
0,288,231857,2,0,L|44:360,1,76.5000014591217,8|0,0:0|0:0,0:0:0:0:
84,344,232035,1,6,0:0:0:0:
128,320,232124,1,0,0:0:0:0:
156,360,232214,1,8,0:0:0:0:
336,352,232392,1,6,0:0:0:0:
392,252,232571,6,0,L|392:16,1,229.500004377365,8|0,0:0|0:0,0:0:0:0:
392,22,232928,2,0,L|392:264,1,229.500004377365,8|0,0:0|0:0,0:0:0:0:
372,292,233285,2,0,L|312:316,7,38.2500007295609,8|0|0|0|6|0|0|0,0:0|0:0|0:0|0:0|0:0|0:0|0:0|0:0,0:0:0:0:
300,292,233642,2,0,L|216:236,1,76.5000014591217,8|0,0:0|0:0,0:0:0:0:
284,152,233821,2,0,L|256:68,1,76.5000014591217,6|0,0:0|0:0,0:0:0:0:
124,40,233999,2,0,L|12:72,1,76.5000014591217,8|0,0:0|0:0,0:0:0:0:
136,180,234178,2,0,L|96:252,1,76.5000014591217,6|0,0:0|0:0,0:0:0:0:
20,356,234357,2,0,L|108:392,1,76.5000014591217,8|0,0:0|0:0,0:0:0:0:
156,296,234535,2,0,L|232:236,1,76.5000014591217,6|0,0:0|0:0,0:0:0:0:
280,344,234714,2,0,L|356:388,1,76.5000014591217,8|0,0:0|0:0,0:0:0:0:
448,296,234892,2,0,L|508:208,1,76.5000014591217,6|0,0:0|0:0,0:0:0:0:
356,184,235071,6,0,L|276:140,1,76.5000014591217,8|0,0:0|0:0,0:0:0:0:
408,80,235249,2,0,L|356:16,1,76.5000014591217,6|0,0:0|0:0,0:0:0:0:
176,8,235428,2,0,L|100:56,1,76.5000014591217,8|0,0:0|0:0,0:0:0:0:
80,160,235607,2,0,L|104:232,1,76.5000014591217,6|0,0:0|0:0,0:0:0:0:
148,240,235785,2,2,L|28:24,1,229.500004377365,10|2,0:0|0:0,0:0:0:0:
84,32,236142,2,2,L|340:32,1,229.500004377365,10|2,0:0|0:0,0:0:0:0:
344,68,236499,6,0,L|400:144,1,76.5000014591217,8|0,0:0|0:0,0:0:0:0:
454,90,236678,2,0,L|374:138,1,76.5000014591217,6|0,0:0|0:0,0:0:0:0:
424,220,236857,2,0,L|500:268,1,76.5000014591217,8|0,0:0|0:0,0:0:0:0:
328,220,237035,2,0,L|248:244,1,76.5000014591217,6|0,0:0|0:0,0:0:0:0:
400,104,237214,2,0,L|496:120,1,76.5000014591217,8|0,0:0|0:0,0:0:0:0:
314,157,237392,2,0,L|222:189,1,76.5000014591217,6|0,0:0|0:0,0:0:0:0:
241,182,237571,2,0,L|325:210,1,76.5000014591217,8|0,0:0|0:0,0:0:0:0:
384,308,237749,2,0,L|320:252,1,76.5000014591217,6|0,0:0|0:0,0:0:0:0:
372,256,237928,2,0,L|460:212,1,76.5000014591217,8|0,0:0|0:0,0:0:0:0:
396,212,238107,2,0,L|296:172,1,76.5000014591217,6|0,0:0|0:0,0:0:0:0:
364,160,238285,2,0,L|456:120,1,76.5000014591217,8|0,0:0|0:0,0:0:0:0:
388,116,238464,2,0,L|304:88,1,76.5000014591217,6|0,0:0|0:0,0:0:0:0:
272,80,238642,5,8,0:0:0:0:
176,184,238821,1,6,0:0:0:0:
56,76,238999,2,0,L|56:280,1,180,8|6,0:0|0:0,0:0:0:0:
152,308,239357,1,8,0:0:0:0:
200,212,239535,1,2,0:0:0:0:
204,160,239624,1,0,0:0:0:0:
188,108,239714,2,0,P|248:40|328:92,1,180,8|2,0:0|0:0,0:0:0:0:
384,160,240071,1,8,0:0:0:0:
356,264,240249,1,2,0:0:0:0:
324,308,240339,1,0,0:0:0:0:
272,296,240428,2,0,P|168:256|176:192,1,180,8|2,0:0|0:0,0:0:0:0:
208,168,240696,5,0,0:0:0:0:
208,116,240785,2,0,P|120:68|72:128,1,180,8|2,0:0|0:0,0:0:0:0:
104,160,241053,1,0,0:0:0:0:
100,212,241142,2,0,P|92:312|164:320,1,180,8|2,0:0|0:0,0:0:0:0:
248,272,241499,1,8,0:0:0:0:
256,164,241678,1,2,0:0:0:0:
280,116,241767,1,0,0:0:0:0:
316,76,241857,2,0,P|404:16|448:60,1,180,8|2,0:0|0:0,0:0:0:0:
476,96,242124,1,0,0:0:0:0:
488,148,242214,2,0,P|436:228|360:220,1,180,8|2,0:0|0:0,0:0:0:0:
308,240,242482,5,0,0:0:0:0:
256,248,242571,2,0,P|144:252|116:192,1,180,8|2,0:0|0:0,0:0:0:0:
68,108,242928,1,8,0:0:0:0:
160,52,243107,1,2,0:0:0:0:
212,52,243196,1,0,0:0:0:0:
264,64,243285,2,0,L|360:92,1,90,8|0,0:0|0:0,0:0:0:0:
352,172,243464,2,0,L|440:208,1,90,2|0,0:0|0:0,0:0:0:0:
392,280,243642,2,0,L|476:324,1,90,8|0,0:0|0:0,0:0:0:0:
280,328,243821,2,0,L|204:376,1,90,2|0,0:0|0:0,0:0:0:0:
228,248,243999,2,0,L|116:280,1,90,8|0,0:0|0:0,0:0:0:0:
208,148,244178,2,0,L|88:184,1,90,2|0,0:0|0:0,0:0:0:0:
316,136,244357,2,0,L|416:124,1,90,8|0,0:0|0:0,0:0:0:0:
280,52,244535,6,0,L|164:40,1,90,2|0,0:0|0:0,0:0:0:0:
108,116,244714,2,0,L|32:176,1,90,8|0,0:0|0:0,0:0:0:0:
180,204,244892,2,0,L|252:280,1,90,2|0,0:0|0:0,0:0:0:0:
272,312,245071,1,8,0:0:0:0:
444,184,245249,1,2,0:0:0:0:
424,136,245339,1,0,0:0:0:0:
372,120,245428,2,0,P|264:92|228:136,1,180,8|2,0:0|0:0,0:0:0:0:
268,236,245785,1,8,0:0:0:0:
168,280,245964,1,2,0:0:0:0:
116,280,246053,1,0,0:0:0:0:
68,252,246142,2,0,P|36:152|80:76,1,180,8|2,0:0|0:0,0:0:0:0:
120,88,246410,5,0,0:0:0:0:
172,88,246499,2,0,L|352:88,1,180,8|2,0:0|0:0,0:0:0:0:
408,88,246767,1,0,0:0:0:0:
464,88,246857,2,0,L|464:288,1,180,8|2,0:0|0:0,0:0:0:0:
468,376,247214,1,8,0:0:0:0:
380,312,247392,1,2,0:0:0:0:
336,280,247482,1,0,0:0:0:0:
292,252,247571,2,0,L|160:120,1,180,8|2,0:0|0:0,0:0:0:0:
100,88,247839,1,0,0:0:0:0:
116,156,247928,2,0,L|260:308,1,180,8|2,0:0|0:0,0:0:0:0:
304,316,248196,5,0,0:0:0:0:
292,252,248285,2,0,L|148:112,1,180,8|2,0:0|0:0,0:0:0:0:
92,48,248642,1,8,0:0:0:0:
164,128,248821,1,2,0:0:0:0:
200,168,248910,1,0,0:0:0:0:
232,212,248999,2,0,P|304:280|360:192,1,180,8|2,0:0|0:0,0:0:0:0:
340,192,249267,1,0,0:0:0:0:
324,140,249357,2,0,B|324:52|324:52|464:88,1,225,8|0,0:0|0:0,0:0:0:0:
456,196,250428,5,8,0:0:0:0:
440,248,250517,1,8,0:0:0:0:
392,276,250607,1,8,0:0:0:0:
376,328,250696,1,8,0:0:0:0:
324,320,250785,1,8,0:0:0:0:
312,212,250963,1,6,0:0:0:0:
308,160,251052,1,0,0:0:0:0:
324,108,251142,2,0,P|264:40|184:92,1,180,8|6,0:0|0:0,0:0:0:0:
128,160,251499,1,8,0:0:0:0:
156,264,251677,1,6,0:0:0:0:
188,308,251767,1,0,0:0:0:0:
240,296,251856,2,0,P|344:256|336:192,1,180,8|6,0:0|0:0,0:0:0:0:
304,168,252124,5,0,0:0:0:0:
304,116,252214,2,0,P|392:68|440:124,1,180,8|6,0:0|0:0,0:0:0:0:
408,160,252481,1,0,0:0:0:0:
412,212,252571,2,0,P|420:312|348:320,1,180,8|4,0:0|0:0,0:0:0:0:
264,272,252927,1,8,0:0:0:0:
256,164,253106,1,6,0:0:0:0:
232,116,253195,1,0,0:0:0:0:
196,76,253285,2,0,P|108:16|64:60,1,180,8|6,0:0|0:0,0:0:0:0:
36,96,253552,1,0,0:0:0:0:
24,148,253642,2,0,P|76:228|152:220,1,180,8|6,0:0|0:0,0:0:0:0:
204,240,253910,5,0,0:0:0:0:
256,248,253999,2,0,P|368:252|396:192,1,180,8|6,0:0|0:0,0:0:0:0:
444,108,254356,1,8,0:0:0:0:
352,52,254535,1,6,0:0:0:0:
300,52,254624,1,0,0:0:0:0:
248,64,254713,2,0,L|152:92,1,90,8|0,0:0|0:0,0:0:0:0:
160,172,254892,2,0,L|72:208,1,90,6|0,0:0|0:0,0:0:0:0:
120,280,255070,2,0,L|36:324,1,90,8|0,0:0|0:0,0:0:0:0:
232,328,255249,2,0,L|308:376,1,90,6|0,0:0|0:0,0:0:0:0:
284,248,255427,2,0,L|396:280,1,90,8|0,0:0|0:0,0:0:0:0:
304,148,255606,2,0,L|424:184,1,90,6|0,0:0|0:0,0:0:0:0:
196,136,255785,2,0,L|96:124,1,90,8|0,0:0|0:0,0:0:0:0:
232,52,255963,6,0,L|348:40,1,90,6|0,0:0|0:0,0:0:0:0:
404,116,256142,2,0,L|480:176,1,90,8|0,0:0|0:0,0:0:0:0:
332,204,256320,2,0,L|260:280,1,90,6|0,0:0|0:0,0:0:0:0:
240,312,256499,1,8,0:0:0:0:
68,184,256678,1,6,0:0:0:0:
88,136,256768,1,0,0:0:0:0:
140,120,256857,2,0,P|248:92|284:136,1,180,8|6,0:0|0:0,0:0:0:0:
244,236,257214,1,8,0:0:0:0:
344,280,257393,1,6,0:0:0:0:
396,280,257482,1,0,0:0:0:0:
444,252,257571,2,0,P|476:152|432:76,1,180,8|6,0:0|0:0,0:0:0:0:
392,88,257839,5,0,0:0:0:0:
340,88,257928,2,0,L|160:88,1,180,8|6,0:0|0:0,0:0:0:0:
104,88,258196,1,0,0:0:0:0:
48,88,258286,2,0,L|48:288,1,180,8|6,0:0|0:0,0:0:0:0:
44,376,258643,1,8,0:0:0:0:
132,312,258821,1,6,0:0:0:0:
176,280,258911,1,0,0:0:0:0:
220,252,259000,2,0,L|352:120,1,180,8|6,0:0|0:0,0:0:0:0:
376,56,259268,1,0,0:0:0:0:
312,80,259357,2,0,L|168:232,1,180,8|6,0:0|0:0,0:0:0:0:
152,276,259625,5,0,0:0:0:0:
220,252,259714,2,0,L|364:112,1,180,8|6,0:0|0:0,0:0:0:0:
420,48,260071,1,8,0:0:0:0:
348,128,260250,1,6,0:0:0:0:
312,168,260339,1,0,0:0:0:0:
280,212,260428,2,0,P|208:280|152:192,1,180,8|6,0:0|0:0,0:0:0:0:
172,192,260696,1,0,0:0:0:0:
184,140,260785,2,0,B|240:64|240:64|264:156,1,180
172,304,261678,5,14,0:0:0:0:
260,284,261767,1,14,0:0:0:0:
340,240,261857,1,14,0:0:0:0:
408,180,261946,1,14,0:0:0:0:
456,104,262035,1,14,0:0:0:0:
256,192,262214,12,0,265785,0:0:0:0:
