osu file format v14

[General]
AudioFilename: audio.mp3
AudioLeadIn: 0
PreviewTime: -1
Countdown: 0
SampleSet: Normal
StackLeniency: 0.7
Mode: 3
LetterboxInBreaks: 0
SpecialStyle: 0
WidescreenStoryboard: 0

[Editor]
DistanceSpacing: 0.8
BeatDivisor: 1
GridSize: 32
TimelineZoom: 1

[Metadata]
Title:Unleashed - Friday Night Funkin
TitleUnicode:Unleashed - Friday Night Funkin
Artist:atsuover
ArtistUnicode:atsuover
Creator:xhcino
Version:Normal
Source:Friday Night Funkin
Tags:
BeatmapID:3068472
BeatmapSetID:1496940

[Difficulty]
HPDrainRate:6
CircleSize:4
OverallDifficulty:5
ApproachRate:5
SliderMultiplier:1.4
SliderTickRate:1

[Events]
//Background and Video events
0,0,"FNF Garcello X Annie.jpg",0,0
Video,0,"UNLEASHED___Friday_Night_Funkin____RELEASE_x_ANIMAL_Mashup720P_HD.mp4"
//Break Periods
//Storyboard Layer 0 (Background)
//Storyboard Layer 1 (Fail)
//Storyboard Layer 2 (Pass)
//Storyboard Layer 3 (Foreground)
//Storyboard Layer 4 (Overlay)
//Storyboard Sound Samples

[TimingPoints]
929.604957458645,399.999999999998,4,1,0,100,1,0

[HitObjects]
64,192,1815,5,0,0:0:0:0:
64,192,2015,1,0,0:0:0:0:
320,192,2113,1,0,0:0:0:0:
448,192,2212,1,0,0:0:0:0:
64,192,2422,1,0,0:0:0:0:
320,192,2656,1,0,0:0:0:0:
320,192,2853,1,0,0:0:0:0:
64,192,2952,1,0,0:0:0:0:
448,192,3051,1,0,0:0:0:0:
320,192,3298,1,0,0:0:0:0:
64,192,3495,128,0,3643:0:0:0:0:
448,192,3742,1,0,0:0:0:0:
64,192,3939,1,0,0:0:0:0:
192,192,4136,1,0,0:0:0:0:
448,192,4334,1,0,0:0:0:0:
64,192,4580,1,0,0:0:0:0:
64,192,4679,1,0,0:0:0:0:
320,192,4778,1,0,0:0:0:0:
192,192,5024,1,0,0:0:0:0:
320,192,5222,128,0,5370:0:0:0:0:
64,192,5419,1,0,0:0:0:0:
192,192,5518,1,0,0:0:0:0:
192,192,5666,1,0,0:0:0:0:
320,192,5863,1,0,0:0:0:0:
192,192,6061,1,0,0:0:0:0:
64,192,6307,1,0,0:0:0:0:
192,192,6406,1,0,0:0:0:0:
320,192,6505,1,0,0:0:0:0:
64,192,6702,1,0,0:0:0:0:
320,192,6949,128,0,7146:0:0:0:0:
320,192,7344,1,0,0:0:0:0:
192,192,7590,1,0,0:0:0:0:
64,192,7788,1,0,0:0:0:0:
320,192,7985,1,0,0:0:0:0:
448,192,8133,1,0,0:0:0:0:
192,192,8232,1,0,0:0:0:0:
320,192,8429,1,0,0:0:0:0:
448,192,8626,1,0,0:0:0:0:
64,192,8626,128,0,9071:0:0:0:0:
448,192,9515,1,0,0:0:0:0:
192,192,9712,1,0,0:0:0:0:
448,192,9811,1,0,0:0:0:0:
320,192,9909,1,0,0:0:0:0:
64,192,10156,1,0,0:0:0:0:
448,192,10353,1,0,0:0:0:0:
320,192,10600,1,0,0:0:0:0:
448,192,10798,1,0,0:0:0:0:
192,192,10995,1,0,0:0:0:0:
320,192,11192,1,0,0:0:0:0:
192,192,11439,1,0,0:0:0:0:
320,192,11636,1,0,0:0:0:0:
64,192,11834,128,0,12228:0:0:0:0:
448,192,12080,128,0,12426:0:0:0:0:
64,192,12919,1,0,0:0:0:0:
64,192,13166,1,0,0:0:0:0:
448,192,13265,1,0,0:0:0:0:
320,192,13363,1,0,0:0:0:0:
192,192,13561,1,0,0:0:0:0:
64,192,13807,1,0,0:0:0:0:
192,192,14054,1,0,0:0:0:0:
64,192,14251,1,0,0:0:0:0:
448,192,14449,1,0,0:0:0:0:
320,192,14646,1,0,0:0:0:0:
192,192,14844,1,0,0:0:0:0:
320,192,15090,1,0,0:0:0:0:
448,192,15288,1,0,0:0:0:0:
448,192,15534,128,0,17015:0:0:0:0:
64,192,17212,1,0,0:0:0:0:
448,192,17409,1,0,0:0:0:0:
64,192,17607,1,0,0:0:0:0:
192,192,17755,1,0,0:0:0:0:
64,192,17853,1,0,0:0:0:0:
320,192,18100,1,0,0:0:0:0:
64,192,18248,1,0,0:0:0:0:
448,192,18396,1,0,0:0:0:0:
192,192,18495,1,0,0:0:0:0:
64,192,18692,1,0,0:0:0:0:
448,192,18939,1,0,0:0:0:0:
192,192,19136,1,0,0:0:0:0:
64,192,19334,1,0,0:0:0:0:
192,192,19482,1,0,0:0:0:0:
64,192,19580,1,0,0:0:0:0:
320,192,19778,1,0,0:0:0:0:
448,192,20024,1,0,0:0:0:0:
192,192,20222,1,0,0:0:0:0:
448,192,20469,1,0,0:0:0:0:
64,192,20666,1,0,0:0:0:0:
320,192,20863,1,0,0:0:0:0:
192,192,21061,1,0,0:0:0:0:
448,192,21159,1,0,0:0:0:0:
64,192,21258,1,0,0:0:0:0:
320,192,21505,1,0,0:0:0:0:
64,192,21702,1,0,0:0:0:0:
448,192,21850,1,0,0:0:0:0:
192,192,21949,1,0,0:0:0:0:
64,192,22146,1,0,0:0:0:0:
320,192,22344,1,0,0:0:0:0:
64,192,22590,1,0,0:0:0:0:
448,192,22788,1,0,0:0:0:0:
320,192,22886,1,0,0:0:0:0:
192,192,22985,1,0,0:0:0:0:
448,192,23232,1,0,0:0:0:0:
64,192,23429,1,0,0:0:0:0:
448,192,23626,1,0,0:0:0:0:
64,192,23676,1,0,0:0:0:0:
448,192,23873,1,0,0:0:0:0:
448,192,24071,128,0,24367:0:0:0:0:
448,192,24515,128,0,24761:0:0:0:0:
320,192,24909,128,0,25551:0:0:0:0:
192,192,24909,128,0,25551:0:0:0:0:
64,192,25551,1,0,0:0:0:0:
64,192,25699,1,0,0:0:0:0:
448,192,25798,1,0,0:0:0:0:
64,192,26044,1,0,0:0:0:0:
192,192,26242,128,0,26439:0:0:0:0:
448,192,26686,1,0,0:0:0:0:
448,192,27031,1,0,0:0:0:0:
448,192,27278,1,0,0:0:0:0:
448,192,27524,128,0,27870:0:0:0:0:
64,192,27524,128,0,27821:0:0:0:0:
64,192,27969,1,0,0:0:0:0:
320,192,28363,128,0,28906:0:0:0:0:
448,192,29005,1,0,0:0:0:0:
320,192,29103,1,0,0:0:0:0:
448,192,29202,1,0,0:0:0:0:
320,192,29449,1,0,0:0:0:0:
64,192,29646,128,0,29992:0:0:0:0:
448,192,30090,128,0,30337:0:0:0:0:
64,192,30485,1,0,0:0:0:0:
64,192,30732,1,0,0:0:0:0:
320,192,30929,128,0,31274:0:0:0:0:
64,192,32656,128,0,32853:0:0:0:0:
192,192,33495,128,0,33890:0:0:0:0:
64,192,33939,1,0,0:0:0:0:
448,192,33939,1,0,0:0:0:0:
64,192,34136,1,0,0:0:0:0:
448,192,34136,1,0,0:0:0:0:
64,192,34383,1,0,0:0:0:0:
320,192,34580,1,0,0:0:0:0:
448,192,34679,1,0,0:0:0:0:
192,192,34778,1,0,0:0:0:0:
320,192,35024,1,0,0:0:0:0:
64,192,35222,1,0,0:0:0:0:
192,192,35419,1,0,0:0:0:0:
448,192,35518,1,0,0:0:0:0:
64,192,35666,1,0,0:0:0:0:
448,192,35863,1,0,0:0:0:0:
192,192,36061,1,0,0:0:0:0:
64,192,36258,1,0,0:0:0:0:
320,192,36455,1,0,0:0:0:0:
192,192,36653,1,0,0:0:0:0:
448,192,36949,1,0,0:0:0:0:
64,192,37146,1,0,0:0:0:0:
192,192,37294,1,0,0:0:0:0:
448,192,37393,1,0,0:0:0:0:
64,192,37590,1,0,0:0:0:0:
320,192,37788,128,0,37936:0:0:0:0:
64,192,37788,128,0,37936:0:0:0:0:
64,192,38034,1,0,0:0:0:0:
320,192,38133,1,0,0:0:0:0:
192,192,38232,1,0,0:0:0:0:
448,192,38429,1,0,0:0:0:0:
192,192,38626,1,0,0:0:0:0:
64,192,38824,1,0,0:0:0:0:
320,192,38972,1,0,0:0:0:0:
448,192,39071,1,0,0:0:0:0:
192,192,39268,1,0,0:0:0:0:
192,192,39515,128,0,39663:0:0:0:0:
320,192,39761,1,0,0:0:0:0:
448,192,39959,1,0,0:0:0:0:
192,192,40156,1,0,0:0:0:0:
64,192,40353,1,0,0:0:0:0:
320,192,40551,1,0,0:0:0:0:
192,192,40649,1,0,0:0:0:0:
192,192,40748,1,0,0:0:0:0:
64,192,40995,1,0,0:0:0:0:
320,192,41192,128,0,41390:0:0:0:0:
192,192,41192,128,0,41488:0:0:0:0:
192,192,41636,1,0,0:0:0:0:
64,192,42080,1,0,0:0:0:0:
320,192,42278,1,0,0:0:0:0:
64,192,42426,1,0,0:0:0:0:
448,192,42524,1,0,0:0:0:0:
192,192,42722,1,0,0:0:0:0:
320,192,42969,1,0,0:0:0:0:
64,192,43166,1,0,0:0:0:0:
320,192,43363,1,0,0:0:0:0:
192,192,43561,1,0,0:0:0:0:
448,192,43807,1,0,0:0:0:0:
64,192,44005,1,0,0:0:0:0:
448,192,44202,1,0,0:0:0:0:
320,192,44399,128,0,44745:0:0:0:0:
64,192,44597,128,0,44942:0:0:0:0:
192,192,45090,1,0,0:0:0:0:
64,192,45485,1,0,0:0:0:0:
320,192,45682,1,0,0:0:0:0:
448,192,45880,1,0,0:0:0:0:
192,192,45978,1,0,0:0:0:0:
64,192,46126,1,0,0:0:0:0:
320,192,46373,1,0,0:0:0:0:
192,192,46571,1,0,0:0:0:0:
448,192,46817,1,0,0:0:0:0:
64,192,47015,1,0,0:0:0:0:
320,192,47212,1,0,0:0:0:0:
192,192,47459,1,0,0:0:0:0:
320,192,47656,1,0,0:0:0:0:
192,192,47804,128,0,48051:0:0:0:0:
64,192,48100,1,0,0:0:0:0:
320,192,48298,1,0,0:0:0:0:
448,192,48495,1,0,0:0:0:0:
448,192,48742,1,0,0:0:0:0:
320,192,48939,1,0,0:0:0:0:
64,192,49136,1,0,0:0:0:0:
64,192,49383,1,0,0:0:0:0:
192,192,49630,1,0,0:0:0:0:
320,192,49778,1,0,0:0:0:0:
320,192,50074,1,0,0:0:0:0:
192,192,50222,1,0,0:0:0:0:
64,192,50469,1,0,0:0:0:0:
448,192,50567,1,0,0:0:0:0:
192,192,50666,1,0,0:0:0:0:
64,192,50863,1,0,0:0:0:0:
448,192,50962,1,0,0:0:0:0:
320,192,51110,1,0,0:0:0:0:
192,192,51307,1,0,0:0:0:0:
448,192,51455,1,0,0:0:0:0:
64,192,51505,128,0,51653:0:0:0:0:
64,192,51751,1,0,0:0:0:0:
320,192,51899,1,0,0:0:0:0:
192,192,52196,1,0,0:0:0:0:
64,192,52393,1,0,0:0:0:0:
448,192,52590,1,0,0:0:0:0:
320,192,52788,1,0,0:0:0:0:
192,192,52985,1,0,0:0:0:0:
64,192,53232,1,0,0:0:0:0:
448,192,53528,1,0,0:0:0:0:
64,192,53626,1,0,0:0:0:0:
448,192,53873,1,0,0:0:0:0:
192,192,53972,1,0,0:0:0:0:
320,192,54071,1,0,0:0:0:0:
192,192,54317,1,0,0:0:0:0:
64,192,54416,1,0,0:0:0:0:
320,192,54515,1,0,0:0:0:0:
192,192,54712,1,0,0:0:0:0:
192,192,54959,128,0,55205:0:0:0:0:
448,192,55008,1,0,0:0:0:0:
320,192,55156,1,0,0:0:0:0:
448,192,55353,1,0,0:0:0:0:
448,192,55600,1,0,0:0:0:0:
320,192,55798,1,0,0:0:0:0:
192,192,55995,1,0,0:0:0:0:
448,192,56192,1,0,0:0:0:0:
64,192,56439,1,0,0:0:0:0:
320,192,56636,1,0,0:0:0:0:
448,192,56982,1,0,0:0:0:0:
64,192,57080,1,0,0:0:0:0:
448,192,57376,1,0,0:0:0:0:
64,192,57524,1,0,0:0:0:0:
448,192,57722,1,0,0:0:0:0:
192,192,57821,1,0,0:0:0:0:
320,192,57919,1,0,0:0:0:0:
320,192,58215,1,0,0:0:0:0:
320,192,58363,128,0,58758:0:0:0:0:
192,192,58363,1,0,0:0:0:0:
64,192,58561,1,0,0:0:0:0:
192,192,58758,1,0,0:0:0:0:
64,192,59005,1,0,0:0:0:0:
448,192,59202,1,0,0:0:0:0:
64,192,59449,1,0,0:0:0:0:
448,192,59646,1,0,0:0:0:0:
64,192,59893,1,0,0:0:0:0:
320,192,60041,128,0,60386:0:0:0:0:
64,192,60090,1,0,0:0:0:0:
192,192,60386,1,0,0:0:0:0:
64,192,60534,1,0,0:0:0:0:
192,192,60830,1,0,0:0:0:0:
448,192,60929,1,0,0:0:0:0:
320,192,61077,128,0,61521:0:0:0:0:
64,192,61126,1,0,0:0:0:0:
448,192,61225,1,0,0:0:0:0:
64,192,61324,1,0,0:0:0:0:
64,192,61571,1,0,0:0:0:0:
448,192,61817,128,0,62212:0:0:0:0:
192,192,61817,128,0,62212:0:0:0:0:
64,192,62212,1,0,0:0:0:0:
192,192,62311,1,0,0:0:0:0:
64,192,62656,1,0,0:0:0:0:
192,192,62853,1,0,0:0:0:0:
64,192,62952,1,0,0:0:0:0:
192,192,63051,128,0,63396:0:0:0:0:
448,192,63051,128,0,63396:0:0:0:0:
448,192,63495,1,0,0:0:0:0:
320,192,63692,1,0,0:0:0:0:
448,192,63939,1,0,0:0:0:0:
320,192,64038,1,0,0:0:0:0:
448,192,64136,1,0,0:0:0:0:
320,192,64334,1,0,0:0:0:0:
192,192,64531,1,0,0:0:0:0:
320,192,64679,1,0,0:0:0:0:
64,192,64778,1,0,0:0:0:0:
192,192,64975,1,0,0:0:0:0:
64,192,65222,1,0,0:0:0:0:
192,192,65567,1,0,0:0:0:0:
448,192,65567,1,0,0:0:0:0:
192,192,65666,128,0,66554:0:0:0:0:
448,192,65666,128,0,66554:0:0:0:0:
448,192,66949,128,0,67294:0:0:0:0:
320,192,67344,128,0,67738:0:0:0:0:
192,192,67788,128,0,68133:0:0:0:0:
64,192,68182,128,0,68528:0:0:0:0:
448,192,68676,1,0,0:0:0:0:
64,192,68873,1,0,0:0:0:0:
448,192,69071,1,0,0:0:0:0:
192,192,69317,1,0,0:0:0:0:
64,192,69712,1,0,0:0:0:0:
64,192,70156,1,0,0:0:0:0:
448,192,70403,1,0,0:0:0:0:
64,192,70600,1,0,0:0:0:0:
448,192,70798,1,0,0:0:0:0:
192,192,70995,1,0,0:0:0:0:
320,192,71439,1,0,0:0:0:0:
320,192,71834,1,0,0:0:0:0:
448,192,72080,128,0,72870:0:0:0:0:
64,192,72080,128,0,72870:0:0:0:0:
192,192,72080,128,0,72870:0:0:0:0:
320,192,72080,128,0,72870:0:0:0:0:
64,192,72969,1,0,0:0:0:0:
192,192,72969,1,0,0:0:0:0:
320,192,72969,1,0,0:0:0:0:
448,192,72969,1,0,0:0:0:0:
448,192,73117,1,0,0:0:0:0:
320,192,73117,1,0,0:0:0:0:
192,192,73117,1,0,0:0:0:0:
64,192,73117,1,0,0:0:0:0:
64,192,73314,1,0,0:0:0:0:
448,192,73314,1,0,0:0:0:0:
192,192,73462,1,0,0:0:0:0:
64,192,73511,1,0,0:0:0:0:
448,192,73511,1,0,0:0:0:0:
192,192,73610,1,0,0:0:0:0:
448,192,73709,1,0,0:0:0:0:
64,192,73709,1,0,0:0:0:0:
64,192,75534,1,0,0:0:0:0:
320,192,75732,1,0,0:0:0:0:
192,192,75830,1,0,0:0:0:0:
448,192,75929,1,0,0:0:0:0:
448,192,76176,1,0,0:0:0:0:
192,192,76373,1,0,0:0:0:0:
320,192,76571,1,0,0:0:0:0:
64,192,76669,1,0,0:0:0:0:
64,192,76817,1,0,0:0:0:0:
448,192,77064,1,0,0:0:0:0:
320,192,77212,1,0,0:0:0:0:
192,192,77459,1,0,0:0:0:0:
448,192,77557,1,0,0:0:0:0:
448,192,77656,1,0,0:0:0:0:
192,192,77853,1,0,0:0:0:0:
320,192,78051,1,0,0:0:0:0:
64,192,78298,1,0,0:0:0:0:
64,192,78396,1,0,0:0:0:0:
320,192,78495,1,0,0:0:0:0:
192,192,78742,1,0,0:0:0:0:
448,192,78939,1,0,0:0:0:0:
64,192,79136,1,0,0:0:0:0:
448,192,79284,1,0,0:0:0:0:
64,192,79383,1,0,0:0:0:0:
320,192,79580,1,0,0:0:0:0:
64,192,79778,1,0,0:0:0:0:
448,192,79975,1,0,0:0:0:0:
64,192,80123,1,0,0:0:0:0:
448,192,80222,1,0,0:0:0:0:
192,192,80419,1,0,0:0:0:0:
64,192,80666,1,0,0:0:0:0:
448,192,80863,1,0,0:0:0:0:
64,192,80962,1,0,0:0:0:0:
448,192,81061,1,0,0:0:0:0:
320,192,81258,1,0,0:0:0:0:
64,192,81505,1,0,0:0:0:0:
448,192,81702,1,0,0:0:0:0:
64,192,81850,1,0,0:0:0:0:
448,192,81899,1,0,0:0:0:0:
192,192,82146,1,0,0:0:0:0:
448,192,82393,1,0,0:0:0:0:
192,192,82590,1,0,0:0:0:0:
320,192,82689,1,0,0:0:0:0:
64,192,82788,1,0,0:0:0:0:
64,192,82985,1,0,0:0:0:0:
320,192,83232,1,0,0:0:0:0:
192,192,83380,1,0,0:0:0:0:
448,192,83577,1,0,0:0:0:0:
192,192,83676,1,0,0:0:0:0:
320,192,83873,1,0,0:0:0:0:
64,192,84071,1,0,0:0:0:0:
64,192,84268,1,0,0:0:0:0:
320,192,84416,1,0,0:0:0:0:
192,192,84515,1,0,0:0:0:0:
448,192,84761,1,0,0:0:0:0:
448,192,84959,1,0,0:0:0:0:
448,192,85156,1,0,0:0:0:0:
320,192,85255,1,0,0:0:0:0:
192,192,85353,1,0,0:0:0:0:
64,192,85452,1,0,0:0:0:0:
192,192,85600,1,0,0:0:0:0:
320,192,85699,1,0,0:0:0:0:
448,192,85798,128,0,86192:0:0:0:0:
64,192,85847,1,0,0:0:0:0:
64,192,86143,1,0,0:0:0:0:
192,192,86242,1,0,0:0:0:0:
64,192,86439,1,0,0:0:0:0:
448,192,86636,1,0,0:0:0:0:
320,192,86883,1,0,0:0:0:0:
448,192,86982,1,0,0:0:0:0:
320,192,87080,1,0,0:0:0:0:
448,192,87327,1,0,0:0:0:0:
64,192,87524,1,0,0:0:0:0:
192,192,87722,1,0,0:0:0:0:
64,192,87870,1,0,0:0:0:0:
192,192,87969,1,0,0:0:0:0:
64,192,88117,1,0,0:0:0:0:
448,192,88413,1,0,0:0:0:0:
320,192,88610,1,0,0:0:0:0:
448,192,88709,1,0,0:0:0:0:
320,192,88807,1,0,0:0:0:0:
448,192,88906,1,0,0:0:0:0:
64,192,89005,1,0,0:0:0:0:
192,192,89103,1,0,0:0:0:0:
64,192,89202,1,0,0:0:0:0:
448,192,89251,128,0,89597:0:0:0:0:
448,192,89696,1,0,0:0:0:0:
320,192,90090,1,0,0:0:0:0:
448,192,90485,1,0,0:0:0:0:
320,192,90732,1,0,0:0:0:0:
320,192,90929,128,0,91274:0:0:0:0:
64,192,90929,128,0,91274:0:0:0:0:
320,192,91373,1,0,0:0:0:0:
64,192,91373,1,0,0:0:0:0:
448,192,91817,1,0,0:0:0:0:
64,192,91817,1,0,0:0:0:0:
448,192,92212,1,0,0:0:0:0:
64,192,92212,1,0,0:0:0:0:
320,192,92459,1,0,0:0:0:0:
64,192,92459,1,0,0:0:0:0:
192,192,92557,1,0,0:0:0:0:
64,192,92656,1,0,0:0:0:0:
64,192,93100,1,0,0:0:0:0:
448,192,93100,1,0,0:0:0:0:
320,192,93495,128,0,93840:0:0:0:0:
64,192,93495,128,0,93840:0:0:0:0:
64,192,93939,1,0,0:0:0:0:
448,192,93939,1,0,0:0:0:0:
320,192,94136,1,0,0:0:0:0:
192,192,94136,1,0,0:0:0:0:
64,192,94235,1,0,0:0:0:0:
448,192,94235,1,0,0:0:0:0:
320,192,94383,128,0,94531:0:0:0:0:
192,192,94383,128,0,94531:0:0:0:0:
448,192,94580,1,0,0:0:0:0:
64,192,94580,1,0,0:0:0:0:
64,192,94827,1,0,0:0:0:0:
448,192,94827,1,0,0:0:0:0:
192,192,95024,1,0,0:0:0:0:
448,192,95024,1,0,0:0:0:0:
192,192,95123,1,0,0:0:0:0:
448,192,95123,1,0,0:0:0:0:
320,192,95222,1,0,0:0:0:0:
192,192,95469,1,0,0:0:0:0:
448,192,95469,1,0,0:0:0:0:
192,192,95666,1,0,0:0:0:0:
448,192,95666,1,0,0:0:0:0:
64,192,95863,1,0,0:0:0:0:
64,192,96061,128,0,96406:0:0:0:0:
448,192,96061,128,0,96406:0:0:0:0:
64,192,96505,1,0,0:0:0:0:
64,192,96949,128,0,97294:0:0:0:0:
64,192,97393,1,0,0:0:0:0:
64,192,97541,1,0,0:0:0:0:
64,192,97689,1,0,0:0:0:0:
64,192,97788,128,0,98133:0:0:0:0:
320,192,97788,128,0,98133:0:0:0:0:
64,192,98232,1,0,0:0:0:0:
448,192,98232,1,0,0:0:0:0:
192,192,98676,128,0,99021:0:0:0:0:
320,192,98676,128,0,99021:0:0:0:0:
64,192,99071,1,0,0:0:0:0:
448,192,99071,1,0,0:0:0:0:
64,192,99268,1,0,0:0:0:0:
64,192,99367,1,0,0:0:0:0:
448,192,99367,1,0,0:0:0:0:
64,192,99515,128,0,99860:0:0:0:0:
448,192,99515,128,0,99860:0:0:0:0:
64,192,99959,1,0,0:0:0:0:
448,192,99959,1,0,0:0:0:0:
64,192,100304,128,0,100699:0:0:0:0:
64,192,100798,1,0,0:0:0:0:
192,192,100995,1,0,0:0:0:0:
320,192,101143,1,0,0:0:0:0:
448,192,101242,128,0,101340:0:0:0:0:
448,192,101488,1,0,0:0:0:0:
320,192,101587,1,0,0:0:0:0:
192,192,101686,1,0,0:0:0:0:
64,192,101784,1,0,0:0:0:0:
320,192,101883,1,0,0:0:0:0:
192,192,102080,1,0,0:0:0:0:
320,192,102278,1,0,0:0:0:0:
448,192,102376,1,0,0:0:0:0:
64,192,102524,1,0,0:0:0:0:
64,192,102771,1,0,0:0:0:0:
448,192,102771,1,0,0:0:0:0:
192,192,102919,128,0,103363:0:0:0:0:
320,192,102919,128,0,103363:0:0:0:0:
