osu file format v14

[General]
AudioFilename: audio.mp3
AudioLeadIn: 0
PreviewTime: 57829
Countdown: 0
SampleSet: None
StackLeniency: 0.7
Mode: 0
LetterboxInBreaks: 0
WidescreenStoryboard: 0

[Editor]
Bookmarks: 18208,24829,31449,44691,97642
DistanceSpacing: 2.1
BeatDivisor: 4
GridSize: 4
TimelineZoom: 1

[Metadata]
Title:asd
TitleUnicode:asd
Artist:asd
ArtistUnicode:asd
Creator:agusch
Version:
Source:
Tags:
BeatmapID:1227516
BeatmapSetID:579739

[Difficulty]
HPDrainRate:7
CircleSize:4
OverallDifficulty:7
ApproachRate:8.5
SliderMultiplier:1.9
SliderTickRate:1

[Events]
//Background and Video events
//Break Periods
//Storyboard Layer 0 (Background)
//Storyboard Layer 1 (Fail)
//Storyboard Layer 2 (Pass)
//Storyboard Layer 3 (Foreground)
//Storyboard Sound Samples

[TimingPoints]
4953,413.793103448276,4,2,0,80,1,0
4953,-142.857142857143,4,2,0,80,0,0
31435,-117.647058823529,4,2,0,80,0,0
57932,-100,4,2,0,80,0,1
84401,-117.647058823529,4,2,0,80,0,0
110884,-100,4,2,0,80,0,1
137366,-100,4,2,0,80,0,0

[HitObjects]
163,338,4953,6,0,P|211:298|301:281,1,132.999995941162
353,322,5573,1,0,0:0:0:0:
310,199,5780,2,0,P|348:131|420:84,1,132.999995941162
278,300,6608,5,0,0:0:0:0:
278,320,7435,1,0,0:0:0:0:
203,49,8263,6,0,P|224:112|296:164,1,132.999995941162
359,157,8884,1,0,0:0:0:0:
260,240,9090,2,0,L|140:333,1,132.999995941162
393,297,9918,5,0,0:0:0:0:
131,70,10746,1,0,0:0:0:0:
430,241,11573,6,0,P|455:193|449:101,1,132.999995941162
399,48,12194,1,0,0:0:0:0:
334,156,12401,2,0,P|272:165|191:137,1,132.999995941162
420,251,13228,5,0,0:0:0:0:
410,261,14056,1,0,0:0:0:0:
186,73,14884,6,0,P|178:133|112:202,1,132.999995941162
48,196,15504,1,0,0:0:0:0:
144,277,15711,2,0,L|250:374,1,132.999995941162
62,207,16539,1,0,0:0:0:0:
374,353,17366,1,0,0:0:0:0:
117,121,18194,6,0,L|178:96,1,66.4999979705811
221,172,18608,2,0,L|282:147,1,66.4999979705811
370,56,19021,2,0,P|368:120|429:187,1,132.999995941162
170,82,19849,5,0,0:0:0:0:
112,245,20263,2,0,L|168:297,1,66.4999979705811
258,208,20677,2,0,P|257:279|300:354,1,132.999995941162
425,236,21504,6,0,L|456:163,1,66.4999979705811
373,135,21918,2,0,L|404:62,1,66.4999979705811
273,94,22332,2,0,P|212:112|134:80,1,132.999995941162
398,61,23159,5,0,0:0:0:0:
388,233,23573,2,0,L|323:280,1,66.4999979705811
249,177,23987,2,0,P|219:248|149:283,1,132.999995941162
219,110,24815,6,0,L|254:166,1,66.4999979705811
302,238,25228,1,0,0:0:0:0:
348,164,25435,1,0,0:0:0:0:
373,287,25642,2,0,P|437:302|519:271,1,132.999995941162
256,354,26470,5,0,0:0:0:0:
142,223,26884,2,0,L|117:159,1,66.4999979705811
239,128,27297,2,0,P|175:84|149:23,1,132.999995941162
35,164,28125,6,0,L|69:249,1,66.4999979705811
97,303,28539,1,0,0:0:0:0:
146,232,28746,1,0,0:0:0:0:
165,356,28953,2,0,P|233:363|313:324,1,132.999995941162
69,221,29780,5,0,0:0:0:0:
401,123,30608,1,0,0:0:0:0:
83,36,31435,6,0,P|121:80|158:98,1,80.750001540184
156,91,31746,1,0,0:0:0:0:
172,91,31849,1,0,0:0:0:0:
245,16,32056,1,0,0:0:0:0:
237,169,32263,2,0,P|203:188|163:193,1,80.750001540184
67,72,32677,1,0,0:0:0:0:
172,91,32884,1,0,0:0:0:0:
42,172,33090,6,0,P|42:212|54:250,1,80.750001540184
68,258,33401,1,0,0:0:0:0:
81,265,33504,1,0,0:0:0:0:
161,192,33711,1,0,0:0:0:0:
183,344,33918,1,0,0:0:0:0:
241,256,34125,1,0,0:0:0:0:
340,373,34332,2,0,P|376:361|409:335,1,80.750001540184
387,182,34746,5,0,0:0:0:0:
327,267,34953,1,0,0:0:0:0:
327,267,35056,1,0,0:0:0:0:
327,267,35159,1,0,0:0:0:0:
285,170,35366,1,0,0:0:0:0:
236,315,35573,2,0,P|193:324|139:308,1,80.750001540184
102,173,35987,1,0,0:0:0:0:
193,220,36194,1,0,0:0:0:0:
244,75,36401,5,0,0:0:0:0:
285,170,36608,1,0,0:0:0:0:
285,170,36711,1,0,0:0:0:0:
285,170,36815,1,0,0:0:0:0:
346,85,37021,1,0,0:0:0:0:
365,236,37228,2,0,P|328:262|284:272,1,80.750001540184
212,138,37642,2,0,P|251:146|283:168,1,80.750001540184
434,138,38056,6,0,P|407:100|361:74,1,80.750001540184
361,81,38366,1,0,0:0:0:0:
346,85,38470,1,0,0:0:0:0:
284,169,38677,1,0,0:0:0:0:
418,242,38884,2,0,P|420:287|404:331,1,80.750001540184
261,359,39297,1,0,0:0:0:0:
314,271,39504,1,0,0:0:0:0:
167,317,39711,6,0,P|126:306|75:267,1,80.750001540184
87,271,40021,1,0,0:0:0:0:
81,256,40125,1,0,0:0:0:0:
171,203,40332,1,0,0:0:0:0:
20,171,40539,1,0,0:0:0:0:
81,256,40746,1,0,0:0:0:0:
125,110,40953,2,0,P|167:100|226:111,1,80.750001540184
266,244,41366,5,0,0:0:0:0:
171,203,41573,1,0,0:0:0:0:
171,203,41677,1,0,0:0:0:0:
171,203,41780,1,0,0:0:0:0:
204,103,41987,1,0,0:0:0:0:
71,181,42194,1,0,0:0:0:0:
103,80,42401,1,0,0:0:0:0:
171,203,42608,2,0,P|210:208|249:198,1,80.750001540184
295,51,43021,5,0,0:0:0:0:
337,146,43228,1,0,0:0:0:0:
337,146,43332,1,0,0:0:0:0:
337,146,43435,1,0,0:0:0:0:
399,61,43642,1,0,0:0:0:0:
417,213,43849,1,0,0:0:0:0:
482,131,44056,1,0,0:0:0:0:
498,283,44263,1,0,0:0:0:0:
417,213,44470,1,0,0:0:0:0:
434,365,44677,6,0,P|390:366|337:339,1,80.750001540184
257,235,45090,2,0,P|301:233|354:261,1,80.750001540184
200,321,45504,2,0,P|169:289|152:232,1,80.750001540184
124,104,45918,2,0,P|161:126|191:178,1,80.750001540184
65,257,46332,5,0,0:0:0:0:
39,155,46539,1,0,0:0:0:0:
155,256,46746,1,0,0:0:0:0:
183,155,46953,1,0,0:0:0:0:
253,290,47159,1,0,0:0:0:0:
287,140,47366,2,0,L|287:108,4,20.187500385046
341,230,47780,1,0,0:0:0:0:
370,79,47987,6,0,P|334:47|286:36,1,80.750001540184
210,156,48401,2,0,P|258:154|300:128,1,80.750001540184
157,55,48815,2,0,P|119:84|100:130,1,80.750001540184
68,262,49228,2,0,P|108:235|131:191,1,80.750001540184
157,55,49642,5,0,0:0:0:0:
205,147,49849,1,0,0:0:0:0:
205,147,50056,1,0,0:0:0:0:
55,36,50263,1,0,0:0:0:0:
125,208,50470,1,0,0:0:0:0:
125,208,50677,1,0,0:0:0:0:
157,55,50884,1,0,0:0:0:0:
80,126,51090,1,0,0:0:0:0:
259,76,51297,6,0,P|302:83|345:112,1,80.750001540184
440,244,51711,2,0,P|397:237|354:208,1,80.750001540184
434,67,52125,2,0,P|427:110|399:153,1,80.750001540184
268,250,52539,2,0,P|273:210|292:174,1,80.750001540184
345,321,52953,5,0,0:0:0:0:
312,344,53056,1,0,0:0:0:0:
273,354,53159,1,0,0:0:0:0:
234,349,53263,1,0,0:0:0:0:
199,328,53366,1,0,0:0:0:0:
166,227,53573,1,0,0:0:0:0:
103,368,53780,1,0,0:0:0:0:
54,277,53987,1,0,0:0:0:0:
199,328,54194,1,0,0:0:0:0:
78,186,54401,1,0,0:0:0:0:
268,250,54608,5,0,0:0:0:0:
236,149,54815,1,0,0:0:0:0:
236,149,54918,1,0,0:0:0:0:
236,149,55021,1,0,0:0:0:0:
166,227,55228,1,0,0:0:0:0:
135,126,55435,1,0,0:0:0:0:
236,149,55642,1,0,0:0:0:0:
205,48,55849,1,0,0:0:0:0:
307,69,56056,1,0,0:0:0:0:
135,126,56263,5,0,0:0:0:0:
133,166,56366,1,0,0:0:0:0:
147,203,56469,1,0,0:0:0:0:
174,233,56573,1,0,0:0:0:0:
210,250,56676,1,0,0:0:0:0:
236,149,56884,1,0,0:0:0:0:
313,271,57090,1,0,0:0:0:0:
255,29,57504,5,0,0:0:0:0:
464,159,57918,6,0,P|434:203|368:232,1,95
351,109,58332,1,0,0:0:0:0:
279,209,58539,1,0,0:0:0:0:
255,29,58746,2,0,P|207:24|161:33,1,95
350,109,59159,2,0,P|372:66|378:19,1,95
464,159,59573,6,0,P|434:203|368:232,1,95
232,153,59987,1,0,0:0:0:0:
350,109,60194,1,0,0:0:0:0:
185,34,60401,2,0,P|145:59|118:98,1,95
232,153,60815,1,0,0:0:0:0:
61,209,61021,1,0,0:0:0:0:
61,209,61125,1,0,0:0:0:0:
61,209,61228,6,0,P|20:174|-3:112,1,95
118,98,61642,1,0,0:0:0:0:
157,215,61849,1,0,0:0:0:0:
237,53,62056,2,0,P|296:41|361:64,1,95
362,214,62470,2,0,P|319:195|286:162,1,95
223,302,62884,6,0,P|245:343|280:376,1,95
362,214,63297,1,0,0:0:0:0:
414,325,63504,1,0,0:0:0:0:
474,154,63711,2,0,P|444:109|391:78,1,95
235,40,64125,2,0,P|274:76|333:93,1,95
362,214,64539,6,0,P|323:237|257:240,1,95
228,231,64850,1,0,0:0:0:0:
189,203,64953,1,0,0:0:0:0:
165,162,65056,1,0,0:0:0:0:
158,115,65160,1,0,0:0:0:0:
281,117,65366,1,0,0:0:0:0:
227,5,65573,1,0,0:0:0:0:
350,9,65780,1,0,0:0:0:0:
281,117,65987,1,0,0:0:0:0:
227,5,66194,5,0,0:0:0:0:
189,33,66297,1,0,0:0:0:0:
165,74,66400,1,0,0:0:0:0:
158,121,66504,1,0,0:0:0:0:
168,167,66607,1,0,0:0:0:0:
281,117,66815,1,0,0:0:0:0:
269,239,67021,1,0,0:0:0:0:
383,191,67228,1,0,0:0:0:0:
281,117,67435,1,0,0:0:0:0:
459,87,67642,1,0,0:0:0:0:
459,87,67746,1,0,0:0:0:0:
458,86,67849,6,0,P|436:37|382:-2,1,95
392,23,68159,1,0,0:0:0:0:
378,36,68263,1,0,0:0:0:0:
281,117,68470,1,0,0:0:0:0:
458,86,68677,1,0,0:0:0:0:
364,166,68884,1,0,0:0:0:0:
378,36,69090,1,0,0:0:0:0:
489,178,69297,1,0,0:0:0:0:
364,166,69504,5,0,0:0:0:0:
324,192,69607,1,0,0:0:0:0:
298,231,69710,1,0,0:0:0:0:
289,277,69814,1,0,0:0:0:0:
298,324,69917,1,0,0:0:0:0:
281,117,70125,1,0,0:0:0:0:
414,281,70332,1,0,0:0:0:0:
182,227,70539,5,0,0:0:0:0:
163,221,70746,1,0,0:0:0:0:
144,215,70953,1,0,0:0:0:0:
323,192,71159,6,0,P|366:172|397:136,1,95
293,69,71573,1,0,0:0:0:0:
324,192,71780,1,0,0:0:0:0:
431,47,71987,2,0,P|473:77|492:119,1,95
384,260,72401,2,0,P|342:230|323:188,1,95
153,281,72815,6,0,P|204:293|276:266,1,95
323,191,73228,1,0,0:0:0:0:
203,158,73435,1,0,0:0:0:0:
358,66,73642,2,0,P|413:99|442:147,1,95
409,245,74056,1,0,0:0:0:0:
285,115,74263,1,0,0:0:0:0:
285,115,74366,1,0,0:0:0:0:
284,113,74470,6,0,P|238:127|202:157,1,95
180,279,74884,1,0,0:0:0:0:
296,237,75090,1,0,0:0:0:0:
118,205,75297,2,0,P|104:148|132:87,1,95
266,24,75711,2,0,P|287:78|268:142,1,95
417,255,76125,6,0,P|413:198|379:147,1,95
283,113,76539,1,0,0:0:0:0:
293,236,76746,1,0,0:0:0:0:
158,115,76953,2,0,P|164:68|190:29,1,95
205,229,77366,2,0,P|153:239|81:206,1,95
250,347,77780,6,0,P|297:340|349:302,1,95
364,277,78090,1,0,0:0:0:0:
377,231,78193,1,0,0:0:0:0:
372,184,78297,1,0,0:0:0:0:
351,142,78400,1,0,0:0:0:0:
253,221,78608,1,0,0:0:0:0:
235,98,78815,1,0,0:0:0:0:
351,142,79021,1,0,0:0:0:0:
336,19,79228,1,0,0:0:0:0:
450,66,79435,5,0,0:0:0:0:
471,108,79538,1,0,0:0:0:0:
475,155,79641,1,0,0:0:0:0:
461,200,79745,1,0,0:0:0:0:
432,237,79848,1,0,0:0:0:0:
351,142,80056,1,0,0:0:0:0:
310,258,80263,1,0,0:0:0:0:
228,164,80470,1,0,0:0:0:0:
351,142,80677,1,0,0:0:0:0:
197,46,80884,1,0,0:0:0:0:
197,46,80987,1,0,0:0:0:0:
197,46,81090,6,0,P|152:68|111:136,1,95
115,119,81401,1,0,0:0:0:0:
110,137,81504,1,0,0:0:0:0:
228,164,81711,1,0,0:0:0:0:
74,258,81918,1,0,0:0:0:0:
110,137,82125,1,0,0:0:0:0:
171,243,82332,1,0,0:0:0:0:
189,63,82539,1,0,0:0:0:0:
237,176,82746,5,0,0:0:0:0:
272,208,82849,1,0,0:0:0:0:
316,225,82952,1,0,0:0:0:0:
363,224,83056,1,0,0:0:0:0:
406,206,83159,1,0,0:0:0:0:
171,243,83366,1,0,0:0:0:0:
338,102,83573,1,0,0:0:0:0:
100,109,83780,5,0,0:0:0:0:
81,110,83987,1,0,0:0:0:0:
62,111,84194,1,0,0:0:0:0:
193,32,84401,6,0,L|238:71,1,40.375000770092
182,132,84608,2,0,L|227:171,1,40.375000770092
286,117,84815,2,0,L|331:156,1,40.375000770092
276,217,85021,2,0,L|321:256,1,40.375000770092
380,201,85228,2,0,L|425:240,1,40.375000770092
369,302,85435,2,0,L|414:341,1,40.375000770092
399,74,86056,6,0,L|354:113,1,40.375000770092
410,174,86263,2,0,L|365:213,1,40.375000770092
306,159,86470,2,0,L|261:198,1,40.375000770092
316,259,86676,2,0,L|271:298,1,40.375000770092
173,262,86883,6,0,L|204:236,1,40.375000770092
168,158,87090,2,0,L|198:131,1,40.375000770092
267,178,87297,2,0,L|298:152,1,40.375000770092
260,75,87504,2,0,L|290:48,1,40.375000770092
391,67,87711,6,0,L|346:106,1,40.375000770092
402,167,87918,2,0,L|357:206,1,40.375000770092
298,152,88125,2,0,L|253:191,1,40.375000770092
308,252,88331,2,0,L|263:291,1,40.375000770092
203,236,88539,2,0,L|158:275,1,40.375000770092
173,347,88746,1,0,0:0:0:0:
173,347,88849,1,0,0:0:0:0:
173,347,88953,1,0,0:0:0:0:
203,236,89159,1,0,0:0:0:0:
337,339,89366,6,0,L|368:363,1,40.375000770092
337,253,89573,2,0,L|371:274,1,40.375000770092
337,167,89780,2,0,L|371:188,1,40.375000770092
337,81,89987,2,0,L|371:102,1,40.375000770092
238,59,90194,6,0,L|206:34,1,40.375000770092
238,145,90401,2,0,L|203:123,1,40.375000770092
238,231,90608,2,0,L|203:209,1,40.375000770092
238,317,90815,2,0,L|203:295,1,40.375000770092
