osu file format v14

[General]
AudioFilename: audio.mp3
AudioLeadIn: 0
PreviewTime: 34154
Countdown: 1
SampleSet: Soft
StackLeniency: 0.7
Mode: 3
LetterboxInBreaks: 0
SpecialStyle: 0
WidescreenStoryboard: 1

[Editor]
DistanceSpacing: 0.8
BeatDivisor: 4
GridSize: 16
TimelineZoom: 1.7

[Metadata]
Title:Kizuato
TitleUnicode:キズアト
Artist:a*ru
ArtistUnicode:a☆ru
Creator:Julio1212-
Version:Normal
Source:東方妖々夢 ~ Perfect Cherry Blossom.
Tags:ALiCE'S EMOTiON th7 touhou youyomu ayumi nomiya redalice scar ブクレシュティの人形師 the doll maker of bucuresti overdrive Alice Margatroid アリス・マーガトロイド
BeatmapID:1565366
BeatmapSetID:740213

[Difficulty]
HPDrainRate:7.6
CircleSize:7
OverallDifficulty:7.4
ApproachRate:5
SliderMultiplier:1.4
SliderTickRate:1

[Events]
//Background and Video events
0,0,"maxresdefault.jpg",0,0
//Break Periods
//Storyboard Layer 0 (Background)
//Storyboard Layer 1 (Fail)
//Storyboard Layer 2 (Pass)
//Storyboard Layer 3 (Foreground)
//Storyboard Sound Samples

[TimingPoints]
1380,346.820809248555,4,2,1,20,1,0
12478,-100,4,2,1,41,0,0
34414,-100,4,2,1,28,0,0
34501,-100,4,2,1,25,0,0
34674,-100,4,2,1,41,0,1
45079,-100,4,2,1,30,0,0
45773,-100,4,2,1,41,0,1
55484,-100,4,2,1,41,0,0
79808,-100,4,2,1,30,0,0

[HitObjects]
182,192,1380,5,0,0:0:0:0:
329,192,1900,1,0,0:0:0:0:
182,192,2247,1,0,0:0:0:0:
109,192,2420,1,0,0:0:0:0:
182,192,2593,1,0,0:0:0:0:
256,128,2767,1,0,0:0:0:0:
402,192,3287,1,0,0:0:0:0:
256,192,3634,1,0,0:0:0:0:
182,192,3807,1,0,0:0:0:0:
256,192,3981,1,0,0:0:0:0:
329,192,4154,1,0,0:0:0:0:
109,192,4674,1,0,0:0:0:0:
402,192,5021,1,0,0:0:0:0:
475,192,5195,1,0,0:0:0:0:
402,192,5368,1,0,0:0:0:0:
329,192,5541,1,0,0:0:0:0:
109,192,6062,1,0,0:0:0:0:
329,192,6408,1,0,0:0:0:0:
256,192,6582,1,0,0:0:0:0:
329,192,6755,1,0,0:0:0:0:
402,192,6929,1,0,0:0:0:0:
36,192,7449,1,0,0:0:0:0:
256,192,7796,1,0,0:0:0:0:
329,192,7969,1,0,0:0:0:0:
402,192,8143,1,0,0:0:0:0:
475,192,8316,1,0,0:0:0:0:
256,192,8836,1,0,0:0:0:0:
182,192,9183,1,0,0:0:0:0:
109,192,9356,1,0,0:0:0:0:
36,192,9530,1,0,0:0:0:0:
109,192,9703,1,0,0:0:0:0:
329,192,10223,1,0,0:0:0:0:
182,192,10570,1,0,0:0:0:0:
256,192,10744,1,0,0:0:0:0:
329,192,10917,1,0,0:0:0:0:
475,64,11090,1,0,0:0:0:0:
182,192,11437,1,0,0:0:0:0:
329,128,11784,1,0,0:0:0:0:
109,192,12131,1,0,0:0:0:0:
256,192,12478,1,2,0:0:0:0:
475,192,12478,1,12,0:0:0:0:
109,192,12825,1,0,0:0:0:0:
402,64,13171,1,10,0:0:0:0:
182,192,13171,1,10,0:0:0:0:
256,192,13518,1,0,0:0:0:0:
182,192,13865,1,2,0:0:0:0:
475,192,13865,1,2,0:0:0:0:
402,192,14212,1,0,0:0:0:0:
475,192,14559,1,10,0:0:0:0:
109,192,14559,1,10,0:0:0:0:
182,192,14906,1,0,0:0:0:0:
402,192,15252,1,2,0:0:0:0:
36,192,15252,1,2,0:0:0:0:
329,192,15599,1,0,0:0:0:0:
475,128,15946,1,10,0:0:0:0:
256,192,15946,1,10,0:0:0:0:
109,192,16293,1,0,0:0:0:0:
182,192,16466,1,2,0:0:0:0:
256,128,16640,1,2,0:0:0:0:
36,192,16640,1,2,0:0:0:0:
402,192,16986,1,0,0:0:0:0:
329,192,17333,1,10,0:0:0:0:
109,192,17333,1,10,0:0:0:0:
475,192,17680,1,2,0:0:0:0:
256,160,18027,1,2,0:0:0:0:
475,192,18027,1,2,0:0:0:0:
182,192,18374,1,0,0:0:0:0:
36,192,18721,1,10,0:0:0:0:
329,192,18721,1,10,0:0:0:0:
402,192,19067,1,0,0:0:0:0:
475,192,19414,1,2,0:0:0:0:
182,192,19414,1,2,0:0:0:0:
329,192,19761,1,0,0:0:0:0:
36,192,20108,1,10,0:0:0:0:
256,192,20108,1,10,0:0:0:0:
329,192,20455,1,0,0:0:0:0:
475,192,20801,1,2,0:0:0:0:
182,192,20801,1,2,0:0:0:0:
256,192,21148,1,0,0:0:0:0:
36,192,21495,1,10,0:0:0:0:
402,192,21495,1,10,0:0:0:0:
182,192,21842,1,0,0:0:0:0:
256,192,22015,1,2,0:0:0:0:
475,192,22189,1,10,0:0:0:0:
36,192,22189,1,10,0:0:0:0:
256,192,22536,1,0,0:0:0:0:
402,192,22882,1,10,0:0:0:0:
109,192,22882,1,10,0:0:0:0:
402,192,23229,1,10,0:0:0:0:
109,192,23229,1,10,0:0:0:0:
475,192,23403,1,10,0:0:0:0:
329,192,23489,1,10,0:0:0:0:
36,192,23576,1,14,0:0:0:0:
182,192,23576,1,0,0:0:0:0:
256,192,23923,1,0,0:0:0:0:
36,192,24270,1,0,0:0:0:0:
182,192,24616,1,0,0:0:0:0:
256,192,24790,1,0,0:0:0:0:
128,128,24963,1,2,0:0:0:0:
329,192,24963,1,2,0:0:0:0:
475,192,25310,1,0,0:0:0:0:
329,192,25657,1,0,0:0:0:0:
36,192,25657,1,0,0:0:0:0:
475,192,26004,1,0,0:0:0:0:
182,192,26004,1,0,0:0:0:0:
402,192,26351,1,2,0:0:0:0:
109,192,26351,1,2,0:0:0:0:
256,192,26697,1,0,0:0:0:0:
109,192,27044,1,0,0:0:0:0:
256,192,27218,1,0,0:0:0:0:
402,192,27391,1,0,0:0:0:0:
109,192,27391,1,0,0:0:0:0:
256,192,27738,1,2,0:0:0:0:
36,192,27738,1,2,0:0:0:0:
475,192,28085,1,0,0:0:0:0:
402,192,28432,1,2,0:0:0:0:
109,192,28432,1,2,0:0:0:0:
329,192,28778,1,0,0:0:0:0:
256,192,29125,1,6,0:0:0:0:
36,192,29125,1,2,0:0:0:0:
475,192,29125,1,6,0:0:0:0:
36,192,29472,1,2,0:0:0:0:
402,192,29819,1,2,0:0:0:0:
36,192,29819,1,2,0:0:0:0:
182,192,30166,1,2,0:0:0:0:
329,192,30512,1,2,0:0:0:0:
475,192,30512,1,2,0:0:0:0:
475,192,30859,1,2,0:0:0:0:
475,192,31206,1,2,0:0:0:0:
109,192,31206,1,2,0:0:0:0:
36,192,31553,1,2,0:0:0:0:
329,192,31553,1,2,0:0:0:0:
109,192,31900,1,2,0:0:0:0:
402,192,31900,1,2,0:0:0:0:
329,192,32073,1,2,0:0:0:0:
256,192,32247,1,2,0:0:0:0:
182,192,32420,1,2,0:0:0:0:
109,192,32593,1,2,0:0:0:0:
402,192,32593,1,2,0:0:0:0:
36,192,32767,1,2,0:0:0:0:
109,192,32940,1,2,0:0:0:0:
329,192,32940,1,2,0:0:0:0:
402,192,33027,1,2,0:0:0:0:
182,192,33114,1,2,0:0:0:0:
475,192,33114,1,2,0:0:0:0:
256,192,33287,1,0,0:0:0:0:
402,192,33460,1,6,0:0:0:0:
109,192,33460,1,2,0:0:0:0:
402,192,33634,1,6,0:0:0:0:
109,192,33634,1,2,0:0:0:0:
36,192,33981,1,10,0:0:0:0:
475,192,33981,1,10,0:0:0:0:
109,192,34327,128,0,34674:0:0:0:0:
256,160,34674,1,6,0:0:0:0:
475,192,34674,1,6,0:0:0:0:
329,192,35021,1,10,0:0:0:0:
36,192,35021,1,10,0:0:0:0:
182,192,35368,1,2,0:0:0:0:
256,192,35541,1,2,0:0:0:0:
329,192,35715,1,10,0:0:0:0:
36,192,35715,1,10,0:0:0:0:
160,160,36062,1,2,0:0:0:0:
402,192,36408,1,10,0:0:0:0:
109,192,36408,1,10,0:0:0:0:
329,192,36755,1,2,0:0:0:0:
402,192,36929,1,2,0:0:0:0:
475,192,37102,1,10,0:0:0:0:
182,192,37102,1,10,0:0:0:0:
329,192,37449,1,2,0:0:0:0:
36,192,37449,1,2,0:0:0:0:
475,192,37796,1,10,0:0:0:0:
256,192,37796,1,10,0:0:0:0:
182,192,38143,1,2,0:0:0:0:
329,192,38316,1,2,0:0:0:0:
256,192,38489,1,10,0:0:0:0:
36,192,38489,1,10,0:0:0:0:
402,192,38663,1,2,0:0:0:0:
182,192,38836,1,2,0:0:0:0:
402,192,38836,1,2,0:0:0:0:
109,192,39010,1,2,0:0:0:0:
36,192,39183,1,10,0:0:0:0:
329,192,39183,1,10,0:0:0:0:
402,192,39356,1,2,0:0:0:0:
109,192,39530,1,10,0:0:0:0:
256,192,39616,1,10,0:0:0:0:
402,192,39703,1,10,0:0:0:0:
475,192,39877,1,10,0:0:0:0:
36,192,39877,1,10,0:0:0:0:
329,192,40223,1,2,0:0:0:0:
182,192,40223,1,2,0:0:0:0:
402,192,40397,1,2,0:0:0:0:
475,192,40570,1,10,0:0:0:0:
256,192,40570,1,10,0:0:0:0:
36,192,40830,1,2,0:0:0:0:
128,96,40917,1,2,0:0:0:0:
182,192,41090,1,2,0:0:0:0:
256,192,41264,1,10,0:0:0:0:
475,192,41264,1,10,0:0:0:0:
402,192,41611,1,2,0:0:0:0:
256,192,41784,1,2,0:0:0:0:
109,192,41958,1,10,0:0:0:0:
475,192,41958,1,10,0:0:0:0:
402,192,42218,1,2,0:0:0:0:
329,192,42304,1,2,0:0:0:0:
256,192,42478,1,2,0:0:0:0:
36,192,42651,1,10,0:0:0:0:
182,192,42651,1,10,0:0:0:0:
256,192,42998,1,2,0:0:0:0:
475,192,42998,1,2,0:0:0:0:
475,192,43171,1,2,0:0:0:0:
182,192,43345,1,2,0:0:0:0:
402,192,43345,1,2,0:0:0:0:
402,192,43518,1,2,0:0:0:0:
329,192,43692,1,2,0:0:0:0:
109,192,43692,1,2,0:0:0:0:
329,192,43865,1,2,0:0:0:0:
402,192,44038,1,10,0:0:0:0:
182,192,44038,1,10,0:0:0:0:
475,192,44212,1,2,0:0:0:0:
36,192,44212,1,2,0:0:0:0:
109,192,44299,1,2,0:0:0:0:
329,192,44385,1,6,0:0:0:0:
182,192,44385,1,6,0:0:0:0:
402,192,44559,1,2,0:0:0:0:
475,192,44732,1,10,0:0:0:0:
256,192,44732,1,10,0:0:0:0:
36,192,44906,1,0,0:0:0:0:
182,192,45079,1,0,0:0:0:0:
329,192,45252,1,0,0:0:0:0:
475,192,45426,1,0,0:0:0:0:
96,160,45773,1,6,0:0:0:0:
402,192,45773,1,6,0:0:0:0:
329,192,45946,1,0,0:0:0:0:
475,192,46119,1,10,0:0:0:0:
182,192,46119,1,10,0:0:0:0:
36,192,46466,1,2,0:0:0:0:
182,192,46640,1,2,0:0:0:0:
329,192,46813,1,10,0:0:0:0:
109,192,46813,1,10,0:0:0:0:
402,192,46986,1,0,0:0:0:0:
256,192,47160,1,2,0:0:0:0:
36,192,47160,1,2,0:0:0:0:
329,192,47333,1,0,0:0:0:0:
475,192,47507,1,10,0:0:0:0:
182,192,47507,1,10,0:0:0:0:
329,192,47853,1,0,0:0:0:0:
256,192,48027,1,2,0:0:0:0:
402,192,48200,1,10,0:0:0:0:
109,192,48200,1,10,0:0:0:0:
256,192,48374,1,0,0:0:0:0:
329,192,48547,1,2,0:0:0:0:
475,192,48547,1,2,0:0:0:0:
182,192,48721,1,0,0:0:0:0:
256,192,48894,1,10,0:0:0:0:
36,192,48894,1,10,0:0:0:0:
475,192,49241,1,2,0:0:0:0:
256,192,49241,1,2,0:0:0:0:
36,192,49414,1,2,0:0:0:0:
329,192,49588,1,10,0:0:0:0:
182,192,49588,1,10,0:0:0:0:
402,192,49761,1,2,0:0:0:0:
475,192,49934,1,2,0:0:0:0:
109,192,49934,1,2,0:0:0:0:
256,192,50108,1,2,0:0:0:0:
402,192,50281,1,10,0:0:0:0:
109,192,50281,1,10,0:0:0:0:
256,192,50455,1,2,0:0:0:0:
475,192,50628,1,10,0:0:0:0:
36,192,50628,1,10,0:0:0:0:
329,192,50715,1,2,0:0:0:0:
182,192,50801,1,2,0:0:0:0:
256,192,50975,1,10,0:0:0:0:
109,192,50975,1,10,0:0:0:0:
329,192,51148,1,0,0:0:0:0:
182,192,51322,1,2,0:0:0:0:
475,192,51322,1,2,0:0:0:0:
109,192,51495,1,2,0:0:0:0:
329,192,51669,1,10,0:0:0:0:
36,192,51669,1,10,0:0:0:0:
402,192,51929,1,2,0:0:0:0:
475,192,52015,1,2,0:0:0:0:
182,192,52015,1,2,0:0:0:0:
256,192,52189,1,2,0:0:0:0:
329,192,52362,1,10,0:0:0:0:
36,192,52362,1,10,0:0:0:0:
402,128,52709,1,2,0:0:0:0:
329,192,52882,1,2,0:0:0:0:
109,192,53056,1,10,0:0:0:0:
256,192,53056,1,10,0:0:0:0:
475,192,53316,1,2,0:0:0:0:
402,192,53403,1,2,0:0:0:0:
256,192,53576,1,2,0:0:0:0:
182,192,53749,1,10,0:0:0:0:
36,192,53749,1,10,0:0:0:0:
402,192,53923,1,0,0:0:0:0:
36,192,54096,1,2,0:0:0:0:
329,192,54096,1,2,0:0:0:0:
36,192,54270,1,2,0:0:0:0:
182,192,54443,1,2,0:0:0:0:
402,192,54443,1,2,0:0:0:0:
182,192,54616,1,2,0:0:0:0:
329,192,54790,1,2,0:0:0:0:
36,192,54790,1,2,0:0:0:0:
329,192,54963,1,2,0:0:0:0:
182,192,55137,1,10,0:0:0:0:
475,192,55137,1,10,0:0:0:0:
256,192,55310,1,2,0:0:0:0:
329,192,55397,1,2,0:0:0:0:
36,192,55484,1,14,0:0:0:0:
402,192,55484,1,10,0:0:0:0:
182,192,55657,1,2,0:0:0:0:
475,192,55830,1,10,0:0:0:0:
329,192,55830,1,10,0:0:0:0:
182,192,56004,1,2,0:0:0:0:
36,192,56004,128,8,56871:0:0:0:0:
109,192,56871,1,2,0:0:0:0:
329,192,56871,1,4,0:0:0:0:
475,192,56871,1,14,0:0:0:0:
402,192,57218,1,10,0:0:0:0:
182,192,57218,1,10,0:0:0:0:
329,192,57564,1,2,0:0:0:0:
256,192,57911,1,10,0:0:0:0:
475,192,57911,1,10,0:0:0:0:
109,192,58258,1,2,0:0:0:0:
36,192,58605,1,10,0:0:0:0:
329,192,58605,1,10,0:0:0:0:
256,192,58952,1,2,0:0:0:0:
182,192,59299,1,10,0:0:0:0:
475,192,59299,1,10,0:0:0:0:
329,192,59645,1,2,0:0:0:0:
256,192,59992,1,10,0:0:0:0:
36,192,59992,1,10,0:0:0:0:
182,192,60339,1,2,0:0:0:0:
256,192,60686,1,10,0:0:0:0:
475,192,60686,1,10,0:0:0:0:
36,192,61033,1,2,0:0:0:0:
402,192,61380,1,10,0:0:0:0:
182,192,61380,1,10,0:0:0:0:
36,192,61726,1,2,0:0:0:0:
256,192,62073,1,10,0:0:0:0:
475,192,62073,1,10,0:0:0:0:
329,192,62420,1,2,0:0:0:0:
256,192,62767,1,10,0:0:0:0:
109,192,62767,1,10,0:0:0:0:
402,192,63114,1,2,0:0:0:0:
329,192,63460,1,10,0:0:0:0:
182,192,63460,1,10,0:0:0:0:
36,192,63807,1,2,0:0:0:0:
109,192,64154,1,10,0:0:0:0:
329,192,64154,1,10,0:0:0:0:
36,192,64501,1,2,0:0:0:0:
182,192,64848,1,10,0:0:0:0:
402,192,64848,1,10,0:0:0:0:
475,192,65195,1,2,0:0:0:0:
475,192,65368,1,2,0:0:0:0:
109,192,65541,1,10,0:0:0:0:
329,192,65541,1,10,0:0:0:0:
475,192,65715,1,2,0:0:0:0:
475,192,66062,1,2,0:0:0:0:
402,192,66235,1,10,0:0:0:0:
182,192,66235,1,10,0:0:0:0:
36,192,66408,1,8,0:0:0:0:
109,192,66495,1,8,0:0:0:0:
182,192,66582,1,6,0:0:0:0:
475,192,66582,1,2,0:0:0:0:
329,192,66929,1,2,0:0:0:0:
36,192,66929,1,6,0:0:0:0:
402,192,67275,1,2,0:0:0:0:
109,192,67275,1,2,0:0:0:0:
256,192,67449,1,2,0:0:0:0:
475,192,67622,1,10,0:0:0:0:
36,192,67622,1,10,0:0:0:0:
329,192,67969,1,2,0:0:0:0:
402,192,68143,1,2,0:0:0:0:
256,192,68316,1,2,0:0:0:0:
329,192,68489,1,2,0:0:0:0:
182,192,68663,1,2,0:0:0:0:
256,192,68836,1,2,0:0:0:0:
402,192,69010,1,10,0:0:0:0:
109,192,69010,1,10,0:0:0:0:
182,192,69183,1,10,0:0:0:0:
256,192,69270,1,10,0:0:0:0:
329,192,69356,1,14,0:0:0:0:
36,192,69356,1,14,0:0:0:0:
182,192,69703,1,10,0:0:0:0:
475,192,69703,1,10,0:0:0:0:
329,192,70050,1,2,0:0:0:0:
402,192,70397,1,10,0:0:0:0:
109,192,70397,1,10,0:0:0:0:
182,192,70744,1,2,0:0:0:0:
329,192,71090,1,10,0:0:0:0:
36,192,71090,1,10,0:0:0:0:
182,192,71437,1,2,0:0:0:0:
36,192,71784,1,10,0:0:0:0:
402,192,71784,1,10,0:0:0:0:
329,192,72131,1,2,0:0:0:0:
256,192,72478,1,10,0:0:0:0:
475,192,72478,1,10,0:0:0:0:
109,192,72825,1,2,0:0:0:0:
182,192,73171,1,10,0:0:0:0:
402,192,73171,1,10,0:0:0:0:
109,192,73518,1,2,0:0:0:0:
475,192,73865,1,10,0:0:0:0:
256,192,73865,1,10,0:0:0:0:
329,192,74212,1,2,0:0:0:0:
182,192,74559,1,10,0:0:0:0:
402,192,74559,1,10,0:0:0:0:
256,192,74906,1,2,0:0:0:0:
475,192,75252,1,10,0:0:0:0:
96,160,75252,1,10,0:0:0:0:
402,192,75599,1,0,0:0:0:0:
182,192,75773,1,2,0:0:0:0:
256,192,75946,1,10,0:0:0:0:
475,192,75946,1,10,0:0:0:0:
256,192,76119,1,10,0:0:0:0:
475,192,76293,1,10,0:0:0:0:
109,192,76293,1,10,0:0:0:0:
402,192,76466,1,2,0:0:0:0:
329,192,76640,1,2,0:0:0:0:
36,192,76813,1,10,0:0:0:0:
475,192,76813,1,10,0:0:0:0:
109,192,76986,1,2,0:0:0:0:
182,192,77160,1,2,0:0:0:0:
475,192,77333,1,10,0:0:0:0:
36,192,77333,1,10,0:0:0:0:
329,192,77507,1,2,0:0:0:0:
402,192,77680,1,10,0:0:0:0:
109,192,77680,1,10,0:0:0:0:
109,192,78027,1,10,0:0:0:0:
402,192,78027,1,10,0:0:0:0:
256,192,78374,1,2,0:0:0:0:
109,192,78547,1,10,0:0:0:0:
402,192,78547,1,10,0:0:0:0:
256,192,79067,1,4,0:0:0:0:
224,96,80455,1,0,0:0:0:0:
224,96,81842,1,0,0:0:0:0:
224,96,83229,1,0,0:0:0:0:
224,96,84616,1,0,0:0:0:0:
224,96,86004,1,0,0:0:0:0:
224,96,87391,1,0,0:0:0:0:
256,192,88778,128,0,90166:0:0:0:0:
