osu file format v14

[General]
AudioFilename: audio.mp3
AudioLeadIn: 0
PreviewTime: 34154
Countdown: 1
SampleSet: Soft
StackLeniency: 0.7
Mode: 3
LetterboxInBreaks: 0
SpecialStyle: 0
WidescreenStoryboard: 1

[Editor]
DistanceSpacing: 0.8
BeatDivisor: 4
GridSize: 16
TimelineZoom: 2.599999

[Metadata]
Title:Kizuato
TitleUnicode:キズアト
Artist:a*ru
ArtistUnicode:a☆ru
Creator:Julio1212-
Version:Insane
Source:東方妖々夢 ~ Perfect Cherry Blossom.
Tags:ALiCE'S EMOTiON th7 touhou youyomu ayumi nomiya redalice scar ブクレシュティの人形師 the doll maker of bucuresti overdrive Alice Margatroid アリス・マーガトロイド
BeatmapID:1561707
BeatmapSetID:740213

[Difficulty]
HPDrainRate:7.8
CircleSize:7
OverallDifficulty:8
ApproachRate:5
SliderMultiplier:1.4
SliderTickRate:1

[Events]
//Background and Video events
0,0,"maxresdefault.jpg",0,0
//Break Periods
//Storyboard Layer 0 (Background)
//Storyboard Layer 1 (Fail)
//Storyboard Layer 2 (Pass)
//Storyboard Layer 3 (Foreground)
//Storyboard Layer 4 (Overlay)
//Storyboard Sound Samples

[TimingPoints]
1380,346.820809248555,4,2,1,20,1,0
12478,-100,4,2,1,33,0,0
23576,-100,4,2,1,25,0,0
29125,-100,4,2,1,28,0,0
34414,-100,4,2,1,28,0,0
34501,-100,4,2,1,25,0,0
34674,-100,4,2,1,33,0,1
44906,-100,4,2,1,20,0,0
45773,-100,4,2,1,28,0,1
55484,-100,4,2,1,28,0,0
79241,-100,4,2,1,20,0,0

[HitObjects]
256,192,166,128,0,1380:0:0:0:0:
475,192,1380,1,0,0:0:0:0:
329,192,1380,1,0,0:0:0:0:
182,192,1380,1,0,0:0:0:0:
109,192,1553,1,0,0:0:0:0:
36,192,1726,1,0,0:0:0:0:
109,192,1900,1,0,0:0:0:0:
402,192,1900,1,0,0:0:0:0:
402,192,2247,1,0,0:0:0:0:
109,192,2247,1,0,0:0:0:0:
475,192,2420,1,0,0:0:0:0:
402,192,2593,1,0,0:0:0:0:
329,192,2767,1,0,0:0:0:0:
182,192,2767,1,0,0:0:0:0:
36,192,2767,1,0,0:0:0:0:
329,192,3287,1,0,0:0:0:0:
36,192,3287,1,0,0:0:0:0:
329,192,3634,1,0,0:0:0:0:
36,192,3634,1,0,0:0:0:0:
256,192,3807,1,0,0:0:0:0:
182,192,3981,1,0,0:0:0:0:
256,192,4154,1,0,0:0:0:0:
36,192,4154,1,0,0:0:0:0:
475,192,4154,1,0,0:0:0:0:
475,192,4674,1,0,0:0:0:0:
256,192,4674,1,0,0:0:0:0:
475,192,5021,1,0,0:0:0:0:
256,192,5021,1,0,0:0:0:0:
182,192,5195,1,0,0:0:0:0:
329,192,5368,1,0,0:0:0:0:
402,192,5541,1,0,0:0:0:0:
256,192,5541,1,0,0:0:0:0:
109,192,5541,1,0,0:0:0:0:
182,192,5715,1,0,0:0:0:0:
329,192,5888,1,0,0:0:0:0:
402,192,6062,1,0,0:0:0:0:
109,192,6062,1,0,0:0:0:0:
402,192,6408,1,0,0:0:0:0:
109,192,6408,1,0,0:0:0:0:
329,192,6582,1,0,0:0:0:0:
402,192,6755,1,0,0:0:0:0:
36,192,6929,1,0,0:0:0:0:
475,192,6929,1,0,0:0:0:0:
182,192,6929,1,0,0:0:0:0:
256,192,7102,1,0,0:0:0:0:
329,192,7275,1,0,0:0:0:0:
182,192,7449,1,0,0:0:0:0:
475,192,7449,1,0,0:0:0:0:
182,192,7796,1,0,0:0:0:0:
475,192,7796,1,0,0:0:0:0:
329,192,7969,1,0,0:0:0:0:
182,192,8143,1,0,0:0:0:0:
256,192,8316,1,0,0:0:0:0:
402,192,8316,1,0,0:0:0:0:
109,192,8316,1,0,0:0:0:0:
329,192,8489,1,0,0:0:0:0:
256,192,8663,1,0,0:0:0:0:
109,192,8836,1,0,0:0:0:0:
402,192,8836,1,0,0:0:0:0:
402,192,9183,1,0,0:0:0:0:
109,192,9183,1,0,0:0:0:0:
182,192,9356,1,0,0:0:0:0:
329,192,9530,1,0,0:0:0:0:
182,192,9703,1,0,0:0:0:0:
36,192,9703,1,0,0:0:0:0:
475,192,9703,1,0,0:0:0:0:
402,192,9877,1,0,0:0:0:0:
256,192,10050,1,0,0:0:0:0:
182,192,10223,1,0,0:0:0:0:
475,192,10223,1,0,0:0:0:0:
182,192,10570,1,0,0:0:0:0:
475,192,10570,1,0,0:0:0:0:
329,192,10744,1,0,0:0:0:0:
182,192,10917,1,0,0:0:0:0:
256,192,11090,1,0,0:0:0:0:
475,192,11090,1,0,0:0:0:0:
36,192,11090,1,0,0:0:0:0:
329,192,11264,1,0,0:0:0:0:
256,192,11437,1,0,0:0:0:0:
182,192,11611,1,0,0:0:0:0:
109,192,11784,1,0,0:0:0:0:
256,192,11784,1,0,0:0:0:0:
402,192,11784,1,0,0:0:0:0:
329,192,11958,1,0,0:0:0:0:
109,192,12131,1,0,0:0:0:0:
402,192,12131,1,0,0:0:0:0:
182,192,12478,1,2,0:0:0:0:
329,192,12478,1,4,0:0:0:0:
475,192,12478,1,6,0:0:0:0:
36,192,12478,128,2,13171:0:0:0:0:
182,192,12825,128,0,12911:0:0:0:0:
402,192,12825,128,2,12911:0:0:0:0:
256,192,12998,128,0,13085:0:0:0:0:
475,192,12998,128,0,13085:0:0:0:0:
329,192,13171,1,10,0:0:0:0:
256,192,13171,1,10,0:0:0:0:
475,192,13171,1,8,0:0:0:0:
109,192,13171,1,2,0:0:0:0:
402,192,13345,128,0,13432:0:0:0:0:
182,192,13345,128,0,13432:0:0:0:0:
329,192,13518,128,0,13605:0:0:0:0:
109,192,13518,128,0,13605:0:0:0:0:
256,192,13692,128,0,13778:0:0:0:0:
36,192,13692,128,0,13778:0:0:0:0:
256,192,13865,1,2,0:0:0:0:
109,192,13865,1,2,0:0:0:0:
402,192,13865,1,0,0:0:0:0:
329,192,14038,1,0,0:0:0:0:
182,192,14212,1,0,0:0:0:0:
36,192,14212,1,0,0:0:0:0:
109,192,14385,128,0,14472:0:0:0:0:
402,192,14385,128,0,14472:0:0:0:0:
256,192,14472,1,0,0:0:0:0:
329,192,14559,1,10,0:0:0:0:
36,192,14559,1,8,0:0:0:0:
475,192,14559,1,2,0:0:0:0:
182,192,14559,1,10,0:0:0:0:
256,192,14732,1,0,0:0:0:0:
109,192,14906,128,0,14992:0:0:0:0:
402,192,14906,128,2,14992:0:0:0:0:
182,192,15079,128,0,15166:0:0:0:0:
475,192,15079,128,0,15166:0:0:0:0:
256,192,15252,1,2,0:0:0:0:
109,192,15252,1,2,0:0:0:0:
402,192,15252,1,2,0:0:0:0:
36,192,15426,1,0,0:0:0:0:
182,192,15512,1,0,0:0:0:0:
329,192,15599,1,2,0:0:0:0:
36,192,15599,1,0,0:0:0:0:
402,192,15773,128,0,15859:0:0:0:0:
109,192,15773,128,0,15859:0:0:0:0:
256,192,15859,1,0,0:0:0:0:
329,192,15946,1,8,0:0:0:0:
402,192,15946,1,10,0:0:0:0:
475,192,15946,1,10,0:0:0:0:
109,192,15946,1,2,0:0:0:0:
475,192,16119,128,0,16206:0:0:0:0:
256,192,16119,128,0,16206:0:0:0:0:
36,192,16206,1,0,0:0:0:0:
402,192,16293,128,0,16380:0:0:0:0:
182,192,16293,128,0,16380:0:0:0:0:
36,192,16466,1,2,0:0:0:0:
109,192,16466,1,2,0:0:0:0:
329,192,16466,128,2,16553:0:0:0:0:
256,192,16640,1,2,0:0:0:0:
109,192,16640,1,2,0:0:0:0:
36,192,16640,1,0,0:0:0:0:
402,192,16813,1,0,0:0:0:0:
475,192,16986,1,0,0:0:0:0:
182,192,16986,1,0,0:0:0:0:
36,192,17160,128,0,17247:0:0:0:0:
256,192,17160,128,0,17247:0:0:0:0:
182,192,17333,1,10,0:0:0:0:
109,192,17333,1,8,0:0:0:0:
402,192,17333,1,2,0:0:0:0:
329,192,17333,1,10,0:0:0:0:
36,192,17507,128,0,17593:0:0:0:0:
256,192,17507,128,0,17593:0:0:0:0:
329,192,17680,128,2,17767:0:0:0:0:
475,192,17680,1,2,0:0:0:0:
109,192,17680,128,2,17767:0:0:0:0:
182,192,17853,128,0,17940:0:0:0:0:
402,192,17853,128,0,17940:0:0:0:0:
256,192,18027,1,2,0:0:0:0:
36,192,18027,1,2,0:0:0:0:
109,192,18027,1,2,0:0:0:0:
475,192,18027,1,0,0:0:0:0:
402,192,18200,1,0,0:0:0:0:
329,192,18374,1,0,0:0:0:0:
36,192,18374,1,0,0:0:0:0:
182,192,18547,128,0,18634:0:0:0:0:
402,192,18547,128,0,18634:0:0:0:0:
475,192,18721,1,8,0:0:0:0:
256,192,18721,1,10,0:0:0:0:
36,192,18721,1,10,0:0:0:0:
109,192,18721,1,2,0:0:0:0:
402,192,18894,128,0,18981:0:0:0:0:
182,192,18894,128,0,18981:0:0:0:0:
329,192,19067,128,0,19154:0:0:0:0:
109,192,19067,128,0,19154:0:0:0:0:
36,192,19241,128,0,19327:0:0:0:0:
256,192,19241,128,0,19327:0:0:0:0:
402,192,19414,1,2,0:0:0:0:
256,192,19414,1,2,0:0:0:0:
109,192,19414,1,2,0:0:0:0:
329,192,19588,1,0,0:0:0:0:
182,192,19761,1,0,0:0:0:0:
475,192,19761,1,0,0:0:0:0:
109,192,19934,128,0,20021:0:0:0:0:
256,192,19934,128,0,20021:0:0:0:0:
402,192,20021,1,0,0:0:0:0:
182,192,20108,1,2,0:0:0:0:
475,192,20108,1,10,0:0:0:0:
36,192,20108,1,8,0:0:0:0:
329,192,20108,1,10,0:0:0:0:
109,192,20281,128,0,20368:0:0:0:0:
256,192,20281,128,0,20368:0:0:0:0:
329,192,20455,128,0,20541:0:0:0:0:
182,192,20455,128,0,20541:0:0:0:0:
402,192,20628,128,0,20715:0:0:0:0:
256,192,20628,128,0,20715:0:0:0:0:
475,192,20801,1,2,0:0:0:0:
36,192,20801,1,2,0:0:0:0:
329,192,20801,1,2,0:0:0:0:
182,192,20801,1,0,0:0:0:0:
109,192,20975,1,0,0:0:0:0:
256,192,21062,1,0,0:0:0:0:
402,192,21148,1,0,0:0:0:0:
109,192,21148,1,0,0:0:0:0:
36,192,21322,128,0,21408:0:0:0:0:
329,192,21322,128,0,21408:0:0:0:0:
182,192,21408,1,0,0:0:0:0:
475,192,21495,1,10,0:0:0:0:
402,192,21495,1,10,0:0:0:0:
36,192,21495,1,8,0:0:0:0:
329,192,21495,1,2,0:0:0:0:
402,192,21669,128,0,21755:0:0:0:0:
109,192,21669,128,0,21755:0:0:0:0:
256,192,21755,1,0,0:0:0:0:
329,192,21842,128,0,21929:0:0:0:0:
182,192,21842,128,0,21929:0:0:0:0:
475,192,22015,1,2,0:0:0:0:
36,192,22015,1,2,0:0:0:0:
256,192,22015,128,2,22102:0:0:0:0:
329,192,22189,1,6,0:0:0:0:
182,192,22189,1,6,0:0:0:0:
109,192,22189,1,2,0:0:0:0:
402,192,22189,1,2,0:0:0:0:
402,192,22882,1,2,0:0:0:0:
475,192,22882,1,10,0:0:0:0:
109,192,22882,1,10,0:0:0:0:
36,192,22882,1,8,0:0:0:0:
402,192,23229,1,10,0:0:0:0:
475,192,23229,1,2,0:0:0:0:
109,192,23229,1,8,0:0:0:0:
36,192,23229,1,10,0:0:0:0:
402,192,23403,1,10,0:0:0:0:
109,192,23403,1,10,0:0:0:0:
109,192,23489,1,10,0:0:0:0:
402,192,23489,1,10,0:0:0:0:
36,192,23576,128,4,24790:0:0:0:0:
182,192,23576,128,0,23749:0:0:0:0:
329,192,23576,1,0,0:0:0:0:
475,192,23576,128,4,24443:0:0:0:0:
329,192,23749,128,0,23923:0:0:0:0:
182,192,23923,1,0,0:0:0:0:
402,192,23923,1,0,0:0:0:0:
109,192,23923,1,0,0:0:0:0:
256,192,24096,128,0,24270:0:0:0:0:
402,192,24270,1,0,0:0:0:0:
182,192,24270,1,0,0:0:0:0:
109,192,24270,1,0,0:0:0:0:
182,192,24443,128,0,24616:0:0:0:0:
329,192,24443,1,0,0:0:0:0:
256,192,24443,1,0,0:0:0:0:
475,192,24616,128,0,24790:0:0:0:0:
329,192,24616,128,0,24790:0:0:0:0:
402,192,24616,1,0,0:0:0:0:
109,192,24790,128,0,24963:0:0:0:0:
256,192,24790,128,0,24963:0:0:0:0:
182,192,24963,128,0,25830:0:0:0:0:
36,192,24963,128,2,25310:0:0:0:0:
402,192,24963,1,2,0:0:0:0:
475,192,24963,1,2,0:0:0:0:
475,192,25137,128,0,25310:0:0:0:0:
329,192,25223,1,0,0:0:0:0:
109,192,25310,128,0,25484:0:0:0:0:
402,192,25310,1,0,0:0:0:0:
256,192,25310,1,0,0:0:0:0:
329,192,25484,128,0,25657:0:0:0:0:
475,192,25484,128,0,25830:0:0:0:0:
256,192,25657,1,0,0:0:0:0:
109,192,25657,1,0,0:0:0:0:
402,192,25657,1,0,0:0:0:0:
329,192,25830,128,0,26004:0:0:0:0:
36,192,25830,128,0,26177:0:0:0:0:
402,192,26004,1,0,0:0:0:0:
109,192,26004,1,0,0:0:0:0:
256,192,26004,1,0,0:0:0:0:
182,192,26177,128,0,26351:0:0:0:0:
475,192,26177,128,0,27044:0:0:0:0:
329,192,26177,1,0,0:0:0:0:
109,192,26264,1,0,0:0:0:0:
402,192,26351,1,2,0:0:0:0:
36,192,26351,1,2,0:0:0:0:
256,192,26351,1,2,0:0:0:0:
329,192,26524,128,0,26697:0:0:0:0:
109,192,26524,1,0,0:0:0:0:
36,192,26697,1,0,0:0:0:0:
402,192,26697,1,0,0:0:0:0:
256,192,26697,1,0,0:0:0:0:
256,192,26871,128,0,27044:0:0:0:0:
109,192,26871,1,0,0:0:0:0:
36,192,27044,1,0,0:0:0:0:
182,192,27044,1,0,0:0:0:0:
329,192,27044,1,0,0:0:0:0:
475,192,27218,128,0,27391:0:0:0:0:
402,192,27218,128,0,27391:0:0:0:0:
256,192,27218,1,0,0:0:0:0:
329,192,27391,128,0,27564:0:0:0:0:
182,192,27391,128,0,27564:0:0:0:0:
109,192,27391,1,0,0:0:0:0:
109,192,27564,128,2,27738:0:0:0:0:
36,192,27564,128,2,27738:0:0:0:0:
402,192,27564,1,2,0:0:0:0:
182,192,27738,1,2,0:0:0:0:
329,192,27738,128,2,28258:0:0:0:0:
475,192,27738,1,2,0:0:0:0:
475,192,27911,128,0,28085:0:0:0:0:
36,192,27911,128,0,28085:0:0:0:0:
256,192,27998,1,0,0:0:0:0:
109,192,28085,1,0,0:0:0:0:
402,192,28085,1,0,0:0:0:0:
475,192,28258,128,0,28432:0:0:0:0:
36,192,28258,128,0,28432:0:0:0:0:
256,192,28258,128,0,28605:0:0:0:0:
109,192,28432,1,0,0:0:0:0:
402,192,28432,1,0,0:0:0:0:
36,192,28605,128,0,28778:0:0:0:0:
475,192,28605,128,0,28778:0:0:0:0:
182,192,28778,1,0,0:0:0:0:
329,192,28778,1,0,0:0:0:0:
256,192,28778,128,0,29125:0:0:0:0:
475,192,28952,1,0,0:0:0:0:
36,192,28952,1,2,0:0:0:0:
329,192,29038,1,0,0:0:0:0:
182,192,29038,1,0,0:0:0:0:
109,192,29125,1,4,0:0:0:0:
402,192,29125,1,6,0:0:0:0:
475,192,29125,1,10,0:0:0:0:
36,192,29125,1,2,0:0:0:0:
329,192,29299,1,0,0:0:0:0:
109,192,29299,1,0,0:0:0:0:
402,192,29472,1,2,0:0:0:0:
475,192,29472,1,2,0:0:0:0:
36,192,29472,1,0,0:0:0:0:
256,192,29472,1,2,0:0:0:0:
182,192,29645,1,0,0:0:0:0:
402,192,29645,1,0,0:0:0:0:
36,192,29819,1,2,0:0:0:0:
109,192,29819,1,2,0:0:0:0:
256,192,29819,1,2,0:0:0:0:
475,192,29819,1,0,0:0:0:0:
109,192,29992,1,0,0:0:0:0:
329,192,29992,1,0,0:0:0:0:
402,192,30166,1,2,0:0:0:0:
475,192,30166,1,0,0:0:0:0:
36,192,30166,1,2,0:0:0:0:
182,192,30166,128,2,30339:0:0:0:0:
402,192,30339,1,0,0:0:0:0:
256,192,30339,128,0,30512:0:0:0:0:
475,192,30512,128,2,31033:0:0:0:0:
109,192,30512,1,2,0:0:0:0:
36,192,30512,1,2,0:0:0:0:
329,192,30512,128,0,30686:0:0:0:0:
109,192,30686,1,0,0:0:0:0:
256,192,30686,1,0,0:0:0:0:
182,192,30859,128,0,31033:0:0:0:0:
36,192,30859,1,2,0:0:0:0:
402,192,30859,1,2,0:0:0:0:
329,192,30859,1,2,0:0:0:0:
256,192,31033,1,0,0:0:0:0:
36,192,31033,128,0,31380:0:0:0:0:
182,192,31206,1,2,0:0:0:0:
329,192,31206,1,2,0:0:0:0:
475,192,31206,1,2,0:0:0:0:
109,192,31206,1,0,0:0:0:0:
475,192,31380,128,0,31726:0:0:0:0:
256,192,31380,1,0,0:0:0:0:
329,192,31553,1,2,0:0:0:0:
182,192,31553,1,2,0:0:0:0:
36,192,31553,1,2,0:0:0:0:
402,192,31553,1,0,0:0:0:0:
36,192,31726,128,0,32593:0:0:0:0:
256,192,31726,1,0,0:0:0:0:
109,192,31813,1,0,0:0:0:0:
402,192,31813,1,0,0:0:0:0:
329,192,31900,1,2,0:0:0:0:
475,192,31900,1,2,0:0:0:0:
182,192,31900,1,2,0:0:0:0:
329,192,32073,1,2,0:0:0:0:
475,192,32073,1,2,0:0:0:0:
182,192,32073,1,2,0:0:0:0:
109,192,32247,1,2,0:0:0:0:
256,192,32247,1,2,0:0:0:0:
402,192,32247,1,2,0:0:0:0:
109,192,32420,1,2,0:0:0:0:
256,192,32420,1,2,0:0:0:0:
402,192,32420,1,2,0:0:0:0:
475,192,32593,1,2,0:0:0:0:
182,192,32593,1,2,0:0:0:0:
329,192,32593,1,2,0:0:0:0:
182,192,32767,1,2,0:0:0:0:
36,192,32767,1,2,0:0:0:0:
329,192,32767,1,2,0:0:0:0:
329,192,32940,1,2,0:0:0:0:
402,192,32940,1,6,0:0:0:0:
182,192,33027,1,2,0:0:0:0:
256,192,33027,1,2,0:0:0:0:
36,192,33114,1,10,0:0:0:0:
109,192,33114,1,2,0:0:0:0:
402,192,33114,1,6,0:0:0:0:
475,192,33114,1,6,0:0:0:0:
475,192,33287,1,0,0:0:0:0:
36,192,33287,1,0,0:0:0:0:
256,192,33287,1,0,0:0:0:0:
329,192,33460,1,6,0:0:0:0:
475,192,33460,1,4,0:0:0:0:
182,192,33460,1,2,0:0:0:0:
36,192,33460,1,2,0:0:0:0:
329,192,33634,1,4,0:0:0:0:
182,192,33634,1,2,0:0:0:0:
475,192,33634,1,6,0:0:0:0:
36,192,33634,1,2,0:0:0:0:
36,192,33959,1,10,0:0:0:0:
109,192,33959,1,10,0:0:0:0:
182,192,33981,1,10,0:0:0:0:
256,192,33981,1,8,0:0:0:0:
402,192,33981,1,8,0:0:0:0:
475,192,33981,1,2,0:0:0:0:
329,192,34176,1,8,0:0:0:0:
109,192,34176,128,8,34241:0:0:0:0:
475,192,34241,1,8,0:0:0:0:
182,192,34241,128,8,34327:0:0:0:0:
256,192,34327,128,8,34414:0:0:0:0:
329,192,34414,128,8,34501:0:0:0:0:
402,192,34501,128,8,34674:0:0:0:0:
475,192,34674,1,2,0:0:0:0:
182,192,34674,1,2,0:0:0:0:
109,192,34674,1,2,0:0:0:0:
256,192,34674,128,4,35021:0:0:0:0:
36,192,34674,128,4,35021:0:0:0:0:
402,192,34848,1,0,0:0:0:0:
329,192,35021,1,10,0:0:0:0:
402,192,35021,1,10,0:0:0:0:
475,192,35021,1,8,0:0:0:0:
109,192,35021,128,2,35195:0:0:0:0:
256,192,35195,128,2,35368:0:0:0:0:
475,192,35195,128,2,35368:0:0:0:0:
36,192,35195,1,2,0:0:0:0:
329,192,35368,1,0,0:0:0:0:
109,192,35368,1,0,0:0:0:0:
475,192,35541,1,2,0:0:0:0:
256,192,35541,128,2,35715:0:0:0:0:
36,192,35541,128,2,35715:0:0:0:0:
329,192,35715,128,8,36062:0:0:0:0:
475,192,35715,1,10,0:0:0:0:
109,192,35715,1,10,0:0:0:0:
402,192,35715,1,2,0:0:0:0:
182,192,35888,128,0,36062:0:0:0:0:
36,192,35888,1,0,0:0:0:0:
256,192,36062,1,2,0:0:0:0:
402,192,36062,1,0,0:0:0:0:
109,192,36062,128,2,36408:0:0:0:0:
475,192,36062,128,2,36408:0:0:0:0:
329,192,36235,1,0,0:0:0:0:
402,192,36408,1,10,0:0:0:0:
182,192,36408,1,2,0:0:0:0:
256,192,36408,1,10,0:0:0:0:
36,192,36408,128,8,36582:0:0:0:0:
475,192,36582,128,2,36755:0:0:0:0:
182,192,36582,128,2,36755:0:0:0:0:
329,192,36582,1,2,0:0:0:0:
402,192,36755,1,0,0:0:0:0:
109,192,36755,1,0,0:0:0:0:
329,192,36929,128,2,37102:0:0:0:0:
36,192,36929,128,2,37102:0:0:0:0:
182,192,36929,1,2,0:0:0:0:
402,192,37102,1,8,0:0:0:0:
182,192,37102,128,10,37275:0:0:0:0:
475,192,37102,1,10,0:0:0:0:
256,192,37102,1,2,0:0:0:0:
329,192,37275,128,0,37449:0:0:0:0:
109,192,37275,1,0,0:0:0:0:
402,192,37449,1,2,0:0:0:0:
475,192,37449,128,0,37796:0:0:0:0:
182,192,37449,1,2,0:0:0:0:
36,192,37449,128,2,37969:0:0:0:0:
256,192,37622,1,0,0:0:0:0:
329,192,37796,128,10,37969:0:0:0:0:
402,192,37796,1,8,0:0:0:0:
109,192,37796,1,10,0:0:0:0:
182,192,37796,1,2,0:0:0:0:
182,192,37969,128,2,38143:0:0:0:0:
475,192,37969,128,2,38489:0:0:0:0:
256,192,37969,1,2,0:0:0:0:
402,192,38143,1,0,0:0:0:0:
109,192,38143,1,0,0:0:0:0:
182,192,38316,128,2,38489:0:0:0:0:
36,192,38316,1,2,0:0:0:0:
329,192,38316,1,2,0:0:0:0:
402,192,38489,1,8,0:0:0:0:
109,192,38489,128,2,38663:0:0:0:0:
329,192,38489,1,10,0:0:0:0:
256,192,38489,1,10,0:0:0:0:
36,192,38663,128,2,38836:0:0:0:0:
182,192,38663,1,2,0:0:0:0:
256,192,38663,1,2,0:0:0:0:
256,192,38836,1,2,0:0:0:0:
109,192,38836,1,2,0:0:0:0:
402,192,38836,1,2,0:0:0:0:
475,192,39010,1,2,0:0:0:0:
329,192,39010,1,2,0:0:0:0:
182,192,39010,1,2,0:0:0:0:
402,192,39183,1,10,0:0:0:0:
109,192,39183,1,2,0:0:0:0:
36,192,39183,1,8,0:0:0:0:
256,192,39183,1,10,0:0:0:0:
329,192,39356,1,2,0:0:0:0:
182,192,39356,1,2,0:0:0:0:
36,192,39356,1,2,0:0:0:0:
182,192,39530,1,2,0:0:0:0:
329,192,39530,1,10,0:0:0:0:
475,192,39530,1,8,0:0:0:0:
109,192,39616,1,10,0:0:0:0:
36,192,39616,1,8,0:0:0:0:
256,192,39616,1,2,0:0:0:0:
182,192,39703,1,2,0:0:0:0:
329,192,39703,1,10,0:0:0:0:
475,192,39703,128,2,39877:0:0:0:0:
402,192,39877,128,2,40050:0:0:0:0:
256,192,39877,1,10,0:0:0:0:
109,192,39877,1,10,0:0:0:0:
36,192,39877,1,8,0:0:0:0:
329,192,40050,128,0,40223:0:0:0:0:
475,192,40223,1,2,0:0:0:0:
182,192,40223,1,2,0:0:0:0:
36,192,40223,128,2,40397:0:0:0:0:
475,192,40397,128,2,40570:0:0:0:0:
329,192,40397,1,2,0:0:0:0:
182,192,40397,1,2,0:0:0:0:
182,192,40570,1,10,0:0:0:0:
36,192,40570,1,2,0:0:0:0:
256,192,40570,1,10,0:0:0:0:
329,192,40570,1,8,0:0:0:0:
329,192,40744,128,2,40917:0:0:0:0:
475,192,40744,128,2,41264:0:0:0:0:
402,192,40744,1,2,0:0:0:0:
109,192,40830,1,2,0:0:0:0:
36,192,40830,1,2,0:0:0:0:
256,192,40917,1,2,0:0:0:0:
182,192,40917,1,2,0:0:0:0:
329,192,41090,128,2,41264:0:0:0:0:
182,192,41090,1,2,0:0:0:0:
109,192,41090,1,2,0:0:0:0:
256,192,41264,1,10,0:0:0:0:
36,192,41264,1,10,0:0:0:0:
109,192,41264,1,8,0:0:0:0:
402,192,41264,1,2,0:0:0:0:
182,192,41437,128,0,41611:0:0:0:0:
329,192,41611,1,2,0:0:0:0:
36,192,41611,1,2,0:0:0:0:
475,192,41611,128,2,41784:0:0:0:0:
329,192,41784,1,2,0:0:0:0:
36,192,41784,1,2,0:0:0:0:
182,192,41784,1,2,0:0:0:0:
475,192,41958,1,8,0:0:0:0:
109,192,41958,1,2,0:0:0:0:
402,192,41958,1,10,0:0:0:0:
256,192,41958,1,10,0:0:0:0:
182,192,42131,128,2,42304:0:0:0:0:
36,192,42131,128,2,42651:0:0:0:0:
109,192,42131,1,2,0:0:0:0:
475,192,42218,1,2,0:0:0:0:
329,192,42218,1,2,0:0:0:0:
402,192,42304,1,2,0:0:0:0:
256,192,42304,1,2,0:0:0:0:
182,192,42478,128,2,42651:0:0:0:0:
475,192,42478,1,2,0:0:0:0:
329,192,42478,1,2,0:0:0:0:
475,192,42651,1,8,0:0:0:0:
256,192,42651,1,10,0:0:0:0:
402,192,42651,1,10,0:0:0:0:
109,192,42651,1,2,0:0:0:0:
36,192,42825,128,0,43518:0:0:0:0:
256,192,42825,1,0,0:0:0:0:
109,192,42911,1,0,0:0:0:0:
402,192,42911,1,0,0:0:0:0:
329,192,42998,1,2,0:0:0:0:
182,192,42998,1,2,0:0:0:0:
475,192,42998,1,2,0:0:0:0:
182,192,43171,1,2,0:0:0:0:
329,192,43171,1,2,0:0:0:0:
475,192,43171,1,2,0:0:0:0:
256,192,43345,1,2,0:0:0:0:
402,192,43345,1,2,0:0:0:0:
109,192,43345,1,2,0:0:0:0:
182,192,43518,1,2,0:0:0:0:
329,192,43518,1,2,0:0:0:0:
475,192,43518,1,2,0:0:0:0:
182,192,43692,1,2,0:0:0:0:
329,192,43692,1,2,0:0:0:0:
36,192,43692,1,2,0:0:0:0:
109,192,43865,128,2,44038:0:0:0:0:
256,192,43865,1,2,0:0:0:0:
402,192,43865,1,2,0:0:0:0:
329,192,44038,1,10,0:0:0:0:
475,192,44038,1,8,0:0:0:0:
36,192,44038,1,2,0:0:0:0:
182,192,44038,128,10,44212:0:0:0:0:
256,192,44212,128,2,44385:0:0:0:0:
36,192,44212,1,2,0:0:0:0:
329,192,44212,1,2,0:0:0:0:
402,192,44299,1,2,0:0:0:0:
109,192,44299,1,2,0:0:0:0:
329,192,44385,128,2,44906:0:0:0:0:
182,192,44385,1,2,0:0:0:0:
36,192,44385,1,2,0:0:0:0:
475,192,44385,1,2,0:0:0:0:
36,192,44559,1,2,0:0:0:0:
182,192,44559,1,2,0:0:0:0:
475,192,44559,1,2,0:0:0:0:
256,192,44732,1,10,0:0:0:0:
475,192,44732,1,10,0:0:0:0:
109,192,44732,1,8,0:0:0:0:
402,192,44732,1,2,0:0:0:0:
256,192,44906,128,2,45166:0:0:0:0:
182,192,44906,1,2,0:0:0:0:
36,192,44906,1,2,0:0:0:0:
256,192,45252,128,0,45426:0:0:0:0:
256,192,45512,128,0,45773:0:0:0:0:
329,192,45773,1,6,0:0:0:0:
36,192,45773,1,4,0:0:0:0:
182,192,45773,128,6,46119:0:0:0:0:
475,192,45773,128,2,46119:0:0:0:0:
109,192,45946,1,0,0:0:0:0:
402,192,45946,1,0,0:0:0:0:
329,192,46119,128,8,46293:0:0:0:0:
256,192,46119,1,10,0:0:0:0:
36,192,46119,1,2,0:0:0:0:
402,192,46119,1,10,0:0:0:0:
475,192,46293,128,2,46466:0:0:0:0:
109,192,46293,128,2,46466:0:0:0:0:
182,192,46293,1,2,0:0:0:0:
256,192,46466,1,0,0:0:0:0:
329,192,46466,1,0,0:0:0:0:
36,192,46640,128,2,46813:0:0:0:0:
402,192,46640,128,2,46813:0:0:0:0:
182,192,46640,1,2,0:0:0:0:
475,192,46813,128,2,46986:0:0:0:0:
182,192,46813,1,10,0:0:0:0:
329,192,46813,1,8,0:0:0:0:
256,192,46813,1,10,0:0:0:0:
329,192,46986,128,0,47160:0:0:0:0:
109,192,46986,1,0,0:0:0:0:
475,192,47160,1,2,0:0:0:0:
36,192,47160,128,2,47507:0:0:0:0:
182,192,47160,128,2,47507:0:0:0:0:
402,192,47333,1,0,0:0:0:0:
109,192,47333,1,0,0:0:0:0:
475,192,47507,128,8,47680:0:0:0:0:
256,192,47507,1,2,0:0:0:0:
329,192,47507,1,10,0:0:0:0:
402,192,47507,1,10,0:0:0:0:
329,192,47680,128,2,47853:0:0:0:0:
182,192,47680,1,2,0:0:0:0:
36,192,47680,128,2,47853:0:0:0:0:
402,192,47853,1,0,0:0:0:0:
109,192,47853,1,0,0:0:0:0:
182,192,48027,128,2,48200:0:0:0:0:
475,192,48027,128,2,48200:0:0:0:0:
329,192,48027,1,2,0:0:0:0:
36,192,48200,1,8,0:0:0:0:
329,192,48200,128,10,48547:0:0:0:0:
109,192,48200,1,10,0:0:0:0:
402,192,48200,1,2,0:0:0:0:
182,192,48374,128,0,48547:0:0:0:0:
36,192,48374,1,0,0:0:0:0:
256,192,48547,1,2,0:0:0:0:
109,192,48547,128,2,48894:0:0:0:0:
402,192,48547,1,2,0:0:0:0:
475,192,48547,128,0,48894:0:0:0:0:
329,192,48721,1,0,0:0:0:0:
182,192,48721,1,0,0:0:0:0:
329,192,48894,1,10,0:0:0:0:
36,192,48894,1,10,0:0:0:0:
256,192,48894,1,2,0:0:0:0:
402,192,48894,1,8,0:0:0:0:
256,192,49067,128,0,49241:0:0:0:0:
36,192,49067,128,0,49241:0:0:0:0:
475,192,49067,1,0,0:0:0:0:
402,192,49241,1,0,0:0:0:0:
109,192,49241,1,0,0:0:0:0:
256,192,49414,128,2,49588:0:0:0:0:
475,192,49414,128,2,49588:0:0:0:0:
182,192,49414,1,2,0:0:0:0:
109,192,49588,1,10,0:0:0:0:
36,192,49588,1,8,0:0:0:0:
402,192,49588,128,2,49761:0:0:0:0:
182,192,49588,128,10,49761:0:0:0:0:
475,192,49761,1,2,0:0:0:0:
329,192,49761,128,2,50108:0:0:0:0:
109,192,49761,128,2,49934:0:0:0:0:
182,192,49934,1,2,0:0:0:0:
36,192,49934,1,2,0:0:0:0:
402,192,49934,1,2,0:0:0:0:
475,192,50108,128,2,50628:0:0:0:0:
109,192,50108,1,2,0:0:0:0:
256,192,50108,1,2,0:0:0:0:
402,192,50281,1,8,0:0:0:0:
329,192,50281,1,10,0:0:0:0:
182,192,50281,1,10,0:0:0:0:
36,192,50281,1,2,0:0:0:0:
402,192,50455,1,2,0:0:0:0:
256,192,50455,1,2,0:0:0:0:
109,192,50455,1,2,0:0:0:0:
329,192,50628,1,8,0:0:0:0:
182,192,50628,1,10,0:0:0:0:
36,192,50628,1,2,0:0:0:0:
109,192,50715,1,2,0:0:0:0:
402,192,50715,1,8,0:0:0:0:
256,192,50715,1,10,0:0:0:0:
36,192,50801,1,8,0:0:0:0:
329,192,50801,1,2,0:0:0:0:
182,192,50801,128,2,50975:0:0:0:0:
402,192,50975,1,8,0:0:0:0:
475,192,50975,1,10,0:0:0:0:
256,192,50975,128,10,51148:0:0:0:0:
36,192,50975,1,2,0:0:0:0:
329,192,51148,128,0,51322:0:0:0:0:
475,192,51322,1,2,0:0:0:0:
182,192,51322,128,2,51495:0:0:0:0:
36,192,51322,1,2,0:0:0:0:
256,192,51408,1,0,0:0:0:0:
329,192,51495,1,2,0:0:0:0:
109,192,51495,1,2,0:0:0:0:
475,192,51495,128,2,51669:0:0:0:0:
256,192,51582,1,0,0:0:0:0:
36,192,51669,1,8,0:0:0:0:
182,192,51669,1,10,0:0:0:0:
402,192,51669,1,10,0:0:0:0:
329,192,51755,1,0,0:0:0:0:
182,192,51842,128,2,52015:0:0:0:0:
109,192,51842,1,2,0:0:0:0:
256,192,51842,1,2,0:0:0:0:
475,192,51929,1,2,0:0:0:0:
402,192,51929,1,2,0:0:0:0:
256,192,52015,1,2,0:0:0:0:
329,192,52015,1,2,0:0:0:0:
36,192,52015,128,0,52189:0:0:0:0:
475,192,52102,1,0,0:0:0:0:
182,192,52189,128,2,52362:0:0:0:0:
256,192,52189,1,2,0:0:0:0:
109,192,52189,1,2,0:0:0:0:
402,192,52275,1,0,0:0:0:0:
329,192,52362,1,10,0:0:0:0:
36,192,52362,1,8,0:0:0:0:
475,192,52362,1,2,0:0:0:0:
109,192,52362,1,10,0:0:0:0:
256,192,52449,1,0,0:0:0:0:
182,192,52536,128,0,52709:0:0:0:0:
402,192,52536,1,0,0:0:0:0:
256,192,52622,1,0,0:0:0:0:
329,192,52709,1,2,0:0:0:0:
475,192,52709,128,2,52882:0:0:0:0:
36,192,52709,1,2,0:0:0:0:
402,192,52796,1,0,0:0:0:0:
329,192,52882,1,2,0:0:0:0:
182,192,52882,1,2,0:0:0:0:
36,192,52882,128,2,53056:0:0:0:0:
256,192,52969,1,0,0:0:0:0:
329,192,53056,1,10,0:0:0:0:
109,192,53056,1,10,0:0:0:0:
475,192,53056,1,8,0:0:0:0:
182,192,53143,1,0,0:0:0:0:
475,192,53229,128,2,53403:0:0:0:0:
256,192,53229,1,2,0:0:0:0:
329,192,53229,128,2,53403:0:0:0:0:
109,192,53316,1,2,0:0:0:0:
36,192,53316,1,2,0:0:0:0:
182,192,53403,1,2,0:0:0:0:
256,192,53403,1,2,0:0:0:0:
402,192,53403,1,2,0:0:0:0:
109,192,53489,1,0,0:0:0:0:
256,192,53576,128,2,53923:0:0:0:0:
36,192,53576,1,2,0:0:0:0:
475,192,53576,1,2,0:0:0:0:
402,192,53663,1,0,0:0:0:0:
329,192,53749,1,2,0:0:0:0:
182,192,53749,1,10,0:0:0:0:
36,192,53749,1,8,0:0:0:0:
109,192,53749,1,10,0:0:0:0:
402,192,53836,1,0,0:0:0:0:
36,192,53923,1,0,0:0:0:0:
475,192,53923,1,0,0:0:0:0:
109,192,54010,1,0,0:0:0:0:
256,192,54096,128,0,54963:0:0:0:0:
402,192,54096,1,2,0:0:0:0:
182,192,54096,1,2,0:0:0:0:
329,192,54096,1,2,0:0:0:0:
475,192,54270,1,2,0:0:0:0:
36,192,54270,1,2,0:0:0:0:
402,192,54270,1,2,0:0:0:0:
109,192,54443,1,2,0:0:0:0:
182,192,54443,1,2,0:0:0:0:
329,192,54443,1,2,0:0:0:0:
475,192,54616,1,2,0:0:0:0:
109,192,54616,1,2,0:0:0:0:
36,192,54616,1,2,0:0:0:0:
329,192,54790,1,2,0:0:0:0:
182,192,54790,1,2,0:0:0:0:
402,192,54790,1,0,0:0:0:0:
182,192,54963,128,2,55137:0:0:0:0:
475,192,54963,1,2,0:0:0:0:
36,192,54963,1,2,0:0:0:0:
36,192,55137,1,10,0:0:0:0:
475,192,55137,1,2,0:0:0:0:
109,192,55137,1,8,0:0:0:0:
329,192,55137,128,10,55310:0:0:0:0:
402,192,55137,1,0,0:0:0:0:
182,192,55310,128,2,55484:0:0:0:0:
109,192,55310,1,2,0:0:0:0:
402,192,55397,1,2,0:0:0:0:
475,192,55397,1,2,0:0:0:0:
256,192,55484,1,6,0:0:0:0:
329,192,55484,1,6,0:0:0:0:
109,192,55484,1,10,0:0:0:0:
36,192,55484,1,8,0:0:0:0:
402,192,55657,1,2,0:0:0:0:
256,192,55657,1,2,0:0:0:0:
109,192,55657,1,2,0:0:0:0:
182,192,55830,1,10,0:0:0:0:
36,192,55830,1,2,0:0:0:0:
329,192,55830,1,10,0:0:0:0:
475,192,55830,1,8,0:0:0:0:
109,192,56004,1,0,0:0:0:0:
256,192,56004,128,4,56177:0:0:0:0:
36,192,56090,1,0,0:0:0:0:
182,192,56177,1,0,0:0:0:0:
109,192,56264,1,0,0:0:0:0:
256,192,56351,128,0,56524:0:0:0:0:
402,192,56351,1,0,0:0:0:0:
475,192,56437,1,0,0:0:0:0:
329,192,56524,1,0,0:0:0:0:
402,192,56611,1,0,0:0:0:0:
256,192,56697,1,0,0:0:0:0:
109,192,56784,1,0,0:0:0:0:
475,192,56871,1,6,0:0:0:0:
402,192,56871,128,6,57218:0:0:0:0:
36,192,56871,128,2,57218:0:0:0:0:
182,192,56871,1,2,0:0:0:0:
182,192,57218,1,10,0:0:0:0:
256,192,57218,1,10,0:0:0:0:
329,192,57218,1,8,0:0:0:0:
109,192,57218,1,2,0:0:0:0:
402,192,57391,128,2,57564:0:0:0:0:
36,192,57391,128,2,57564:0:0:0:0:
475,192,57738,128,2,57825:0:0:0:0:
182,192,57738,128,2,57825:0:0:0:0:
329,192,57738,1,2,0:0:0:0:
402,192,57911,128,8,57998:0:0:0:0:
109,192,57911,128,10,57998:0:0:0:0:
36,192,57911,1,2,0:0:0:0:
256,192,57911,1,10,0:0:0:0:
36,192,58085,128,0,58171:0:0:0:0:
329,192,58085,128,0,58171:0:0:0:0:
182,192,58258,1,2,0:0:0:0:
329,192,58258,1,2,0:0:0:0:
109,192,58258,128,0,58605:0:0:0:0:
475,192,58258,128,2,58605:0:0:0:0:
402,192,58605,1,8,0:0:0:0:
329,192,58605,1,10,0:0:0:0:
256,192,58605,1,10,0:0:0:0:
182,192,58605,1,2,0:0:0:0:
475,192,58778,128,2,58952:0:0:0:0:
109,192,58778,128,2,58952:0:0:0:0:
329,192,59125,128,2,59212:0:0:0:0:
109,192,59125,128,2,59212:0:0:0:0:
36,192,59125,1,2,0:0:0:0:
402,192,59299,128,10,59385:0:0:0:0:
182,192,59299,128,10,59385:0:0:0:0:
475,192,59299,1,2,0:0:0:0:
109,192,59299,1,8,0:0:0:0:
256,192,59472,128,0,59559:0:0:0:0:
475,192,59472,128,0,59559:0:0:0:0:
475,192,59645,1,0,0:0:0:0:
256,192,59645,1,2,0:0:0:0:
402,192,59645,128,2,59992:0:0:0:0:
109,192,59645,128,2,59992:0:0:0:0:
329,192,59992,1,8,0:0:0:0:
256,192,59992,1,10,0:0:0:0:
182,192,59992,1,10,0:0:0:0:
36,192,59992,1,2,0:0:0:0:
402,192,60166,128,2,60339:0:0:0:0:
109,192,60166,128,2,60339:0:0:0:0:
109,192,60512,128,2,60599:0:0:0:0:
402,192,60512,128,2,60599:0:0:0:0:
329,192,60512,1,2,0:0:0:0:
182,192,60686,128,10,60773:0:0:0:0:
475,192,60686,128,2,60773:0:0:0:0:
256,192,60686,1,10,0:0:0:0:
109,192,60686,1,8,0:0:0:0:
329,192,60859,128,0,60946:0:0:0:0:
36,192,60859,128,0,60946:0:0:0:0:
182,192,61033,1,2,0:0:0:0:
475,192,61033,1,0,0:0:0:0:
329,192,61033,128,2,61380:0:0:0:0:
36,192,61033,128,2,61380:0:0:0:0:
256,192,61380,1,10,0:0:0:0:
182,192,61380,1,10,0:0:0:0:
109,192,61380,1,8,0:0:0:0:
402,192,61380,1,2,0:0:0:0:
329,192,61553,128,2,61726:0:0:0:0:
36,192,61553,128,2,61726:0:0:0:0:
329,192,61900,128,2,61986:0:0:0:0:
36,192,61900,128,2,61986:0:0:0:0:
182,192,61900,1,2,0:0:0:0:
109,192,62073,128,2,62160:0:0:0:0:
402,192,62073,128,10,62160:0:0:0:0:
329,192,62073,1,10,0:0:0:0:
475,192,62073,1,8,0:0:0:0:
256,192,62247,128,0,62333:0:0:0:0:
475,192,62247,128,0,62333:0:0:0:0:
109,192,62420,1,0,0:0:0:0:
329,192,62420,1,2,0:0:0:0:
182,192,62420,128,2,62767:0:0:0:0:
475,192,62420,128,2,62767:0:0:0:0:
402,192,62767,1,8,0:0:0:0:
329,192,62767,1,10,0:0:0:0:
256,192,62767,1,10,0:0:0:0:
36,192,62767,1,2,0:0:0:0:
475,192,62940,128,2,63114:0:0:0:0:
182,192,62940,128,2,63114:0:0:0:0:
475,192,63287,128,2,63374:0:0:0:0:
182,192,63287,128,2,63374:0:0:0:0:
329,192,63287,1,2,0:0:0:0:
402,192,63460,128,8,63547:0:0:0:0:
109,192,63460,128,10,63547:0:0:0:0:
36,192,63460,1,2,0:0:0:0:
256,192,63460,1,10,0:0:0:0:
329,192,63634,128,0,63721:0:0:0:0:
36,192,63634,128,0,63721:0:0:0:0:
256,192,63807,1,2,0:0:0:0:
182,192,63807,1,0,0:0:0:0:
36,192,63807,128,2,64154:0:0:0:0:
402,192,63807,128,2,64154:0:0:0:0:
329,192,64154,1,10,0:0:0:0:
256,192,64154,1,10,0:0:0:0:
182,192,64154,1,8,0:0:0:0:
475,192,64154,1,2,0:0:0:0:
402,192,64327,128,2,64501:0:0:0:0:
36,192,64327,128,2,64501:0:0:0:0:
36,192,64674,128,2,64761:0:0:0:0:
402,192,64674,128,2,64761:0:0:0:0:
182,192,64674,1,2,0:0:0:0:
475,192,64848,128,2,64934:0:0:0:0:
109,192,64848,128,8,64934:0:0:0:0:
256,192,64848,1,10,0:0:0:0:
329,192,64848,1,10,0:0:0:0:
402,192,65021,128,0,65108:0:0:0:0:
182,192,65021,128,0,65108:0:0:0:0:
475,192,65195,1,2,0:0:0:0:
329,192,65195,128,2,65541:0:0:0:0:
36,192,65195,128,0,65541:0:0:0:0:
182,192,65195,1,2,0:0:0:0:
475,192,65368,1,2,0:0:0:0:
182,192,65368,1,2,0:0:0:0:
256,192,65541,1,10,0:0:0:0:
182,192,65541,1,10,0:0:0:0:
109,192,65541,1,8,0:0:0:0:
402,192,65541,1,2,0:0:0:0:
182,192,65715,1,2,0:0:0:0:
329,192,65715,128,2,65888:0:0:0:0:
36,192,65715,128,2,65888:0:0:0:0:
475,192,65715,1,0,0:0:0:0:
402,192,66062,128,2,66235:0:0:0:0:
36,192,66062,128,2,66235:0:0:0:0:
182,192,66062,1,2,0:0:0:0:
256,192,66235,1,10,0:0:0:0:
475,192,66235,1,10,0:0:0:0:
329,192,66235,1,2,0:0:0:0:
109,192,66235,128,8,66408:0:0:0:0:
182,192,66408,128,0,66582:0:0:0:0:
329,192,66408,1,8,0:0:0:0:
475,192,66408,1,10,0:0:0:0:
329,192,66495,1,8,0:0:0:0:
475,192,66495,1,10,0:0:0:0:
256,192,66582,1,2,0:0:0:0:
36,192,66582,1,2,0:0:0:0:
109,192,66582,128,6,66842:0:0:0:0:
402,192,66582,128,6,66842:0:0:0:0:
36,192,66929,1,2,0:0:0:0:
329,192,66929,1,6,0:0:0:0:
182,192,66929,128,2,67189:0:0:0:0:
475,192,66929,128,6,67189:0:0:0:0:
402,192,67275,1,6,0:0:0:0:
109,192,67275,1,2,0:0:0:0:
256,192,67275,1,2,0:0:0:0:
475,192,67449,1,2,0:0:0:0:
329,192,67449,1,2,0:0:0:0:
182,192,67449,1,2,0:0:0:0:
256,192,67622,1,10,0:0:0:0:
36,192,67622,1,8,0:0:0:0:
109,192,67622,1,10,0:0:0:0:
475,192,67622,128,4,67969:0:0:0:0:
402,192,67622,128,2,67969:0:0:0:0:
182,192,67969,1,2,0:0:0:0:
36,192,67969,1,2,0:0:0:0:
329,192,67969,1,0,0:0:0:0:
36,192,68143,1,2,0:0:0:0:
182,192,68143,1,2,0:0:0:0:
182,192,68316,1,2,0:0:0:0:
36,192,68316,1,2,0:0:0:0:
182,192,68489,1,2,0:0:0:0:
36,192,68489,1,2,0:0:0:0:
329,192,68489,1,0,0:0:0:0:
36,192,68663,1,2,0:0:0:0:
182,192,68663,1,2,0:0:0:0:
182,192,68836,1,2,0:0:0:0:
36,192,68836,1,2,0:0:0:0:
329,192,68836,1,0,0:0:0:0:
109,192,69010,1,2,0:0:0:0:
256,192,69010,1,10,0:0:0:0:
402,192,69010,1,10,0:0:0:0:
475,192,69010,1,8,0:0:0:0:
402,192,69183,1,10,0:0:0:0:
256,192,69183,1,0,0:0:0:0:
109,192,69183,1,8,0:0:0:0:
402,192,69270,1,10,0:0:0:0:
109,192,69270,1,8,0:0:0:0:
329,192,69356,1,2,0:0:0:0:
182,192,69356,1,2,0:0:0:0:
36,192,69356,128,4,69703:0:0:0:0:
475,192,69356,128,6,69703:0:0:0:0:
329,192,69703,1,10,0:0:0:0:
109,192,69703,1,10,0:0:0:0:
182,192,69703,1,8,0:0:0:0:
402,192,69703,1,2,0:0:0:0:
36,192,69877,128,2,70050:0:0:0:0:
475,192,69877,128,2,70050:0:0:0:0:
36,192,70223,128,2,70310:0:0:0:0:
329,192,70223,128,2,70310:0:0:0:0:
182,192,70223,1,2,0:0:0:0:
109,192,70397,128,8,70484:0:0:0:0:
402,192,70397,128,2,70484:0:0:0:0:
475,192,70397,1,10,0:0:0:0:
256,192,70397,1,10,0:0:0:0:
475,192,70570,128,0,70657:0:0:0:0:
182,192,70570,128,0,70657:0:0:0:0:
329,192,70744,1,2,0:0:0:0:
182,192,70744,1,2,0:0:0:0:
402,192,70744,128,0,71090:0:0:0:0:
36,192,70744,128,2,71090:0:0:0:0:
109,192,71090,1,2,0:0:0:0:
182,192,71090,1,10,0:0:0:0:
256,192,71090,1,10,0:0:0:0:
329,192,71090,1,8,0:0:0:0:
36,192,71264,128,2,71437:0:0:0:0:
402,192,71264,128,2,71437:0:0:0:0:
402,192,71611,128,2,71697:0:0:0:0:
475,192,71611,1,2,0:0:0:0:
256,192,71611,128,2,71697:0:0:0:0:
182,192,71784,128,10,71871:0:0:0:0:
329,192,71784,128,10,71871:0:0:0:0:
109,192,71784,1,8,0:0:0:0:
402,192,71784,1,2,0:0:0:0:
256,192,71958,128,0,72044:0:0:0:0:
109,192,71958,128,0,72044:0:0:0:0:
36,192,72131,1,0,0:0:0:0:
256,192,72131,1,2,0:0:0:0:
109,192,72131,128,2,72478:0:0:0:0:
402,192,72131,128,2,72478:0:0:0:0:
182,192,72478,1,8,0:0:0:0:
329,192,72478,1,10,0:0:0:0:
36,192,72478,1,10,0:0:0:0:
475,192,72478,1,2,0:0:0:0:
109,192,72651,128,2,72825:0:0:0:0:
402,192,72651,128,2,72825:0:0:0:0:
402,192,72998,128,2,73085:0:0:0:0:
109,192,72998,128,2,73085:0:0:0:0:
182,192,72998,1,2,0:0:0:0:
329,192,73171,128,10,73258:0:0:0:0:
36,192,73171,128,2,73258:0:0:0:0:
256,192,73171,1,10,0:0:0:0:
402,192,73171,1,8,0:0:0:0:
182,192,73345,128,0,73432:0:0:0:0:
475,192,73345,128,0,73432:0:0:0:0:
329,192,73518,1,2,0:0:0:0:
36,192,73518,1,0,0:0:0:0:
182,192,73518,128,2,73865:0:0:0:0:
475,192,73518,128,2,73865:0:0:0:0:
256,192,73865,1,10,0:0:0:0:
329,192,73865,1,10,0:0:0:0:
402,192,73865,1,8,0:0:0:0:
36,192,73865,1,2,0:0:0:0:
182,192,74038,128,2,74212:0:0:0:0:
475,192,74038,128,2,74212:0:0:0:0:
182,192,74385,128,2,74472:0:0:0:0:
475,192,74385,128,2,74472:0:0:0:0:
402,192,74385,1,2,0:0:0:0:
329,192,74559,128,10,74645:0:0:0:0:
36,192,74559,128,2,74645:0:0:0:0:
182,192,74559,1,8,0:0:0:0:
256,192,74559,1,10,0:0:0:0:
402,192,74732,128,0,74819:0:0:0:0:
109,192,74732,128,0,74819:0:0:0:0:
256,192,74906,1,2,0:0:0:0:
475,192,74906,1,0,0:0:0:0:
329,192,74906,128,2,75252:0:0:0:0:
36,192,74906,128,2,75252:0:0:0:0:
109,192,75252,1,8,0:0:0:0:
182,192,75252,1,10,0:0:0:0:
256,192,75252,1,10,0:0:0:0:
475,192,75252,1,2,0:0:0:0:
329,192,75426,128,2,75599:0:0:0:0:
36,192,75426,128,2,75599:0:0:0:0:
329,192,75773,128,2,75859:0:0:0:0:
36,192,75773,128,2,75859:0:0:0:0:
182,192,75773,1,2,0:0:0:0:
109,192,75946,128,2,76033:0:0:0:0:
402,192,75946,128,10,76033:0:0:0:0:
256,192,75946,1,10,0:0:0:0:
475,192,75946,1,8,0:0:0:0:
182,192,76119,128,2,76206:0:0:0:0:
475,192,76119,128,2,76206:0:0:0:0:
256,192,76119,1,10,0:0:0:0:
36,192,76119,1,8,0:0:0:0:
402,192,76293,1,10,0:0:0:0:
109,192,76293,1,2,0:0:0:0:
475,192,76293,128,8,76640:0:0:0:0:
182,192,76293,128,10,76640:0:0:0:0:
402,192,76466,1,2,0:0:0:0:
36,192,76466,1,2,0:0:0:0:
329,192,76466,1,2,0:0:0:0:
329,192,76640,1,0,0:0:0:0:
256,192,76640,1,2,0:0:0:0:
109,192,76640,1,2,0:0:0:0:
475,192,76813,128,8,76986:0:0:0:0:
182,192,76813,128,2,76986:0:0:0:0:
402,192,76813,1,10,0:0:0:0:
329,192,76813,1,10,0:0:0:0:
329,192,76986,1,2,0:0:0:0:
256,192,76986,1,2,0:0:0:0:
109,192,76986,1,2,0:0:0:0:
256,192,77160,1,2,0:0:0:0:
109,192,77160,128,2,77247:0:0:0:0:
402,192,77160,128,0,77247:0:0:0:0:
475,192,77333,128,8,77420:0:0:0:0:
182,192,77333,128,10,77420:0:0:0:0:
329,192,77333,1,10,0:0:0:0:
109,192,77333,1,2,0:0:0:0:
329,192,77507,128,2,77593:0:0:0:0:
36,192,77507,128,2,77593:0:0:0:0:
182,192,77507,1,2,0:0:0:0:
475,192,77680,128,2,79067:0:0:0:0:
182,192,77680,1,8,0:0:0:0:
329,192,77680,1,10,0:0:0:0:
36,192,77680,128,0,79067:0:0:0:0:
256,192,77680,1,10,0:0:0:0:
329,192,78027,1,10,0:0:0:0:
182,192,78027,1,10,0:0:0:0:
256,192,78027,1,10,0:0:0:0:
402,192,78374,1,2,0:0:0:0:
109,192,78374,1,2,0:0:0:0:
182,192,78547,1,10,0:0:0:0:
109,192,78547,1,2,0:0:0:0:
329,192,78569,1,10,0:0:0:0:
402,192,78569,1,8,0:0:0:0:
182,192,79067,1,4,0:0:0:0:
329,192,79067,128,0,79154:0:0:0:0:
36,192,79241,128,0,79414:0:0:0:0:
36,192,79588,128,0,79761:0:0:0:0:
329,192,79588,128,0,79674:0:0:0:0:
36,192,79934,128,0,80108:0:0:0:0:
256,192,79934,1,0,0:0:0:0:
329,192,80108,1,0,0:0:0:0:
36,192,80281,128,0,80455:0:0:0:0:
402,192,80281,1,0,0:0:0:0:
329,192,80455,128,0,80541:0:0:0:0:
109,192,80628,128,0,80801:0:0:0:0:
109,192,80975,128,0,81148:0:0:0:0:
329,192,80975,128,0,81062:0:0:0:0:
109,192,81322,128,0,81495:0:0:0:0:
329,192,81322,1,0,0:0:0:0:
256,192,81495,1,0,0:0:0:0:
109,192,81669,128,0,81842:0:0:0:0:
329,192,81669,1,0,0:0:0:0:
402,192,81842,128,0,81929:0:0:0:0:
182,192,82015,128,0,82189:0:0:0:0:
182,192,82362,128,0,82536:0:0:0:0:
402,192,82362,128,0,82449:0:0:0:0:
182,192,82709,128,0,82882:0:0:0:0:
402,192,82709,1,0,0:0:0:0:
329,192,82882,1,0,0:0:0:0:
182,192,83056,128,0,83229:0:0:0:0:
402,192,83056,1,0,0:0:0:0:
475,192,83229,128,0,83316:0:0:0:0:
256,192,83403,128,0,83576:0:0:0:0:
256,192,83749,128,0,83923:0:0:0:0:
475,192,83749,128,0,83836:0:0:0:0:
256,192,84096,128,0,84270:0:0:0:0:
475,192,84096,1,0,0:0:0:0:
402,192,84270,1,0,0:0:0:0:
256,192,84443,128,0,84616:0:0:0:0:
109,192,84443,1,0,0:0:0:0:
36,192,84616,128,0,84703:0:0:0:0:
329,192,84790,128,0,84963:0:0:0:0:
329,192,85137,128,0,85310:0:0:0:0:
36,192,85137,128,0,85223:0:0:0:0:
329,192,85484,128,0,85657:0:0:0:0:
36,192,85484,128,0,88778:0:0:0:0:
109,192,85657,1,0,0:0:0:0:
329,192,85830,128,0,86004:0:0:0:0:
182,192,85830,1,0,0:0:0:0:
109,192,86004,128,0,86090:0:0:0:0:
402,192,86177,128,0,86351:0:0:0:0:
402,192,86524,128,0,86697:0:0:0:0:
109,192,86524,128,0,86611:0:0:0:0:
402,192,86871,128,0,87044:0:0:0:0:
109,192,86871,128,0,88778:0:0:0:0:
182,192,87044,1,0,0:0:0:0:
402,192,87218,128,0,87391:0:0:0:0:
256,192,87218,1,0,0:0:0:0:
182,192,87391,128,0,87478:0:0:0:0:
475,192,87564,128,0,87738:0:0:0:0:
475,192,87911,128,0,88085:0:0:0:0:
182,192,87911,128,0,87998:0:0:0:0:
475,192,88258,128,0,88432:0:0:0:0:
182,192,88258,128,0,88778:0:0:0:0:
256,192,88432,1,0,0:0:0:0:
475,192,88605,128,0,88778:0:0:0:0:
329,192,88605,1,0,0:0:0:0:
256,192,88778,128,0,90166:0:0:0:0:
