osu file format v14

[General]
AudioFilename: audio.mp3
AudioLeadIn: 0
PreviewTime: 34154
Countdown: 1
SampleSet: Soft
StackLeniency: 0.7
Mode: 3
LetterboxInBreaks: 0
SpecialStyle: 0
WidescreenStoryboard: 1

[Editor]
DistanceSpacing: 0.8
BeatDivisor: 4
GridSize: 16
TimelineZoom: 1.7

[Metadata]
Title:Kizuato
TitleUnicode:キズアト
Artist:a*ru
ArtistUnicode:a☆ru
Creator:Julio1212-
Version:Easy
Source:東方妖々夢 ~ Perfect Cherry Blossom.
Tags:ALiCE'S EMOTiON th7 touhou youyomu ayumi nomiya redalice scar ブクレシュティの人形師 the doll maker of bucuresti overdrive Alice Margatroid アリス・マーガトロイド
BeatmapID:1565365
BeatmapSetID:740213

[Difficulty]
HPDrainRate:7.2
CircleSize:7
OverallDifficulty:7
ApproachRate:5
SliderMultiplier:1.4
SliderTickRate:1

[Events]
//Background and Video events
0,0,"maxresdefault.jpg",0,0
//Break Periods
//Storyboard Layer 0 (Background)
//Storyboard Layer 1 (Fail)
//Storyboard Layer 2 (Pass)
//Storyboard Layer 3 (Foreground)
//Storyboard Sound Samples

[TimingPoints]
1380,346.820809248555,4,2,1,30,1,0
12478,-100,4,2,1,50,0,0
34414,-100,4,2,1,28,0,0
34501,-100,4,2,1,25,0,0
34674,-100,4,2,1,50,0,1
45079,-100,4,2,1,30,0,0
45773,-100,4,2,1,50,0,1
55484,-100,4,2,1,50,0,0
79431,-100,4,2,1,30,0,0

[HitObjects]
182,192,1380,5,0,0:0:0:0:
256,128,2767,1,0,0:0:0:0:
329,192,4154,1,0,0:0:0:0:
36,192,5541,1,0,0:0:0:0:
182,96,6235,1,0,0:0:0:0:
329,96,6929,1,0,0:0:0:0:
182,64,8316,1,0,0:0:0:0:
256,96,9703,1,0,0:0:0:0:
475,64,11090,1,0,0:0:0:0:
329,128,11784,1,0,0:0:0:0:
182,64,12478,1,6,0:0:0:0:
402,64,13171,1,10,0:0:0:0:
182,192,13865,1,2,0:0:0:0:
475,64,14559,1,10,0:0:0:0:
109,128,15252,1,2,0:0:0:0:
329,128,15946,1,10,0:0:0:0:
36,128,16640,1,2,0:0:0:0:
256,96,17333,1,10,0:0:0:0:
402,160,18027,1,2,0:0:0:0:
109,160,18721,1,10,0:0:0:0:
256,192,19414,1,2,0:0:0:0:
36,192,20108,1,10,0:0:0:0:
329,192,20801,1,2,0:0:0:0:
36,192,21495,1,10,0:0:0:0:
182,192,21842,1,2,0:0:0:0:
329,192,22189,1,6,0:0:0:0:
475,192,22882,1,10,0:0:0:0:
256,192,23576,1,14,0:0:0:0:
128,128,24963,1,2,0:0:0:0:
256,192,25657,1,0,0:0:0:0:
402,192,26351,1,2,0:0:0:0:
182,128,27738,1,2,0:0:0:0:
329,128,28432,1,0,0:0:0:0:
402,192,29125,1,2,0:0:0:0:
329,192,29819,1,0,0:0:0:0:
109,192,30512,1,2,0:0:0:0:
256,192,30859,1,2,0:0:0:0:
402,192,31206,1,2,0:0:0:0:
329,192,31900,128,2,32593:0:0:0:0:
36,192,32593,128,2,32940:0:0:0:0:
256,192,32940,1,14,0:0:0:0:
475,192,33287,1,0,0:0:0:0:
256,192,33634,1,14,0:0:0:0:
36,192,33981,1,10,0:0:0:0:
182,160,34674,1,6,0:0:0:0:
329,192,35021,1,10,0:0:0:0:
109,192,35715,1,10,0:0:0:0:
160,160,36062,1,2,0:0:0:0:
402,192,36408,1,10,0:0:0:0:
182,192,37102,1,10,0:0:0:0:
256,192,37449,1,2,0:0:0:0:
475,192,37796,1,10,0:0:0:0:
182,192,38316,1,2,0:0:0:0:
256,192,38489,1,10,0:0:0:0:
329,192,38663,1,2,0:0:0:0:
36,192,38836,1,2,0:0:0:0:
402,192,39183,1,10,0:0:0:0:
109,160,39530,1,10,0:0:0:0:
475,192,39877,1,10,0:0:0:0:
36,96,40223,1,2,0:0:0:0:
329,192,40570,1,10,0:0:0:0:
128,96,41264,1,10,0:0:0:0:
475,96,41611,1,2,0:0:0:0:
182,96,41958,1,10,0:0:0:0:
402,96,42651,1,10,0:0:0:0:
36,192,42998,1,2,0:0:0:0:
109,192,43345,1,2,0:0:0:0:
182,192,43692,1,2,0:0:0:0:
329,192,43865,1,2,0:0:0:0:
475,192,44038,1,10,0:0:0:0:
96,160,44385,5,6,0:0:0:0:
329,192,44732,1,10,0:0:0:0:
182,192,45079,1,0,0:0:0:0:
402,192,45426,1,0,0:0:0:0:
96,160,45773,1,6,0:0:0:0:
288,160,46119,5,10,0:0:0:0:
36,192,46466,1,2,0:0:0:0:
182,192,46813,1,10,0:0:0:0:
256,192,47507,1,10,0:0:0:0:
402,192,47853,1,2,0:0:0:0:
182,192,48200,1,10,0:0:0:0:
329,192,48894,1,10,0:0:0:0:
160,128,49241,1,2,0:0:0:0:
109,192,49414,1,2,0:0:0:0:
402,192,49588,1,10,0:0:0:0:
329,192,49761,1,2,0:0:0:0:
109,192,49934,1,2,0:0:0:0:
36,128,50281,1,10,0:0:0:0:
329,128,50628,1,10,0:0:0:0:
256,192,50801,1,2,0:0:0:0:
182,192,50975,1,10,0:0:0:0:
475,128,51322,1,2,0:0:0:0:
256,192,51669,1,10,0:0:0:0:
475,128,52015,1,2,0:0:0:0:
109,192,52362,1,10,0:0:0:0:
402,128,52709,1,2,0:0:0:0:
36,192,53056,1,10,0:0:0:0:
475,192,53403,1,2,0:0:0:0:
256,192,53749,1,10,0:0:0:0:
109,192,54096,1,2,0:0:0:0:
109,192,54443,1,2,0:0:0:0:
402,192,54790,1,2,0:0:0:0:
402,192,55137,1,10,0:0:0:0:
36,192,55484,1,2,0:0:0:0:
475,192,55830,1,10,0:0:0:0:
256,192,56177,1,2,0:0:0:0:
109,192,56871,1,6,0:0:0:0:
402,192,57218,1,10,0:0:0:0:
329,192,57564,1,2,0:0:0:0:
256,192,57911,1,10,0:0:0:0:
182,192,58605,1,10,0:0:0:0:
256,192,58952,1,2,0:0:0:0:
329,192,59299,1,10,0:0:0:0:
475,192,59992,1,10,0:0:0:0:
402,192,60339,1,2,0:0:0:0:
329,192,60686,1,10,0:0:0:0:
36,192,61380,1,10,0:0:0:0:
109,192,61726,1,2,0:0:0:0:
182,192,62073,1,10,0:0:0:0:
256,192,62767,1,10,0:0:0:0:
329,192,63114,1,2,0:0:0:0:
402,192,63460,1,10,0:0:0:0:
109,192,64154,1,10,0:0:0:0:
192,128,64501,1,2,0:0:0:0:
256,192,64848,1,10,0:0:0:0:
329,192,65541,1,10,0:0:0:0:
402,192,65888,1,2,0:0:0:0:
475,192,66235,1,10,0:0:0:0:
192,128,66582,1,2,0:0:0:0:
192,128,66929,1,2,0:0:0:0:
402,192,67275,1,2,0:0:0:0:
256,192,67449,1,2,0:0:0:0:
109,192,67622,1,10,0:0:0:0:
64,160,67969,128,2,69009:0:0:0:0:
256,192,69010,1,10,0:0:0:0:
475,192,69356,1,6,0:0:0:0:
182,192,69703,1,10,0:0:0:0:
329,192,70050,1,2,0:0:0:0:
475,192,70397,1,10,0:0:0:0:
402,192,71090,1,10,0:0:0:0:
256,192,71437,1,2,0:0:0:0:
109,192,71784,1,10,0:0:0:0:
36,192,72478,1,10,0:0:0:0:
182,192,72825,1,2,0:0:0:0:
329,192,73171,1,10,0:0:0:0:
475,192,73865,1,10,0:0:0:0:
402,192,74212,1,2,0:0:0:0:
256,192,74559,1,10,0:0:0:0:
36,192,75252,1,10,0:0:0:0:
96,160,75599,1,2,0:0:0:0:
256,192,75946,1,10,0:0:0:0:
256,192,76119,1,10,0:0:0:0:
475,192,76293,1,10,0:0:0:0:
402,192,76640,1,2,0:0:0:0:
256,192,76813,1,10,0:0:0:0:
109,192,77160,1,2,0:0:0:0:
256,192,77333,1,10,0:0:0:0:
329,192,77680,1,10,0:0:0:0:
182,192,78027,1,10,0:0:0:0:
402,192,78374,1,2,0:0:0:0:
109,192,78547,1,10,0:0:0:0:
256,192,79067,1,4,0:0:0:0:
224,96,80455,1,0,0:0:0:0:
224,96,81842,1,0,0:0:0:0:
224,96,83229,1,0,0:0:0:0:
224,96,84616,1,0,0:0:0:0:
224,96,86004,1,0,0:0:0:0:
224,96,87391,1,0,0:0:0:0:
256,192,88778,128,0,90166:0:0:0:0:
