osu file format v14

[General]
AudioFilename: audio.mp3
AudioLeadIn: 0
PreviewTime: 146664
Countdown: 0
SampleSet: Soft
StackLeniency: 0.4
Mode: 0
LetterboxInBreaks: 0
WidescreenStoryboard: 1

[Editor]
Bookmarks: 1347,12445,23543,29092,34642,45740,56838,69324,79035,90133,95682,101231,112329,123428,134526,147012,158110,169208,181694,191405,203890
DistanceSpacing: 1
BeatDivisor: 8
GridSize: 8
TimelineZoom: 1.9

[Metadata]
Title:Kizuato
TitleUnicode:キズアト
Artist:a*ru
ArtistUnicode:a☆ru
Creator:Halfslashed
Version:Extra Stage
Source:東方妖々夢 ~ Perfect Cherry Blossom.
Tags:ALiCE'S EMOTiON th7 touhou youyomu ayumi nomiya redalice scar ブクレシュティの人形師 the doll maker of bucuresti overdrive Alice Margatroid アリス・マーガトロイド pcb c83 comiket83 MrSergio
BeatmapID:1207948
BeatmapSetID:569843

[Difficulty]
HPDrainRate:7
CircleSize:4
OverallDifficulty:8.5
ApproachRate:9
SliderMultiplier:1.6
SliderTickRate:1

[Events]
//Background and Video events
0,0,"bg.jpg",0,0
//Break Periods
2,123627,132712
//Storyboard Layer 0 (Background)
//Storyboard Layer 1 (Fail)
//Storyboard Layer 2 (Pass)
//Storyboard Layer 3 (Foreground)
//Storyboard Sound Samples

[TimingPoints]
1347,346.820809248555,4,2,1,50,1,0
1347,-111.111111111111,4,2,1,50,0,0
12445,-100,4,2,1,60,0,0
23370,-100,4,2,0,60,0,0
23543,-125,4,2,3,40,0,0
28745,-333.333333333333,4,2,3,40,0,0
29092,-100,4,2,1,60,0,0
31867,-100,4,2,2,70,0,0
33904,-100,4,2,1,40,0,0
33948,-100,4,2,1,70,0,0
34381,-100,4,2,2,50,0,0
34468,-100,4,2,2,30,0,0
34641,-83.3333333333333,4,2,1,80,0,1
34901,-83.3333333333333,4,2,1,20,0,1
34988,-83.3333333333333,4,2,1,80,0,1
36289,-83.3333333333333,4,2,1,20,0,1
36376,-83.3333333333333,4,2,1,80,0,1
44352,-83.3333333333333,4,2,2,80,0,1
44699,-83.3333333333333,4,2,1,80,0,1
44873,-83.3333333333333,4,2,2,80,0,1
45393,-83.3333333333333,4,2,1,80,0,0
45479,-83.3333333333333,4,2,1,60,0,0
45566,-83.3333333333333,4,2,1,40,0,0
45740,-83.3333333333333,4,2,1,80,0,1
46000,-83.3333333333333,4,2,1,20,0,1
46087,-83.3333333333333,4,2,1,80,0,1
47387,-83.3333333333333,4,2,1,20,0,1
47474,-83.3333333333333,4,2,1,80,0,1
55451,-83.3333333333333,4,2,2,80,0,1
55797,-83.3333333333333,4,2,1,80,0,1
55971,-83.3333333333333,4,2,2,80,0,1
56491,-83.3333333333333,4,2,1,80,0,0
56578,-83.3333333333333,4,2,1,60,0,0
56665,-83.3333333333333,4,2,1,40,0,0
56838,-100,4,2,1,70,0,1
57011,-100,4,2,1,70,0,0
66549,-66.6666666666667,4,2,1,70,0,0
66809,-66.6666666666667,4,2,1,20,0,0
66896,-66.6666666666667,4,2,1,70,0,0
67156,-66.6666666666667,4,2,1,20,0,0
67243,-100,4,2,1,70,0,0
67936,-100,4,2,2,60,0,0
68977,-100,4,2,1,60,0,0
69150,-100,4,2,2,60,0,0
69323,-100,4,2,1,70,0,1
69497,-100,4,2,1,70,0,0
76433,-100,4,2,2,70,0,0
76780,-100,4,2,1,70,0,0
76953,-100,4,2,2,70,0,0
77300,-100,4,2,1,70,0,0
77474,-100,4,2,2,70,0,0
77647,-66.6666666666667,4,2,1,70,0,0
77907,-66.6666666666667,4,2,1,20,0,0
77994,-66.6666666666667,4,2,1,70,0,0
78254,-66.6666666666667,4,2,1,20,0,0
78341,-100,4,2,1,70,0,0
78688,-66.6666666666667,4,2,1,70,0,0
78861,-100,4,2,1,60,0,0
89959,-100,4,2,0,60,0,0
90133,-125,4,2,3,40,0,0
95335,-333.333333333333,4,2,3,40,0,0
95682,-100,4,2,1,60,0,0
98456,-100,4,2,2,70,0,0
100494,-100,4,2,1,40,0,0
100538,-100,4,2,1,70,0,0
100971,-100,4,2,2,50,0,0
101058,-100,4,2,2,30,0,0
101231,-83.3333333333333,4,2,1,80,0,1
101491,-83.3333333333333,4,2,1,20,0,1
101578,-83.3333333333333,4,2,1,80,0,1
102878,-83.3333333333333,4,2,1,20,0,1
102965,-83.3333333333333,4,2,1,80,0,1
110942,-83.3333333333333,4,2,2,80,0,1
111289,-83.3333333333333,4,2,1,80,0,1
111462,-83.3333333333333,4,2,2,80,0,1
111982,-83.3333333333333,4,2,1,80,0,0
112069,-83.3333333333333,4,2,1,60,0,0
112156,-83.3333333333333,4,2,1,40,0,0
112329,-83.3333333333333,4,2,1,80,0,1
112589,-83.3333333333333,4,2,1,20,0,1
112676,-83.3333333333333,4,2,1,80,0,1
113977,-83.3333333333333,4,2,1,20,0,1
114064,-83.3333333333333,4,2,1,80,0,1
122040,-83.3333333333333,4,2,2,80,0,1
122387,-83.3333333333333,4,2,1,80,0,1
122560,-83.3333333333333,4,2,2,80,0,1
123081,-83.3333333333333,4,2,1,80,0,0
123167,-83.3333333333333,4,2,1,60,0,0
123254,-83.3333333333333,4,2,1,40,0,0
123427,-100,4,2,1,50,0,0
133312,-111.111111111111,4,2,0,25,0,0
133485,-111.111111111111,4,2,0,30,0,0
133659,-111.111111111111,4,2,0,35,0,0
133832,-111.111111111111,4,2,0,40,0,0
134005,-111.111111111111,4,2,0,45,0,0
134179,-111.111111111111,4,2,3,50,0,0
134526,-111.111111111111,4,2,3,55,0,0
140075,-100,4,2,3,60,0,0
142503,-100,4,2,1,65,0,0
142849,-100,4,2,1,70,0,0
143890,-100,4,2,2,75,0,0
144237,-100,4,2,2,80,0,0
144323,-100,4,2,2,50,0,0
144410,-100,4,2,2,55,0,0
144583,-100,4,2,2,60,0,0
144930,-100,4,2,2,65,0,0
145277,-100,4,2,2,70,0,0
145624,-100,4,2,2,80,0,0
146664,-333.333333333333,4,2,0,40,0,0
146925,-333.333333333333,4,2,0,20,0,0
147011,-83.3333333333333,4,2,1,80,0,1
147271,-83.3333333333333,4,2,1,20,0,1
147358,-83.3333333333333,4,2,1,80,0,1
148659,-83.3333333333333,4,2,1,20,0,1
148746,-83.3333333333333,4,2,1,80,0,1
156722,-83.3333333333333,4,2,2,80,0,1
157069,-83.3333333333333,4,2,1,80,0,1
157242,-83.3333333333333,4,2,2,80,0,1
157763,-83.3333333333333,4,2,1,80,0,0
157849,-83.3333333333333,4,2,1,60,0,0
157936,-83.3333333333333,4,2,1,40,0,0
158110,-83.3333333333333,4,2,1,80,0,1
158370,-83.3333333333333,4,2,1,20,0,1
158457,-83.3333333333333,4,2,1,80,0,1
159757,-83.3333333333333,4,2,1,20,0,1
159844,-83.3333333333333,4,2,1,80,0,1
167820,-83.3333333333333,4,2,2,80,0,1
168167,-83.3333333333333,4,2,1,80,0,1
168341,-83.3333333333333,4,2,2,80,0,1
168861,-83.3333333333333,4,2,1,80,0,0
168948,-83.3333333333333,4,2,1,60,0,0
169035,-83.3333333333333,4,2,1,40,0,0
169208,-100,4,2,1,70,0,1
169381,-100,4,2,1,70,0,0
178919,-66.6666666666667,4,2,1,70,0,0
179179,-66.6666666666667,4,2,1,20,0,0
179266,-66.6666666666667,4,2,1,70,0,0
179526,-66.6666666666667,4,2,1,20,0,0
179613,-100,4,2,1,70,0,0
180306,-100,4,2,2,60,0,0
181347,-100,4,2,1,60,0,0
181520,-100,4,2,2,60,0,0
181693,-100,4,2,1,70,0,1
181867,-100,4,2,1,70,0,0
188803,-100,4,2,2,70,0,0
189150,-100,4,2,1,70,0,0
189323,-100,4,2,2,70,0,0
189670,-100,4,2,1,70,0,0
189844,-100,4,2,2,70,0,0
190017,-66.6666666666667,4,2,1,70,0,0
190277,-66.6666666666667,4,2,1,20,0,0
190364,-66.6666666666667,4,2,1,70,0,0
190624,-66.6666666666667,4,2,1,20,0,0
190711,-100,4,2,1,70,0,0
191057,-66.6666666666667,4,2,1,70,0,0
191230,-100,4,2,1,50,0,0
201636,-100,4,2,1,25,0,0
201809,-100,4,2,1,30,0,0
201982,-100,4,2,1,35,0,0
202156,-100,4,2,1,40,0,0
202329,-100,4,2,1,45,0,0
202503,-100,4,2,1,50,0,0

[Colours]
Combo1 : 255,85,28
Combo2 : 255,193,6
Combo3 : 191,136,21

[HitObjects]
70,251,1347,6,0,P|16:197|9:132,1,143.999995605469,6|0,0:0|0:0,0:0:0:0:
67,257,1867,2,0,P|36:236|14:207,1,71.9999978027344
31,63,2214,1,0,0:0:0:0:
9,132,2387,1,0,0:0:0:0:
15,208,2560,1,0,0:0:0:0:
114,77,2734,6,0,P|98:150|129:208,1,143.999995605469,2|0,0:0|0:0,0:0:0:0:
107,75,3254,2,0,P|93:107|91:148,1,71.9999978027344
195,243,3601,1,0,0:0:0:0:
130,208,3774,1,0,0:0:0:0:
91,143,3948,1,0,0:0:0:0:
195,243,4121,6,0,P|270:247|323:209,1,143.999995605469,2|0,0:0|0:0,0:0:0:0:
190,248,4641,2,0,P|222:257|264:255,1,71.9999978027344
355,135,4988,1,0,0:0:0:0:
324,208,5162,1,0,0:0:0:0:
260,255,5335,1,0,0:0:0:0:
128,115,5508,6,0,P|201:127|245:176,1,143.999995605469,2|0,0:0|0:0,0:0:0:0:
123,110,6028,2,0,P|157:106|196:119,1,71.9999978027344
260,255,6375,1,0,0:0:0:0:
193,117,6549,1,0,0:0:0:0:
260,255,6722,1,0,0:0:0:0:
391,338,6896,6,0,P|460:305|488:246,1,143.999995605469,2|0,0:0|0:0,0:0:0:0:
396,343,7416,2,0,P|430:334|465:310,1,71.9999978027344
491,172,7763,1,0,0:0:0:0:
461,314,7936,1,0,0:0:0:0:
488,247,8110,1,0,0:0:0:0:
359,205,8283,6,0,P|326:136|267:108,1,143.999995605469,2|0,0:0|0:0,0:0:0:0:
364,200,8803,2,0,P|355:166|331:131,1,71.9999978027344
195,105,9150,1,0,0:0:0:0:
268,108,9323,1,0,0:0:0:0:
335,135,9497,1,0,0:0:0:0:
241,260,9670,6,0,P|269:329|325:361,1,143.999995605469,2|0,0:0|0:0,0:0:0:0:
236,265,10190,2,0,P|242:298|264:334,1,71.9999978027344
401,375,10537,1,0,0:0:0:0:
261,331,10711,1,0,0:0:0:0:
401,375,10884,1,0,0:0:0:0:
378,226,11057,5,2,0:0:0:0:
378,226,11231,1,0,0:0:0:0:
375,82,11404,2,0,P|360:113|356:155,1,71.9999978027344
471,318,11751,2,0,P|438:302|403:298,1,71.9999978027344,2|0,0:0|0:0,0:0:0:0:
508,151,12098,2,0,P|474:162|447:184,1,71.9999978027344
333,333,12445,6,0,P|288:337|247:325,1,80,6|0,1:2|0:0,0:0:0:0:
192,244,12792,1,0,0:0:0:0:
150,340,12965,2,0,P|117:316|95:283,2,80,0|8|0,0:0|0:2|0:0,0:0:0:0:
109,180,13485,1,0,0:0:0:0:
192,244,13659,1,0,0:0:0:0:
350,242,13832,6,0,P|416:202|448:128,1,160,2|0,1:2|0:0,0:0:0:0:
342,138,14352,1,0,0:0:0:0:
342,138,14439,1,0,0:0:0:0:
342,138,14526,2,0,P|357:98|358:48,1,80,8|0,0:2|0:0,0:0:0:0:
205,175,14873,1,0,0:0:0:0:
161,79,15046,1,0,0:0:0:0:
153,270,15219,6,0,P|131:325|87:365,1,120,2|0,1:2|0:0,0:0:0:0:
59,380,15566,1,0,0:0:0:0:
50,268,15740,2,0,P|32:285|8:292,2,40,0|0|8,0:0|0:0|0:0,0:0:0:0:
104,177,16086,2,0,P|121:159|145:152,1,40
283,138,16260,1,0,0:0:0:0:
265,241,16433,1,0,1:2:0:0:
385,130,16607,6,0,P|373:86|348:52,1,80,2|0,1:2|0:0,0:0:0:0:
253,34,16953,1,0,0:0:0:0:
364,205,17127,2,0,P|381:169|385:129,1,80,0|8,0:0|0:2,0:0:0:0:
384,122,17387,1,0,0:0:0:0:
383,114,17474,1,0,0:0:0:0:
381,106,17560,1,0,0:0:0:0:
379,98,17647,1,0,1:2:0:0:
283,138,17820,1,0,0:0:0:0:
435,317,17994,5,2,1:2:0:0:
435,317,18167,1,0,0:0:0:0:
330,307,18341,1,0,0:0:0:0:
435,317,18514,1,0,0:0:0:0:
261,236,18688,1,8,0:2:0:0:
330,307,18861,1,0,0:0:0:0:
261,236,19034,1,0,0:0:0:0:
435,317,19208,2,0,P|428:277|435:238,1,80,0|2,0:0|1:2,0:0:0:0:
484,159,19555,5,0,0:0:0:0:
412,29,19728,1,0,0:0:0:0:
512,58,19901,1,0,0:0:0:0:
512,58,19988,1,0,0:0:0:0:
512,58,20075,1,8,0:2:0:0:
384,129,20248,1,0,0:0:0:0:
412,29,20422,1,0,0:0:0:0:
220,53,20595,2,0,P|255:71|282:100,1,80,0|2,0:0|1:2,0:0:0:0:
310,202,20942,5,0,0:0:0:0:
282,101,21115,1,0,0:0:0:0:
209,175,21289,1,0,0:0:0:0:
40,107,21462,2,0,P|77:121|117:126,1,80,8|0,0:0|0:0,0:0:0:0:
282,101,21809,1,0,0:0:0:0:
141,253,21982,1,0,1:2:0:0:
394,171,22156,6,0,P|432:179|467:199,1,80,6|0,1:2|0:0,0:0:0:0:
509,304,22503,1,0,0:0:0:0:
319,194,22676,2,0,P|354:176|394:171,1,80,0|10,0:0|0:0,0:0:0:0:
394,171,23196,1,8,0:0:0:0:
170,171,23370,1,0,1:0:0:0:
162,153,23456,1,0,1:0:0:0:
158,137,23543,6,0,B|151:101|174:75|174:75|198:48|193:13,2,128,6|0|0,1:2|1:2|1:2,0:0:0:0:
162,141,24583,1,0,1:0:0:0:
162,141,24757,1,0,0:0:0:0:
273,161,24930,2,0,P|315:140|362:141,1,96,2|0,1:2|0:0,0:0:0:0:
391,157,25277,1,0,1:2:0:0:
332,218,25451,2,0,P|307:237|292:264,1,64,0|0,0:0|1:2,0:0:0:0:
371,291,25797,2,0,P|366:322|375:353,1,64,0|0,0:0|1:2,0:0:0:0:
493,301,26144,1,0,0:0:0:0:
493,301,26231,1,0,0:0:0:0:
493,301,26318,6,0,P|500:237|482:176,2,128,2|0|0,1:2|1:2|1:2,0:0:0:0:
455,375,27185,1,0,0:0:0:0:
375,353,27358,1,0,1:2:0:0:
493,301,27531,1,0,0:0:0:0:
375,353,27705,2,0,B|339:359|313:335|313:335|287:310|252:315,1,128,2|0,1:2|1:2,0:0:0:0:
175,323,28225,2,0,P|143:317|117:299,1,64,0|0,0:0|1:2,0:0:0:0:
112,304,28745,6,0,P|121:313|145:324,1,35.9999989013672,0|0,1:2|0:0,0:0:0:0:
175,323,29092,6,0,P|214:318|244:293,1,80,6|0,1:2|0:0,0:0:0:0:
171,219,29439,2,0,L|201:141,1,80,0|0,1:2|0:0,0:0:0:0:
95,156,29786,2,0,L|62:80,1,80,0|0,1:2|0:0,0:0:0:0:
171,219,30133,1,0,1:2:0:0:
95,156,30306,1,0,0:0:0:0:
207,43,30479,6,0,P|245:51|274:78,1,80,2|0,1:2|0:0,0:0:0:0:
311,176,30826,1,0,1:2:0:0:
137,72,31000,2,0,P|168:47|207:43,1,80,0|0,0:0|1:2,0:0:0:0:
311,176,31347,2,0,P|315:215|298:250,1,80,0|0,0:0|1:2,0:0:0:0:
126,316,31693,1,0,0:0:0:0:
126,316,31780,1,0,0:0:0:0:
126,316,31867,5,2,1:2:0:0:
40,349,32040,1,0,1:0:0:0:
212,283,32214,1,0,1:0:0:0:
126,316,32387,1,0,1:0:0:0:
298,250,32560,1,2,1:2:0:0:
212,283,32734,1,0,1:0:0:0:
389,219,32907,1,0,1:0:0:0:
409,221,32994,1,0,1:0:0:0:
428,228,33081,6,0,P|461:249|478:285,1,80,0|2,1:0|0:0,0:0:0:0:
465,384,33427,1,0,1:0:0:0:
322,321,33601,2,0,P|299:289|297:249,1,80,0|0,1:0|0:0,0:0:0:0:
307,220,33861,2,0,L|315:201,2,20,0|8|8,3:0|0:2|0:2,0:0:0:0:
204,203,34121,1,0,0:0:0:0:
196,200,34208,1,0,0:0:0:0:
190,195,34294,2,0,P|172:173|167:150,2,40,8|8|8,2:3|2:3|2:3,0:0:0:0:
3,16,34641,6,0,P|68:2|149:30,1,143.999995605469,6|0,1:2|0:0,0:0:0:0:
198,76,34988,1,8,0:0:0:0:
5,95,35162,2,0,P|48:117|87:167,1,95.9999970703126
79,152,35508,1,0,1:2:0:0:
131,266,35682,2,0,P|133:313|111:372,1,95.9999970703126,8|0,0:2|0:2,0:2:0:0:
246,185,36029,6,0,P|300:223|385:229,1,143.999995605469,2|0,1:2|0:0,0:0:0:0:
448,207,36375,1,8,0:0:0:0:
270,109,36549,2,0,P|317:104|359:82,1,95.9999970703126
359,81,36896,1,0,1:2:0:0:
165,36,37069,2,0,P|169:83|191:125,1,95.9999970703126,8|0,0:0|0:0,0:0:0:0:
290,268,37416,6,0,P|329:241|376:231,1,95.9999970703126,2|0,1:2|0:0,0:0:0:0:
498,261,37763,1,8,0:0:0:0:
294,344,37936,2,0,P|340:353|380:379,1,95.9999970703126
130,384,38283,2,0,P|169:357|216:347,1,95.9999970703126,0|8,1:2|0:0,0:0:0:0:
384,383,38630,1,0,1:2:0:0:
384,383,38803,5,2,1:2:0:0:
216,347,38977,1,0,1:2:0:0:
249,128,39150,1,8,0:0:0:0:
285,247,39323,1,0,1:2:0:0:
143,150,39497,1,8,0:0:0:0:
156,195,39583,1,0,1:2:0:0:
170,241,39670,1,0,1:2:0:0:
249,128,39844,2,0,P|228:86|193:54,1,95.9999970703126,8|0,0:2|0:0,0:0:0:0:
40,110,40190,5,2,1:2:0:0:
156,195,40364,1,0,1:2:0:0:
100,27,40537,1,8,0:0:0:0:
156,195,40711,1,0,1:2:0:0:
143,150,40797,2,0,L|126:101,1,47.9999985351563,0|0,1:2|0:0,0:0:0:0:
182,273,41057,1,0,1:0:0:0:
100,27,41231,1,8,0:0:0:0:
248,127,41404,1,0,0:0:0:0:
248,127,41578,5,2,1:2:0:0:
156,195,41751,1,0,1:2:0:0:
331,208,41925,1,8,0:0:0:0:
156,195,42098,1,0,1:2:0:0:
203,199,42184,2,0,L|254:203,1,47.9999985351563,0|0,1:2|0:0,0:0:0:0:
70,191,42445,1,0,1:0:0:0:
331,208,42619,2,0,L|406:132,1,95.9999970703126,8|0,0:0|0:0,0:0:0:0:
332,22,42965,5,2,1:2:0:0:
475,32,43139,1,0,1:2:0:0:
188,12,43312,1,0,1:2:0:0:
332,22,43485,1,2,1:2:0:0:
45,2,43659,1,0,1:2:0:0:
172,216,43832,1,2,1:2:0:0:
332,22,44005,1,8,0:2:0:0:
45,2,44179,2,0,L|110:6,1,47.9999985351563,0|0,1:0|0:0,0:0:0:0:
332,22,44352,5,2,1:2:0:0:
181,88,44526,1,0,1:2:0:0:
421,104,44699,1,8,0:0:0:0:
273,95,44873,2,0,P|310:123|325:168,1,95.9999970703126,2|0,1:2|0:0,0:0:0:0:
326,283,45219,1,0,0:0:0:0:
323,292,45306,1,0,0:0:0:0:
317,300,45393,2,0,P|294:317|271:322,2,47.9999985351563,8|8|8,0:3|0:3|0:3,0:3:0:0:
14,182,45740,6,0,P|79:187|156:149,1,143.999995605469,6|0,1:2|0:0,0:0:0:0:
202,100,46087,1,8,0:0:0:0:
0,262,46260,2,0,P|26:300|81:332,1,95.9999970703126
67,327,46607,1,0,1:2:0:0:
184,346,46780,2,0,P|231:342|287:311,1,95.9999970703126,8|0,0:0|0:0,0:0:0:0:
504,206,47127,6,0,P|439:221|379:282,1,143.999995605469,2|0,1:2|0:0,0:0:0:0:
349,343,47474,1,8,0:0:0:0:
512,131,47647,2,0,P|471:102|408:93,1,95.9999970703126
426,92,47994,1,0,1:2:0:0:
308,253,48167,2,0,P|299:205|274:165,1,95.9999970703126,8|0,0:0|0:0,0:0:0:0:
87,123,48514,6,0,P|134:131|196:114,1,95.9999970703126,2|0,1:2|0:0,0:0:0:0:
276,39,48861,1,8,0:0:0:0:
45,189,49034,2,0,P|72:228|128:260,1,95.9999970703126
9,27,49381,2,0,P|0:74|17:136,1,95.9999970703126,0|8,1:2|0:0,0:0:0:0:
116,258,49728,1,0,1:2:0:0:
116,258,49901,5,2,1:2:0:0:
10,120,50075,1,0,1:2:0:0:
244,28,50248,1,8,0:0:0:0:
127,74,50422,1,0,1:2:0:0:
320,177,50595,1,8,0:0:0:0:
275,194,50681,1,0,1:0:0:0:
230,212,50768,1,0,1:0:0:0:
355,60,50942,2,0,P|399:45|445:59,1,95.9999970703126,8|0,0:0|0:0,0:0:0:0:
508,221,51289,5,2,1:2:0:0:
442,304,51462,1,0,1:2:0:0:
401,136,51636,1,8,0:0:0:0:
442,304,51810,1,0,1:2:0:0:
431,257,51896,2,0,L|416:199,1,47.9999985351563,0|0,1:2|0:0,0:0:0:0:
460,377,52156,1,0,1:2:0:0:
401,136,52330,1,8,0:0:0:0:
259,242,52503,1,0,0:0:0:0:
259,242,52676,5,2,1:2:0:0:
363,313,52849,1,0,1:2:0:0:
191,332,53023,1,8,0:0:0:0:
363,313,53196,1,0,1:2:0:0:
315,318,53283,2,0,L|267:323,1,47.9999985351563,0|0,1:2|0:0,0:0:0:0:
442,304,53543,1,0,1:2:0:0:
191,332,53716,2,0,L|112:271,1,95.9999970703126,8|0,0:0|0:0,0:0:0:0:
143,136,54063,5,2,1:2:0:0:
0,157,54236,1,0,1:2:0:0:
287,114,54410,1,0,1:2:0:0:
143,136,54583,1,2,1:2:0:0:
423,93,54757,1,0,1:2:0:0:
315,318,54930,1,2,1:2:0:0:
143,136,55104,1,8,0:2:0:0:
423,93,55277,2,0,L|363:103,1,47.9999985351563,0|0,1:2|0:0,0:0:0:0:
143,136,55451,5,2,1:2:0:0:
287,114,55624,1,0,1:2:0:0:
0,157,55797,1,8,0:0:0:0:
187,274,55971,2,0,P|85:260|-2:316,1,191.999994140625,2|0,1:2|0:0,0:0:0:0:
154,147,56491,1,8,0:3:0:0:
154,147,56578,1,8,0:3:0:0:
154,147,56664,1,8,0:3:0:0:
154,147,56838,6,0,P|186:123|239:8,1,160,6|8,1:2|0:0,0:0:0:0:
77,166,57358,2,0,P|116:162|153:147,1,80
238,18,57705,1,0,1:2:0:0:
77,166,57878,1,8,0:0:0:0:
212,93,58052,1,0,0:0:0:0:
218,287,58225,6,0,P|189:258|154:137,1,160,2|8,1:2|0:0,0:0:0:0:
292,315,58745,2,0,P|254:305|219:287,1,80
154,147,59092,1,0,1:2:0:0:
292,315,59266,1,8,0:0:0:0:
169,225,59439,1,0,0:0:0:0:
322,133,59612,6,0,P|360:122|483:153,1,160,2|8,1:2|0:0,0:0:0:0:
262,184,60133,2,0,P|289:154|323:133,1,80
475,147,60479,1,0,1:2:0:0:
262,184,60653,1,8,0:0:0:0:
401,121,60826,1,0,0:0:0:0:
331,270,61000,6,0,P|368:256|493:276,1,160,2|8,1:2|0:0,0:0:0:0:
272,322,61520,2,0,P|299:292|332:269,1,80
485,271,61867,1,0,1:2:0:0:
272,322,62041,1,8,0:0:0:0:
485,271,62214,1,0,0:0:0:0:
270,221,62387,6,0,P|242:146|254:67,1,160,2|8,1:2|0:0,0:0:0:0:
332,271,62907,2,0,P|298:250|270:221,1,80
253,68,63254,1,0,1:2:0:0:
270,221,63427,1,8,0:0:0:0:
399,122,63601,1,0,0:0:0:0:
124,152,63774,6,0,P|178:94|253:68,1,160,2|8,1:2|0:0,0:0:0:0:
102,228,64294,2,0,P|108:188|124:152,1,80
253,68,64641,1,0,1:2:0:0:
124,152,64814,1,8,0:0:0:0:
270,221,64988,1,0,0:0:0:0:
29,220,65162,6,0,P|13:184|7:145,1,80,2|0,1:2|1:0,0:0:0:0:
7,145,65508,1,8,0:0:0:0:
154,310,65682,2,0,P|116:299|81:279,1,80,0|0,1:2|0:0,0:0:0:0:
2,67,66029,1,0,1:2:0:0:
29,220,66202,1,8,0:0:0:0:
2,67,66375,1,0,1:2:0:0:
14,51,66462,1,0,1:2:0:0:
29,38,66549,6,2,P|100:16|221:50,1,180.000006866455,2|0,1:2|0:0,0:0:0:0:
260,83,66896,2,2,P|192:25|105:11,1,180.000006866455,2|0,1:2|0:0,0:0:0:0:
29,38,67242,1,0,1:2:0:0:
29,38,67416,1,0,1:2:0:0:
0,237,67589,2,2,P|36:208|77:192,1,80,10|0,0:0|0:0,0:0:0:0:
203,203,67936,5,2,1:2:0:0:
320,146,68110,1,0,1:2:0:0:
373,262,68283,1,0,1:2:0:0:
490,210,68456,1,2,1:2:0:0:
436,94,68630,1,0,1:2:0:0:
320,146,68803,1,2,1:2:0:0:
425,378,68977,1,10,0:0:0:0:
255,316,69150,1,2,1:2:0:0:
219,297,69237,1,0,1:2:0:0:
190,270,69323,6,0,P|154:201|152:121,1,160,6|8,1:2|0:0,0:0:0:0:
255,316,69844,2,0,P|220:297|191:271,1,80
179,42,70190,1,0,1:2:0:0:
190,270,70364,1,8,0:0:0:0:
152,120,70537,1,0,0:0:0:0:
374,140,70711,6,0,P|298:157|236:207,1,160,2|8,1:2|0:0,0:0:0:0:
451,158,71231,2,0,P|413:143|374:140,1,80
190,270,71578,1,0,1:2:0:0:
374,140,71752,1,8,0:0:0:0:
235,208,71925,1,0,0:0:0:0:
305,312,72098,6,0,P|319:234|298:157,1,160,2|8,1:2|0:0,0:0:0:0:
257,375,72618,2,0,P|285:346|305:312,1,80
244,100,72965,1,0,1:2:0:0:
305,312,73139,1,8,0:0:0:0:
173,73,73312,1,0,0:0:0:0:
320,233,73485,6,0,P|393:209|450:153,1,160,2|8,1:2|0:0,0:0:0:0:
241,224,74005,2,0,P|280:233|320:233,1,80
489,87,74352,1,0,1:2:0:0:
320,233,74525,1,8,0:0:0:0:
451,152,74699,1,0,0:0:0:0:
299,0,74873,6,0,P|223:20|163:72,1,160,2|8,1:2|0:0,0:0:0:0:
377,11,75393,2,0,P|338:0|299:0,1,80
119,139,75740,1,0,1:2:0:0:
377,11,75913,1,8,0:0:0:0:
119,139,76086,1,8,0:0:0:0:
375,232,76260,5,10,0:0:0:0:
231,220,76433,1,0,1:2:0:0:
375,232,76607,1,0,1:2:0:0:
243,76,76780,1,10,0:0:0:0:
231,220,76953,1,0,1:2:0:0:
243,76,77127,1,2,1:2:0:0:
219,365,77300,1,8,0:0:0:0:
231,220,77473,1,0,1:2:0:0:
97,334,77647,6,2,P|60:268|72:142,1,180.000006866455,10|0,0:0|0:0,0:0:0:0:
95,97,77994,2,2,P|53:175|53:270,1,180.000006866455,10|0,0:0|0:0,0:0:0:0:
97,334,78341,1,0,1:2:0:0:
95,97,78514,1,8,0:0:0:0:
348,214,78688,2,2,P|288:205|231:220,1,120.000004577637,2|0,1:2|0:0,0:0:0:0:
396,387,79034,6,0,P|432:372|466:350,1,80,6|0,1:2|0:0,0:0:0:0:
512,255,79381,1,0,0:0:0:0:
409,270,79555,2,0,P|425:233|433:195,2,80,0|8|0,0:0|0:0|0:0,0:0:0:0:
434,92,80075,1,0,0:0:0:0:
388,0,80248,1,0,0:0:0:0:
255,137,80422,6,0,P|218:153|179:161,1,80,2|0,1:2|0:0,0:0:0:0:
86,116,80768,1,0,0:0:0:0:
100,228,80942,1,0,0:0:0:0:
100,228,81029,1,0,0:0:0:0:
100,228,81115,2,0,P|133:250|170:264,1,80,8|0,0:0|0:0,0:0:0:0:
347,188,81462,1,0,0:0:0:0:
274,262,81636,1,0,0:0:0:0:
343,375,81809,6,0,P|402:378|454:350,1,120,2|0,1:2|0:0,0:0:0:0:
474,324,82156,1,0,0:0:0:0:
378,275,82329,2,0,P|396:269|411:257,2,40,0|0|8,0:0|0:0|0:0,0:0:0:0:
274,262,82676,2,0,P|258:251|247:235,1,40
216,84,82849,1,0,0:0:0:0:
162,173,83023,1,0,1:2:0:0:
351,160,83196,6,0,P|388:145|421:123,1,80,2|0,1:2|0:0,0:0:0:0:
467,30,83543,1,0,0:0:0:0:
259,18,83716,2,0,P|295:33|335:42,1,80,0|8,0:0|0:0,0:0:0:0:
474,37,84063,1,0,0:0:0:0:
474,37,84150,1,0,0:0:0:0:
474,37,84237,1,0,1:2:0:0:
422,123,84410,1,0,0:0:0:0:
259,18,84583,5,2,1:2:0:0:
259,18,84757,1,0,0:0:0:0:
224,118,84930,1,0,0:0:0:0:
259,18,85104,1,0,0:0:0:0:
58,5,85277,1,8,0:2:0:0:
157,39,85451,1,0,0:0:0:0:
58,5,85624,1,0,0:0:0:0:
47,176,85797,2,0,P|81:155|118:140,1,80,0|2,0:0|1:2,0:0:0:0:
224,118,86144,5,0,0:0:0:0:
189,215,86317,1,0,0:0:0:0:
300,201,86491,1,0,0:0:0:0:
300,201,86578,1,0,0:0:0:0:
300,201,86664,1,8,0:0:0:0:
224,118,86838,1,0,0:0:0:0:
259,293,87011,1,0,0:0:0:0:
108,228,87185,2,0,P|105:267|96:306,1,80,0|2,0:0|1:2,0:0:0:0:
14,370,87531,5,0,0:0:0:0:
96,306,87705,1,0,0:0:0:0:
5,254,87878,1,0,0:0:0:0:
186,358,88052,1,8,0:0:0:0:
96,306,88225,1,0,0:0:0:0:
281,306,88399,1,0,0:0:0:0:
96,306,88572,1,0,1:0:0:0:
245,131,88745,6,0,P|278:108|314:91,1,80,6|0,1:2|0:0,0:0:0:0:
424,96,89092,1,0,0:0:0:0:
202,198,89266,2,0,P|220:162|245:131,1,80,0|10,0:0|0:0,0:0:0:0:
245,131,89786,1,8,0:0:0:0:
415,225,89959,1,0,1:0:0:0:
432,235,90046,1,0,1:0:0:0:
444,245,90133,6,0,B|468:270|465:305|465:305|459:339|484:365,2,128,6|0|0,1:2|1:2|1:2,0:0:0:0:
448,248,91173,1,0,1:0:0:0:
448,248,91347,1,0,0:0:0:0:
349,312,91520,2,0,P|333:355|292:380,1,96,2|0,1:2|0:0,0:0:0:0:
261,384,91867,1,0,1:2:0:0:
268,300,92040,2,0,P|264:269|248:242,1,64,0|0,0:0|1:2,0:0:0:0:
185,297,92387,2,0,P|159:277|129:269,1,64,0|0,0:0|1:2,0:0:0:0:
31,342,92734,1,0,0:0:0:0:
31,342,92820,1,0,0:0:0:0:
31,342,92907,6,0,P|86:375|148:384,2,128,2|0|0,1:2|1:2|1:2,0:0:0:0:
0,264,93774,1,0,0:0:0:0:
67,214,93948,1,0,1:2:0:0:
31,342,94121,1,0,0:0:0:0:
67,214,94294,6,0,B|68:179|42:155|42:155|15:134|16:101,1,128,2|0,1:2|1:2,0:0:0:0:
71,38,94815,2,0,P|91:62|99:93,1,64,0|0,0:0|1:2,0:0:0:0:
104,88,95335,6,0,P|99:67|91:50,1,35.9999989013672,0|0,1:2|0:0,0:0:0:0:
70,37,95682,6,0,P|37:17|-2:16,1,80,6|0,1:2|0:0,0:0:0:0:
201,74,96029,2,0,L|153:-8,1,80,0|0,1:2|0:0,0:0:0:0:
263,190,96375,2,0,L|288:98,1,80,0|0,1:2|0:0,0:0:0:0:
164,164,96722,1,0,1:2:0:0:
263,190,96896,1,0,0:0:0:0:
258,24,97069,6,0,P|223:40|200:73,1,80,2|0,1:2|0:0,0:0:0:0:
164,164,97416,1,0,1:2:0:0:
333,37,97589,2,0,P|297:20|257:24,1,80,0|0,0:0|1:2,0:0:0:0:
164,164,97936,2,0,P|157:203|172:239,1,80,0|0,0:0|1:2,0:0:0:0:
345,306,98283,1,0,0:0:0:0:
345,306,98370,1,0,0:0:0:0:
345,306,98457,5,2,1:2:0:0:
431,339,98630,1,0,1:2:0:0:
259,273,98804,1,0,1:2:0:0:
345,306,98977,1,0,1:2:0:0:
173,240,99150,1,2,1:2:0:0:
259,273,99324,1,0,1:2:0:0:
82,209,99497,1,0,1:2:0:0:
69,194,99583,1,0,1:2:0:0:
60,175,99670,6,0,P|57:135|75:100,1,80,0|2,1:2|0:0,0:0:0:0:
148,26,100017,1,0,1:2:0:0:
189,165,100190,2,0,P|191:204|173:239,1,80,0|0,1:2|0:0,0:0:0:0:
149,262,100451,2,0,L|134:276,2,20,0|8|8,3:0|0:0|0:0,0:0:0:0:
259,273,100711,1,0,0:0:0:0:
265,268,100797,1,0,0:0:0:0:
272,265,100884,2,0,P|291:262|310:267,2,40,8|8|8,0:3|0:3|0:3,0:3:0:0:
489,49,101231,6,0,P|420:36|352:58,1,143.999995605469,6|0,1:2|0:0,0:0:0:0:
289,104,101578,1,8,0:0:0:0:
486,226,101751,2,0,P|463:184|428:151,1,95.9999970703126
428,151,102098,1,0,1:2:0:0:
289,104,102271,2,0,P|241:97|193:105,1,95.9999970703126,8|0,0:2|0:0,0:0:0:0:
15,204,102618,6,0,P|67:252|136:268,1,143.999995605469,2|0,1:2|0:0,0:0:0:0:
212,253,102965,1,8,0:0:0:0:
106,64,103138,2,0,P|104:111|118:157,1,95.9999970703126
118,157,103485,1,0,1:2:0:0:
289,104,103659,2,0,P|254:137|230:179,1,95.9999970703126,8|0,0:0|0:0,0:0:0:0:
286,382,104005,6,0,P|333:387|380:377,1,95.9999970703126,2|0,1:2|0:0,0:0:0:0:
491,320,104352,1,8,0:0:0:0:
329,284,104526,2,0,P|366:255|392:215,1,95.9999970703126
142,324,104873,2,0,P|189:329|236:319,1,95.9999970703126,0|8,1:2|0:0,0:0:0:0:
396,218,105219,1,0,1:2:0:0:
396,218,105393,5,2,1:2:0:0:
236,319,105566,1,0,1:2:0:0:
169,120,105740,1,8,0:0:0:0:
266,206,105913,1,0,1:2:0:0:
72,182,106086,1,8,0:0:0:0:
106,212,106172,1,0,1:2:0:0:
142,244,106259,1,0,1:2:0:0:
169,120,106433,2,0,P|207:92|253:78,1,95.9999970703126,8|0,0:0|0:0,0:0:0:0:
427,124,106780,5,2,1:2:0:0:
314,140,106953,1,0,1:2:0:0:
442,262,107127,1,8,0:0:0:0:
314,140,107301,1,0,1:2:0:0:
348,173,107387,2,0,L|392:211,1,47.9999985351563,0|0,1:2|0:0,0:0:0:0:
253,78,107647,1,0,1:2:0:0:
442,262,107821,1,8,0:0:0:0:
231,251,107994,1,0,0:0:0:0:
231,251,108167,5,2,1:2:0:0:
294,357,108341,1,0,1:2:0:0:
115,331,108514,1,8,0:0:0:0:
294,357,108688,1,0,1:2:0:0:
247,349,108774,2,0,L|188:342,1,47.9999985351563,0|0,1:2|0:0,0:0:0:0:
378,369,109034,1,0,1:2:0:0:
115,331,109208,2,0,L|52:251,1,95.9999970703126,8|0,0:0|0:0,0:0:0:0:
144,155,109555,5,2,1:2:0:0:
2,129,109728,1,0,1:2:0:0:
285,180,109902,1,0,1:2:0:0:
144,155,110075,1,2,1:2:0:0:
424,204,110249,1,0,1:2:0:0:
192,291,110422,1,2,1:2:0:0:
237,46,110595,1,8,1:2:0:0:
424,204,110769,2,0,L|362:191,1,47.9999985351563,0|0,1:2|0:0,0:0:0:0:
144,155,110942,5,2,1:2:0:0:
192,291,111115,1,0,1:2:0:0:
110,79,111289,1,8,0:0:0:0:
61,280,111462,2,0,P|56:232|66:186,1,95.9999970703126,2|0,1:2|0:0,0:0:0:0:
110,79,111809,1,0,0:0:0:0:
115,71,111896,1,0,0:0:0:0:
123,66,111982,2,0,P|144:54|168:54,2,47.9999985351563,8|8|8,0:3|0:3|0:3,0:3:0:0:
349,14,112329,6,0,P|329:81|346:151,1,143.999995605469,6|0,1:2|0:0,0:0:0:0:
387,217,112676,1,8,0:0:0:0:
512,33,112849,2,0,P|469:51|434:84,1,95.9999970703126
433,84,113196,1,0,1:2:0:0:
387,217,113370,2,0,P|376:263|381:310,1,95.9999970703126,8|0,0:0|0:0,0:0:0:0:
235,158,113716,6,0,P|164:150|99:180,1,143.999995605469,2|0,1:2|0:0,0:0:0:0:
46,234,114063,1,8,0:0:0:0:
247,317,114237,2,0,P|220:278|182:249,1,95.9999970703126
181,248,114583,1,0,1:2:0:0:
45,353,114757,2,0,P|92:361|139:355,1,95.9999970703126,8|0,0:0|0:0,0:0:0:0:
235,158,115104,6,0,P|258:116|293:83,1,95.9999970703126,2|0,1:2|0:0,0:0:0:0:
415,53,115451,1,8,0:0:0:0:
340,179,115624,2,0,P|385:165|433:167,1,95.9999970703126
240,329,115971,2,0,P|249:282|272:240,1,95.9999970703126,0|8,1:2|0:0,0:0:0:0:
437,171,116318,1,0,1:2:0:0:
437,171,116491,5,2,1:2:0:0:
272,240,116664,1,0,1:2:0:0:
509,248,116838,1,8,0:0:0:0:
457,384,117011,1,0,1:2:0:0:
389,264,117185,1,8,0:0:0:0:
364,305,117271,1,0,1:2:0:0:
343,349,117358,1,0,1:2:0:0:
437,171,117531,2,0,P|429:124|405:82,1,95.9999970703126,8|0,0:0|0:0,0:0:0:0:
206,24,117878,5,2,1:2:0:0:
247,128,118051,1,0,1:2:0:0:
79,77,118225,1,8,0:0:0:0:
247,128,118399,1,0,1:2:0:0:
202,114,118485,2,0,L|140:95,1,47.9999985351563,0|0,1:2|0:0,0:0:0:0:
329,153,118745,1,0,1:2:0:0:
79,77,118919,1,8,0:0:0:0:
184,222,119092,1,0,0:0:0:0:
184,222,119266,5,2,1:2:0:0:
105,305,119439,1,0,1:2:0:0:
285,318,119612,1,8,0:0:0:0:
105,305,119786,1,0,1:2:0:0:
152,306,119872,2,0,L|211:312,1,47.9999985351563,0|0,1:2|0:0,0:0:0:0:
22,297,120132,1,0,1:2:0:0:
285,318,120306,2,0,L|387:224,1,95.9999970703126,8|0,0:0|0:0,0:0:0:0:
280,127,120653,5,2,1:2:0:0:
422,152,120826,1,0,1:2:0:0:
137,103,121000,1,0,1:2:0:0:
280,127,121173,1,2,1:2:0:0:
0,79,121347,1,0,1:2:0:0:
189,243,121520,1,2,1:2:0:0:
230,0,121693,1,8,0:0:0:0:
0,79,121867,2,0,L|62:92,1,47.9999985351563,0|0,1:2|0:0,0:0:0:0:
280,127,122040,5,2,1:2:0:0:
137,103,122214,1,0,1:2:0:0:
422,152,122387,1,8,0:0:0:0:
263,248,122560,2,0,P|354:263|430:341,1,191.999994140625,0|0,1:2|0:0,0:0:0:0:
314,375,123081,1,8,0:3:0:0:
314,375,123167,1,8,0:3:0:0:
314,375,123254,1,8,0:3:0:0:
314,375,123427,5,6,0:0:0:0:
256,192,133312,12,0,134179,0:0:0:0:
386,378,134526,6,0,P|448:335|467:273,1,143.999995605469,6|0,1:2|1:2,0:0:0:0:
391,383,135046,2,0,P|423:369|450:345,1,71.9999978027344,0|0,0:0|1:2,0:0:0:0:
463,200,135393,1,0,0:0:0:0:
467,272,135566,1,0,1:2:0:0:
451,345,135739,1,0,0:0:0:0:
327,313,135913,6,0,P|371:253|370:187,1,143.999995605469,2|0,1:2|1:2,0:0:0:0:
332,318,136433,2,0,P|358:294|377:260,1,71.9999978027344,0|0,0:0|1:2,0:0:0:0:
341,116,136780,1,0,0:0:0:0:
370,186,136953,1,0,1:2:0:0:
376,262,137126,1,0,0:0:0:0:
239,116,137300,6,0,P|266:45|322:12,1,143.999995605469,2|0,1:2|1:2,0:0:0:0:
234,111,137820,2,0,P|240:75|259:40,1,71.9999978027344,0|0,0:0|1:2,0:0:0:0:
401,6,138167,1,0,0:0:0:0:
323,12,138341,1,0,1:2:0:0:
257,43,138514,1,0,0:0:0:0:
370,186,138688,6,0,P|294:172|237:202,1,143.999995605469,2|0,1:2|1:2,0:0:0:0:
375,181,139208,2,0,P|341:167|306:165,1,71.9999978027344,0|0,0:0|1:2,0:0:0:0:
187,263,139555,1,0,0:0:0:0:
306,165,139729,1,0,1:2:0:0:
187,263,139901,1,0,0:0:0:0:
41,187,140075,6,0,P|30:224|31:264,1,80,2|0,1:2|1:2,0:0:0:0:
31,265,140422,1,0,1:2:0:0:
97,132,140595,2,0,P|64:154|41:187,1,80,0|0,1:2|1:2,0:0:0:0:
55,341,140942,1,0,1:2:0:0:
41,187,141115,1,0,1:2:0:0:
32,265,141289,1,0,1:2:0:0:
163,186,141462,6,0,P|141:218|109:242,1,80,2|0,1:2|1:2,0:0:0:0:
108,242,141809,1,0,1:2:0:0:
170,108,141982,2,0,P|173:147|163:186,1,80,0|0,1:2|1:2,0:0:0:0:
32,265,142329,1,0,1:2:0:0:
163,186,142502,1,0,1:2:0:0:
32,265,142676,1,0,1:2:0:0:
164,331,142849,5,2,1:2:0:0:
109,243,143023,1,0,1:2:0:0:
164,331,143196,1,0,1:2:0:0:
169,108,143370,1,2,1:2:0:0:
319,218,143543,1,0,1:2:0:0:
169,108,143716,1,2,1:2:0:0:
399,69,143890,1,2,1:2:0:0:
163,186,144063,1,2,1:2:0:0:
395,384,144237,5,2,1:2:0:0:
434,374,144323,1,0,1:2:0:0:
465,349,144410,1,0,1:2:0:0:
486,315,144497,1,0,1:2:0:0:
483,276,144583,1,0,1:2:0:0:
459,244,144670,1,0,1:2:0:0:
421,231,144757,1,0,1:2:0:0:
383,243,144844,1,0,1:2:0:0:
367,279,144930,5,2,1:2:0:0:
327,285,145017,1,0,1:2:0:0:
302,252,145103,1,0,1:2:0:0:
316,215,145190,1,0,1:2:0:0:
356,210,145277,5,2,1:2:0:0:
380,166,145363,1,0,1:2:0:0:
384,119,145450,1,0,1:2:0:0:
367,74,145537,1,0,1:2:0:0:
334,41,145624,5,0,1:2:0:0:
458,270,146664,6,0,P|473:260|486:248,1,35.9999989013672
510,222,147011,6,0,P|427:285|388:295,1,143.999995605469,6|0,1:2|0:0,0:0:0:0:
313,294,147358,1,8,0:0:0:0:
491,382,147531,2,0,P|444:385|396:372,1,95.9999970703126
397,372,147878,1,0,1:2:0:0:
313,294,148052,2,0,P|281:257|264:210,1,95.9999970703126,8|0,0:0|0:0,0:0:0:0:
84,108,148399,6,0,P|154:117|217:152,1,143.999995605469,2|0,1:2|0:0,0:0:0:0:
265,213,148745,1,8,0:0:0:0:
222,19,148919,2,0,P|254:53|274:98,1,95.9999970703126
273,97,149266,1,0,1:2:0:0:
357,232,149439,2,0,P|310:230|264:212,1,95.9999970703126,8|0,0:0|0:0,0:0:0:0:
30,366,149786,6,0,P|77:369|123:356,1,95.9999970703126,2|0,1:2|0:0,0:0:0:0:
223,297,150133,1,8,0:0:0:0:
60,221,150306,2,0,P|91:256|132:279,1,95.9999970703126
0,53,150653,2,0,P|-2:100|11:146,1,95.9999970703126,0|8,1:2|0:0,0:0:0:0:
137,283,151000,1,0,1:2:0:0:
137,283,151173,5,2,1:2:0:0:
11,146,151347,1,0,1:2:0:0:
247,64,151520,1,8,0:0:0:0:
129,105,151693,1,0,1:2:0:0:
295,162,151867,1,8,0:0:0:0:
248,177,151953,1,0,1:2:0:0:
204,193,152040,1,0,1:2:0:0:
368,23,152214,2,0,P|414:30|456:52,1,95.9999970703126,8|0,0:0|0:0,0:0:0:0:
502,192,152560,5,2,1:2:0:0:
379,161,152734,1,0,1:2:0:0:
478,314,152907,1,8,0:0:0:0:
379,161,153081,1,0,1:2:0:0:
404,201,153167,2,0,L|440:254,1,47.9999985351563,0|0,1:2|0:0,0:0:0:0:
325,72,153427,1,0,1:2:0:0:
478,314,153601,1,8,0:0:0:0:
306,195,153774,1,0,0:0:0:0:
306,195,153948,5,2,1:2:0:0:
431,241,154121,1,0,1:2:0:0:
291,337,154294,1,8,0:0:0:0:
431,241,154468,1,0,1:2:0:0:
392,267,154555,2,0,L|338:303,1,47.9999985351563,0|0,1:2|0:0,0:0:0:0:
506,191,154815,1,0,1:2:0:0:
291,337,154988,2,0,L|167:314,1,95.9999970703126,8|0,0:0|0:0,0:0:0:0:
142,187,155335,5,2,1:2:0:0:
0,212,155508,1,0,1:2:0:0:
283,161,155682,1,0,1:2:0:0:
142,187,155855,1,2,1:2:0:0:
425,136,156029,1,0,1:2:0:0:
319,361,156202,1,2,1:2:0:0:
425,136,156375,1,8,0:0:0:0:
319,361,156549,2,0,L|270:314,1,47.9999985351563,0|0,1:0|0:0,0:0:0:0:
142,187,156722,5,2,1:2:0:0:
296,244,156896,1,0,1:2:0:0:
254,1,157069,1,8,0:0:0:0:
283,161,157242,2,0,P|251:126|209:102,1,95.9999970703126,2|0,1:2|0:0,0:0:0:0:
86,119,157589,1,0,0:0:0:0:
77,122,157676,1,0,0:0:0:0:
70,126,157763,2,0,P|53:143|47:165,2,47.9999985351563,8|8|8,0:3|0:3|0:3,0:3:0:0:
40,370,158110,6,0,P|114:297|131:261,1,143.999995605469,6|0,1:2|0:0,0:0:0:0:
142,187,158457,1,8,0:0:0:0:
200,375,158630,2,0,P|210:328|205:279,1,95.9999970703126
205,280,158977,1,0,1:2:0:0:
142,187,159151,2,0,P|110:149|66:125,1,95.9999970703126,8|0,0:0|0:0,0:0:0:0:
254,9,159497,6,0,P|336:72|375:82,1,143.999995605469,2|0,1:2|0:0,0:0:0:0:
451,80,159844,1,8,0:0:0:0:
274,167,160017,2,0,P|320:170|368:157,1,95.9999970703126
367,157,160364,1,0,1:2:0:0:
511,7,160537,2,0,P|476:37|451:80,1,95.9999970703126,8|0,0:0|0:0,0:0:0:0:
195,116,160884,6,0,P|239:134|275:168,1,95.9999970703126,2|0,1:2|0:0,0:0:0:0:
318,273,161231,1,8,0:0:0:0:
140,253,161404,2,0,P|184:234|232:232,1,95.9999970703126
21,371,161751,2,0,P|39:326|73:290,1,95.9999970703126,0|8,1:2|0:0,0:0:0:0:
235,235,162098,1,0,1:2:0:0:
235,235,162271,5,2,1:2:0:0:
71,292,162445,1,0,1:2:0:0:
64,63,162618,1,8,0:0:0:0:
12,181,162792,1,0,1:2:0:0:
168,95,162965,1,8,0:0:0:0:
148,137,163051,1,0,1:2:0:0:
128,181,163138,1,0,1:2:0:0:
261,29,163312,2,0,P|307:22|353:33,1,95.9999970703126,8|0,0:0|0:0,0:0:0:0:
431,200,163659,5,2,1:2:0:0:
420,102,163832,1,0,1:2:0:0:
261,187,164005,1,8,0:0:0:0:
420,102,164179,1,0,1:2:0:0:
377,124,164266,2,0,L|319:154,1,47.9999985351563,0|0,1:2|0:0,0:0:0:0:
495,62,164526,1,0,1:2:0:0:
261,187,164699,1,8,0:0:0:0:
198,80,164873,1,0,0:0:0:0:
198,80,165046,5,2,1:2:0:0:
86,129,165219,1,0,1:3:0:0:
261,187,165393,1,8,0:0:0:0:
86,129,165566,1,0,1:3:0:0:
132,145,165653,2,0,L|193:165,1,47.9999985351563,0|0,1:2|0:0,0:0:0:0:
5,104,165913,1,0,1:3:0:0:
261,187,166086,2,0,L|347:142,1,95.9999970703126,8|0,0:0|0:0,0:0:0:0:
320,28,166433,5,2,1:2:0:0:
463,41,166607,1,0,1:2:0:0:
177,16,166780,1,0,1:2:0:0:
320,28,166953,1,2,1:2:0:0:
33,3,167127,1,0,1:2:0:0:
158,218,167300,1,2,1:2:0:0:
33,3,167474,1,8,0:0:0:0:
158,218,167647,2,0,L|202:164,1,47.9999985351563,0|0,1:2|0:0,0:0:0:0:
320,28,167820,5,2,1:2:0:0:
177,16,167994,1,0,1:2:0:0:
463,41,168167,1,8,0:0:0:0:
301,169,168341,2,0,P|384:144|494:190,1,191.999994140625,0|0,1:2|0:0,0:0:0:0:
195,123,168861,1,8,0:3:0:0:
195,123,168948,1,8,0:3:0:0:
195,123,169034,1,8,0:3:0:0:
195,123,169208,6,0,P|163:98|38:76,1,160,6|8,1:2|0:0,0:0:0:0:
236,191,169728,2,0,P|219:154|195:123,1,80
48,75,170075,1,0,1:2:0:0:
236,191,170248,1,8,0:0:0:0:
129,83,170422,1,0,0:0:0:0:
115,288,170595,6,0,P|182:329|261:335,1,160,2|8,1:2|0:0,0:0:0:0:
72,221,171115,2,0,P|89:257|115:288,1,80
262,336,171462,1,0,1:2:0:0:
72,221,171635,1,8,0:0:0:0:
181,327,171809,1,0,0:0:0:0:
264,124,171982,6,0,P|331:82|410:76,1,160,2|8,1:2|0:0,0:0:0:0:
222,191,172502,2,0,P|239:154|264:123,1,80
410,76,172849,1,0,1:2:0:0:
223,191,173023,1,8,0:0:0:0:
331,83,173196,1,0,0:0:0:0:
314,270,173370,6,0,P|357:336|426:375,1,160,2|8,1:2|0:0,0:0:0:0:
305,191,173890,2,0,P|304:231|314:270,1,80
427,375,174237,1,0,1:2:0:0:
306,191,174411,1,8,0:0:0:0:
427,375,174584,1,0,0:0:0:0:
510,180,174757,6,0,P|495:102|447:38,1,160,2|8,1:2|0:0,0:0:0:0:
490,257,175277,2,0,P|504:220|510:180,1,80
447,39,175624,1,0,1:2:0:0:
490,257,175797,1,8,0:0:0:0:
393,162,175971,1,0,0:0:0:0:
299,342,176144,6,0,P|223:365|145:352,1,160,2|8,1:2|0:0,0:0:0:0:
357,288,176664,2,0,P|331:318|298:342,1,80
145,352,177011,1,0,1:2:0:0:
358,289,177185,1,8,0:0:0:0:
224,241,177358,1,0,0:0:0:0:
303,94,177531,6,0,P|342:85|382:85,1,80,2|0,1:2|1:2,0:0:0:0:
381,85,177878,1,8,0:0:0:0:
169,181,178051,2,0,P|195:150|226:125,1,80,0|0,1:2|0:0,0:0:0:0:
467,100,178398,1,0,1:2:0:0:
303,94,178571,1,8,0:0:0:0:
467,100,178744,1,0,1:2:0:0:
478,116,178832,1,0,1:2:0:0:
487,134,178919,6,2,P|505:216|486:318,1,180.000006866455,2|0,1:2|0:0,0:0:0:0:
454,380,179266,2,2,P|498:302|510:214,1,180.000006866455,2|0,1:2|0:0,0:0:0:0:
487,134,179612,1,0,1:2:0:0:
487,134,179786,1,0,1:2:0:0:
292,103,179959,2,2,P|320:132|342:165,1,80,10|0,0:0|0:0,0:0:0:0:
341,384,180306,5,2,1:2:0:0:
218,348,180479,1,0,1:2:0:0:
341,384,180653,1,0,1:2:0:0:
254,225,180826,1,2,1:2:0:0:
218,348,181000,1,0,1:2:0:0:
254,225,181173,1,2,1:2:0:0:
18,156,181347,1,10,0:0:0:0:
166,89,181520,1,2,1:2:0:0:
204,75,181607,1,0,1:2:0:0:
243,71,181693,6,0,P|318:94|375:150,1,160,6|8,1:2|0:0,0:0:0:0:
166,88,182213,2,0,P|203:74|243:71,1,80
402,225,182560,1,0,1:2:0:0:
243,71,182734,1,8,0:0:0:0:
375,150,182907,1,0,0:0:0:0:
164,237,183081,6,0,P|89:214|32:158,1,160,2|8,1:2|0:0,0:0:0:0:
243,228,183601,2,0,P|204:238|164:237,1,80
5,83,183948,1,0,1:2:0:0:
164,237,184122,1,8,0:0:0:0:
32,158,184295,1,0,0:0:0:0:
219,350,184468,6,0,P|296:340|362:295,1,160,2|8,1:2|0:0,0:0:0:0:
144,326,184988,2,0,P|180:343|219:350,1,80
402,225,185335,1,0,1:2:0:0:
219,350,185509,1,8,0:0:0:0:
395,147,185682,1,0,0:0:0:0:
241,219,185855,6,0,P|165:197|107:142,1,160,2|8,1:2|0:0,0:0:0:0:
319,206,186375,2,0,P|281:217|241:219,1,80
63,80,186722,1,0,1:2:0:0:
241,219,186896,1,8,0:0:0:0:
108,142,187069,1,0,0:0:0:0:
342,29,187242,6,0,P|417:49|476:103,1,160,2|8,1:2|0:0,0:0:0:0:
264,41,187762,2,0,P|302:29|342:29,1,80
496,182,188110,1,0,1:2:0:0:
264,42,188283,1,8,0:0:0:0:
496,182,188456,1,8,0:0:0:0:
261,326,188630,5,10,0:0:0:0:
324,215,188803,1,0,1:2:0:0:
215,152,188977,1,0,1:2:0:0:
261,326,189150,1,10,0:0:0:0:
324,215,189323,1,0,1:2:0:0:
435,278,189497,1,2,1:2:0:0:
215,152,189670,1,8,0:0:0:0:
435,278,189844,1,0,1:2:0:0:
181,325,190017,6,2,P|111:295|43:189,1,180.000006866455,10|0,0:0|0:0,0:0:0:0:
33,139,190364,2,2,P|47:226|106:301,1,180.000006866455,10|0,0:0|0:0,0:0:0:0:
181,325,190711,1,0,1:2:0:0:
33,139,190884,1,8,0:0:0:0:
317,95,191057,2,2,P|260:113|215:152,1,120.000004577637,2|0,1:2|0:0,0:0:0:0:
453,129,191404,5,6,0:0:0:0:
453,129,191925,1,0,0:0:0:0:
453,129,192271,1,0,0:0:0:0:
490,200,192445,1,0,0:0:0:0:
464,276,192618,1,0,0:0:0:0:
322,200,192792,5,2,0:0:0:0:
322,200,193312,1,0,0:0:0:0:
322,200,193659,1,0,0:0:0:0:
275,265,193832,1,0,0:0:0:0:
195,273,194005,1,0,0:0:0:0:
77,183,194179,5,2,0:0:0:0:
77,183,194699,1,0,0:0:0:0:
77,183,195046,1,0,0:0:0:0:
118,250,195219,1,0,0:0:0:0:
195,273,195393,1,0,0:0:0:0:
215,123,195566,5,2,0:0:0:0:
215,123,196086,1,0,0:0:0:0:
215,123,196433,1,0,0:0:0:0:
275,265,196607,1,0,0:0:0:0:
228,201,196780,1,0,0:0:0:0:
254,55,196953,5,2,0:0:0:0:
254,55,197474,1,0,0:0:0:0:
254,55,197820,1,0,0:0:0:0:
215,123,197994,1,0,0:0:0:0:
228,201,198167,1,0,0:0:0:0:
380,150,198341,5,2,0:0:0:0:
380,150,198861,1,0,0:0:0:0:
380,150,199208,1,0,0:0:0:0:
400,227,199381,1,0,0:0:0:0:
464,276,199555,1,0,0:0:0:0:
380,150,199728,5,2,0:0:0:0:
380,150,200248,1,0,0:0:0:0:
380,150,200595,1,0,0:0:0:0:
395,72,200768,1,0,0:0:0:0:
380,150,200942,1,0,0:0:0:0:
458,22,201115,5,2,0:0:0:0:
256,192,201289,12,0,202503,0:0:0:0:
