osu file format v14

[General]
AudioFilename: audio.mp3
AudioLeadIn: 0
PreviewTime: 146664
Countdown: 0
SampleSet: Soft
StackLeniency: 0.4
Mode: 0
LetterboxInBreaks: 0
WidescreenStoryboard: 1

[Editor]
Bookmarks: 1347,12445,23543,29092,34642,45740,56838,69324,79035,90133,95682,101231,112329,123428,134526,147012,158110,169208,181694,191405,203890
DistanceSpacing: 1.04
BeatDivisor: 4
GridSize: 8
TimelineZoom: 1.9

[Metadata]
Title:Kizuato
TitleUnicode:キズアト
Artist:a*ru
ArtistUnicode:a☆ru
Creator:Halfslashed
Version:Easy
Source:東方妖々夢 ~ Perfect Cherry Blossom.
Tags:ALiCE'S EMOTiON th7 touhou youyomu ayumi nomiya redalice scar ブクレシュティの人形師 the doll maker of bucuresti overdrive Alice Margatroid アリス・マーガトロイド pcb c83 comiket83 MrSergio
BeatmapID:1211443
BeatmapSetID:569843

[Difficulty]
HPDrainRate:2
CircleSize:3
OverallDifficulty:2
ApproachRate:3
SliderMultiplier:0.8
SliderTickRate:1

[Events]
//Background and Video events
0,0,"bg.jpg",0,0
//Break Periods
2,57038,67883
2,123627,133086
2,169408,180253
//Storyboard Layer 0 (Background)
//Storyboard Layer 1 (Fail)
//Storyboard Layer 2 (Pass)
//Storyboard Layer 3 (Foreground)
//Storyboard Sound Samples

[TimingPoints]
1347,346.820809248555,4,2,1,50,1,0
12445,-100,4,2,1,60,0,0
23370,-100,4,2,0,60,0,0
23543,-100,4,2,3,40,0,0
29092,-100,4,2,1,60,0,0
31867,-100,4,2,2,70,0,0
33948,-100,4,2,1,70,0,0
34641,-100,4,2,1,80,0,1
44352,-100,4,2,2,80,0,1
44699,-100,4,2,1,80,0,1
44873,-100,4,2,2,80,0,1
45393,-100,4,2,1,80,0,0
45740,-100,4,2,1,80,0,1
55451,-100,4,2,2,80,0,1
55797,-100,4,2,1,80,0,1
55971,-100,4,2,2,80,0,1
56491,-100,4,2,1,80,0,0
56838,-100,4,2,1,70,0,1
57011,-100,4,2,1,70,0,0
69323,-100,4,2,1,70,0,1
69497,-100,4,2,1,70,0,0
78861,-100,4,2,1,60,0,0
89959,-100,4,2,0,60,0,0
90133,-100,4,2,3,40,0,0
95682,-100,4,2,1,60,0,0
98456,-100,4,2,2,70,0,0
100537,-100,4,2,1,70,0,0
101231,-100,4,2,1,80,0,1
110942,-100,4,2,2,80,0,1
111289,-100,4,2,1,80,0,1
111462,-100,4,2,2,80,0,1
111982,-100,4,2,1,80,0,0
112329,-100,4,2,1,80,0,1
122040,-100,4,2,2,80,0,1
122387,-100,4,2,1,80,0,1
122560,-100,4,2,2,80,0,1
123081,-100,4,2,1,80,0,0
123427,-100,4,2,1,50,0,0
134179,-100,4,2,3,50,0,0
134526,-100,4,2,3,55,0,0
140075,-100,4,2,3,60,0,0
142503,-100,4,2,1,65,0,0
142849,-100,4,2,1,70,0,0
143890,-100,4,2,2,75,0,0
144237,-100,4,2,2,80,0,0
144323,-100,4,2,2,50,0,0
144410,-100,4,2,2,55,0,0
144583,-100,4,2,2,60,0,0
144930,-100,4,2,2,65,0,0
145277,-100,4,2,2,70,0,0
145624,-100,4,2,2,80,0,0
147011,-100,4,2,1,80,0,1
156722,-100,4,2,2,80,0,1
157069,-100,4,2,1,80,0,1
157242,-100,4,2,2,80,0,1
157763,-100,4,2,1,80,0,0
158110,-100,4,2,1,80,0,1
167820,-100,4,2,2,80,0,1
168167,-100,4,2,1,80,0,1
168341,-100,4,2,2,80,0,1
168861,-100,4,2,1,80,0,0
169208,-100,4,2,1,70,0,1
169381,-100,4,2,1,70,0,0
181693,-100,4,2,1,70,0,1
181867,-100,4,2,1,70,0,0
191230,-100,4,2,1,50,0,0
201636,-100,4,2,1,25,0,0
201809,-100,4,2,1,30,0,0
201982,-100,4,2,1,35,0,0
202156,-100,4,2,1,40,0,0
202329,-100,4,2,1,45,0,0
202503,-100,4,2,1,50,0,0

[Colours]
Combo1 : 255,85,28
Combo2 : 255,193,6
Combo3 : 191,136,21

[HitObjects]
117,154,1347,6,0,P|52:137|18:82,2,120,6|0|0,0:0|0:0|0:0,0:0:0:0:
188,111,2734,2,0,P|235:63|299:61,2,120,2|0|0,0:0|0:0|0:0,0:0:0:0:
190,194,4121,2,0,L|252:317,2,120,2|0|0,0:0|0:0|0:0,0:0:0:0:
263,154,5508,2,0,L|325:277,1,120,2|0,0:0|0:0,0:0:0:0:
378,370,6549,1,0,0:0:0:0:
459,350,6896,6,0,P|498:307|501:247,2,120,2|0|0,0:0|0:0|0:0,0:0:0:0:
378,370,8283,2,0,P|320:356|267:382,2,120,2|0|0,0:0|0:0|0:0,0:0:0:0:
404,291,9670,2,0,L|434:163,1,120,2|0,0:0|0:0,0:0:0:0:
390,56,10711,1,0,0:0:0:0:
307,54,11057,6,0,L|231:89,1,80,2|0,0:0|0:0,0:0:0:0:
157,55,11751,2,0,L|81:90,1,80,2|0,0:0|0:0,0:0:0:0:
19,141,12445,6,0,P|-8:208|2:302,1,160,6|8,1:2|0:2,0:0:0:0:
46,363,13485,1,0,0:0:0:0:
114,315,13832,2,0,P|192:306|267:334,1,160,2|8,1:2|0:2,0:0:0:0:
335,383,14873,1,0,0:0:0:0:
390,321,15219,6,0,L|338:160,1,160,2|8,1:2|0:0,0:0:0:0:
388,100,16260,1,0,0:0:0:0:
458,145,16607,1,2,1:2:0:0:
512,301,17300,1,8,0:0:0:0:
460,366,17647,1,0,1:2:0:0:
390,321,17994,6,0,P|311:310|236:335,1,160,2|8,1:2|0:2,0:0:0:0:
168,383,19034,1,0,0:0:0:0:
101,334,19381,2,0,P|130:260|190:208,1,160,2|8,1:2|0:2,0:0:0:0:
269,183,20422,1,0,0:0:0:0:
240,105,20768,6,0,L|87:44,1,160,2|8,1:2|0:0,0:0:0:0:
23,93,21809,1,0,0:0:0:0:
27,176,22156,1,6,1:2:0:0:
179,243,22849,2,0,L|255:274,1,80,10|8,0:0|0:0,0:0:0:0:
330,305,23543,6,0,P|466:253|468:161,1,240,6|0,1:2|1:2,0:0:0:0:
435,101,24930,1,2,1:2:0:0:
323,46,25451,2,0,P|271:43|211:71,1,80
168,84,26144,2,0,P|111:183|162:287,1,240,0|0,0:0|0:0,0:0:0:0:
238,187,27705,2,0,P|294:171|353:184,1,120,2|0,1:2|0:0,0:0:0:0:
434,20,29092,6,0,L|537:-3,2,80,6|0|0,1:2|1:2|1:2,0:0:0:0:
353,41,30133,1,0,1:2:0:0:
331,121,30479,2,0,L|252:138,1,80,2|0,1:2|1:2,0:0:0:0:
195,77,31173,2,0,L|116:94,1,80,0|0,1:2|1:2,0:0:0:0:
116,177,31867,6,0,L|194:194,1,80,2|0,1:2|1:0,0:0:0:0:
275,212,32560,1,2,1:2:0:0:
355,233,32907,2,0,L|477:259,2,120,0|0|8,1:0|1:0|0:2,0:0:0:0:
350,66,34641,5,6,1:2:0:0:
272,95,34988,2,0,P|175:103|98:87,1,160,8|8,0:0|0:2,0:0:0:0:
40,51,36029,1,2,1:2:0:0:
3,125,36375,2,0,P|-6:222|10:299,1,160,8|8,0:0|0:0,0:0:0:0:
50,352,37416,5,2,1:2:0:0:
127,384,37763,2,0,L|258:356,1,120,8|0,0:0|1:2,0:0:0:0:
297,294,38630,1,0,1:2:0:0:
248,226,38977,2,0,L|130:200,1,120,0|8,1:2|0:0,0:0:0:0:
99,124,39844,1,8,0:2:0:0:
69,47,40190,5,2,1:2:0:0:
191,19,40711,2,0,P|251:22|304:50,1,120,0|8,1:2|0:0,0:0:0:0:
329,128,41578,1,2,1:2:0:0:
300,206,41925,2,0,P|233:256|145:266,1,160,8|8,0:0|0:0,0:0:0:0:
77,268,42965,6,0,L|77:172,2,80,2|0|0,1:2|1:2|1:2,0:0:0:0:
77,351,44005,1,8,0:2:0:0:
160,351,44352,2,0,L|293:351,1,120,2|2,1:2|1:2,0:0:0:0:
478,281,45740,5,6,1:2:0:0:
426,216,46086,2,0,P|356:177|277:164,1,160,8|8,0:0|0:0,0:0:0:0:
195,175,47127,1,2,1:2:0:0:
171,95,47474,2,0,P|240:56|319:43,1,160,8|8,0:0|0:0,0:0:0:0:
400,60,48514,5,2,1:2:0:0:
454,123,48861,2,0,L|437:251,1,120,8|0,0:0|1:2,0:0:0:0:
426,324,49728,1,0,1:2:0:0:
344,336,50075,2,0,L|216:353,1,120,0|8,1:2|0:0,0:0:0:0:
142,365,50942,1,8,0:0:0:0:
59,375,51289,5,2,1:2:0:0:
82,253,51809,2,0,P|68:194|72:135,1,120,0|8,1:2|0:0,0:0:0:0:
104,58,52676,1,2,1:2:0:0:
171,107,53023,2,0,P|219:170|238:247,1,160,8|8,0:0|0:0,0:0:0:0:
239,331,54063,6,0,L|156:331,2,80,2|0|0,1:2|1:2|1:2,0:0:0:0:
322,331,55104,1,8,0:2:0:0:
322,248,55451,2,0,L|322:113,1,120,2|2,1:2|1:2,0:0:0:0:
322,3,56491,1,8,0:3:0:0:
403,3,56838,5,6,1:2:0:0:
278,55,69323,6,0,P|321:94|347:162,1,120,6|0,1:2|0:0,0:0:0:0:
331,274,70364,1,8,0:0:0:0:
253,246,70711,2,0,P|194:242|127:272,1,120,2|0,1:2|0:0,0:0:0:0:
45,347,71751,1,8,0:0:0:0:
14,268,72098,2,0,P|28:210|64:163,1,120,2|0,1:2|0:0,0:0:0:0:
178,111,73138,1,8,0:0:0:0:
260,96,73485,6,0,L|380:127,1,120,2|0,1:2|0:0,0:0:0:0:
431,238,74526,1,8,0:0:0:0:
374,299,74873,2,0,L|254:330,1,120,2|0,1:2|0:0,0:0:0:0:
136,356,75913,1,8,0:0:0:0:
84,291,76260,5,10,0:0:0:0:
178,209,76780,1,10,0:0:0:0:
186,84,77300,1,8,0:0:0:0:
240,17,77647,2,2,L|321:42,1,80,10|10,0:0|0:0,0:0:0:0:
323,124,78341,2,2,L|246:148,1,80,0|2,1:2|1:2,0:0:0:0:
166,170,79034,6,0,P|87:167|18:105,1,160,6|8,1:2|0:0,0:0:0:0:
59,42,80075,1,0,0:0:0:0:
140,24,80422,2,0,P|219:27|287:88,1,160,2|8,1:2|0:0,0:0:0:0:
319,149,81462,1,0,0:0:0:0:
399,173,81809,6,0,L|430:331,1,160,2|8,1:2|0:0,0:0:0:0:
368,384,82849,1,0,0:0:0:0:
288,362,83196,1,2,1:2:0:0:
255,199,83890,1,8,0:0:0:0:
237,118,84237,1,0,1:2:0:0:
310,78,84583,6,0,P|388:83|455:148,1,160,2|8,1:2|0:2,0:0:0:0:
452,218,85624,1,0,0:0:0:0:
445,301,85971,2,0,P|385:351|306:357,1,160,2|8,1:2|0:0,0:0:0:0:
228,328,87011,1,0,0:0:0:0:
156,369,87358,6,0,L|-3:319,1,160,2|8,1:2|0:0,0:0:0:0:
1,237,88399,1,0,0:0:0:0:
56,175,88745,1,6,1:2:0:0:
16,13,89439,2,0,L|92:36,1,80,10|8,0:0|0:0,0:0:0:0:
172,61,90133,6,0,B|226:96|240:159|240:159|255:222|309:257,1,240,6|0,1:2|1:2,0:0:0:0:
377,293,91520,1,2,1:2:0:0:
501,285,92040,2,0,P|492:247|462:202,1,80
409,156,92734,2,0,P|378:141|191:201,1,240
136,306,94294,2,0,P|91:268|70:213,1,120,2|0,1:2|0:0,0:0:0:0:
176,32,95682,6,0,L|268:20,2,80,6|0|0,1:2|1:2|1:2,0:0:0:0:
94,45,96722,1,0,1:2:0:0:
93,128,97069,2,0,L|185:140,1,80,2|0,1:2|1:2,0:0:0:0:
255,149,97763,2,0,L|347:161,1,80,0|0,1:2|1:2,0:0:0:0:
335,242,98456,6,0,L|243:254,1,80,2|0,1:2|1:2,0:0:0:0:
173,266,99150,1,2,1:2:0:0:
130,337,99497,2,0,L|-4:354,2,120,0|0|8,1:2|1:2|0:0,0:0:0:0:
117,170,101231,5,6,1:2:0:0:
154,95,101578,2,0,P|179:79|316:68,1,160,8|8,0:0|0:2,0:0:0:0:
380,104,102618,1,2,1:2:0:0:
340,177,102965,2,0,P|335:205|378:336,1,160,8|8,0:0|0:0,0:0:0:0:
434,383,104005,5,2,1:2:0:0:
485,317,104352,2,0,P|487:256|473:199,1,120,8|0,0:0|1:2,0:0:0:0:
434,126,105219,1,0,1:2:0:0:
370,73,105566,2,0,L|240:55,1,120,0|8,1:2|0:0,0:0:0:0:
175,93,106433,1,8,0:0:0:0:
109,42,106780,5,2,1:2:0:0:
25,135,107300,2,0,P|14:193|39:247,1,120,0|8,1:2|0:0,0:0:0:0:
100,304,108167,1,2,1:2:0:0:
175,340,108514,2,0,P|251:362|331:368,1,160,8|8,0:0|0:0,0:0:0:0:
414,356,109555,6,0,L|415:265,2,80,2|0|0,1:2|1:2|1:2,0:0:0:0:
497,356,110595,1,8,1:2:0:0:
497,272,110942,2,0,L|497:137,1,120,2|2,1:2|1:2,0:0:0:0:
347,8,112329,5,6,1:2:0:0:
290,69,112676,2,0,P|206:90|126:66,1,160,8|8,0:0|0:0,0:0:0:0:
68,23,113716,1,2,1:2:0:0:
25,94,114063,2,0,P|7:177|38:256,1,160,8|8,0:0|0:0,0:0:0:0:
86,309,115104,5,2,1:2:0:0:
161,272,115451,2,0,P|219:263|273:287,1,120,8|0,0:0|1:2,0:0:0:0:
336,342,116318,1,0,1:2:0:0:
412,310,116664,2,0,L|436:179,1,120,0|8,1:2|0:0,0:0:0:0:
386,124,117531,1,8,0:0:0:0:
316,169,117878,5,2,1:2:0:0:
285,290,118399,2,0,P|239:328|182:344,1,120,0|8,1:2|0:0,0:0:0:0:
99,348,119266,1,2,1:2:0:0:
51,280,119612,2,0,P|47:179|87:119,1,160,8|8,0:0|0:0,0:0:0:0:
147,87,120653,6,0,L|148:-2,2,80,2|0|0,1:2|1:2|1:2,0:0:0:0:
147,170,121693,1,8,0:0:0:0:
230,170,122040,2,0,L|352:170,1,120,2|0,1:2|1:2,0:0:0:0:
475,170,123081,1,8,0:3:0:0:
475,253,123427,5,6,0:0:0:0:
118,181,134526,6,0,L|33:193,2,80,6|0|0,1:2|1:2|1:2,0:0:0:0:
200,172,135566,1,0,1:2:0:0:
252,236,135913,2,0,L|264:321,2,80,2|0|0,1:2|1:2|1:2,0:0:0:0:
281,158,136953,1,0,1:2:0:0:
360,132,137300,6,0,P|403:130|448:101,2,80,2|0|0,1:2|1:2|1:2,0:0:0:0:
300,74,138341,1,0,1:2:0:0:
218,92,138688,2,0,P|174:93|129:122,2,80,2|0|0,1:2|1:2|1:2,0:0:0:0:
277,151,139728,1,0,1:2:0:0:
252,230,140075,6,0,P|243:273|261:322,1,80,2|0,1:2|1:2,0:0:0:0:
315,362,140768,2,0,P|357:372|408:357,1,80,0|0,1:2|1:2,0:0:0:0:
448,303,141462,2,0,P|441:263|451:225,1,80,2|0,1:2|1:2,0:0:0:0:
498,156,142156,2,0,P|504:116|494:78,1,80,0|0,1:2|1:2,0:0:0:0:
434,21,142849,6,0,L|341:5,1,80,2|0,1:2|1:2,0:0:0:0:
297,67,143543,1,0,1:2:0:0:
215,52,143890,1,2,1:2:0:0:
256,192,144237,12,0,145624,1:2:0:0:
483,354,147011,5,6,1:2:0:0:
419,301,147358,2,0,P|395:261|396:144,1,160,8|8,0:0|0:0,0:0:0:0:
431,76,148399,1,2,1:2:0:0:
354,46,148745,2,0,P|307:42|203:93,1,160,8|8,0:0|0:0,0:0:0:0:
168,162,149786,5,2,1:2:0:0:
88,185,150133,2,0,L|65:310,1,120,8|0,0:0|1:2,0:0:0:0:
118,368,151000,1,0,1:2:0:0:
198,346,151347,2,0,L|219:227,1,120,0|8,1:2|0:0,0:0:0:0:
168,162,152214,1,8,0:0:0:0:
194,83,152560,5,2,1:2:0:0:
319,85,153081,2,0,P|370:114|400:166,1,120,0|8,1:2|0:0,0:0:0:0:
413,248,153948,1,2,1:2:0:0:
376,322,154294,2,0,P|316:373|237:377,1,160,8|8,0:0|0:0,0:0:0:0:
155,367,155335,6,0,L|156:282,2,80,2|0|0,1:2|1:2|1:2,0:0:0:0:
72,367,156375,1,8,0:0:0:0:
72,283,156722,2,0,L|72:158,1,120,2|2,1:2|1:2,0:0:0:0:
229,27,158110,5,6,1:2:0:0:
282,91,158456,2,0,P|352:132|440:140,1,160,8|8,0:0|0:0,0:0:0:0:
511,126,159497,1,2,1:2:0:0:
511,209,159844,2,0,P|473:282|404:336,1,160,8|8,0:0|0:0,0:0:0:0:
335,357,160884,5,2,1:2:0:0:
273,301,161231,2,0,P|236:289|140:296,1,120,8|0,0:0|1:2,0:0:0:0:
84,333,162098,1,0,1:2:0:0:
10,295,162445,2,0,L|26:174,1,120,0|8,1:2|0:0,0:0:0:0:
0,97,163312,1,8,0:0:0:0:
46,27,163659,5,2,1:2:0:0:
169,48,164179,2,0,P|224:26|283:32,1,120,0|8,1:2|0:0,0:0:0:0:
359,67,165046,1,2,1:2:0:0:
366,149,165393,2,0,P|331:220|264:262,1,160,8|8,0:0|0:0,0:0:0:0:
182,263,166433,6,0,L|182:178,2,80,2|0|0,1:2|1:2|1:2,0:0:0:0:
181,346,167474,1,8,0:0:0:0:
264,346,167820,2,0,L|402:346,1,120,2|0,1:2|1:2,0:0:0:0:
509,346,168861,1,8,0:3:0:0:
509,263,169208,5,6,1:2:0:0:
0,52,181693,6,0,P|61:37|123:50,1,120,6|0,1:2|0:0,0:0:0:0:
221,114,182734,1,8,0:0:0:0:
162,174,183081,2,0,P|149:231|160:290,1,120,2|0,1:2|0:0,0:0:0:0:
243,384,184121,1,8,0:0:0:0:
320,353,184468,2,0,P|331:294|317:236,1,120,2|0,1:2|0:0,0:0:0:0:
251,130,185508,1,8,0:0:0:0:
274,50,185855,6,0,L|406:19,1,120,2|0,1:2|0:0,0:0:0:0:
510,57,186896,1,8,0:0:0:0:
509,140,187242,2,0,L|392:167,1,120,2|0,1:2|0:0,0:0:0:0:
272,131,188283,1,8,0:0:0:0:
195,99,188630,5,10,0:0:0:0:
183,223,189150,1,10,0:0:0:0:
75,285,189670,1,8,0:0:0:0:
126,350,190017,2,2,L|212:359,1,80,10|10,0:0|0:0,0:0:0:0:
247,285,190711,2,2,L|333:294,1,80,0|2,1:2|1:2,0:0:0:0:
408,305,191404,5,6,0:0:0:0:
94,191,192792,1,2,0:0:0:0:
397,50,194179,1,2,0:0:0:0:
63,50,195566,1,2,0:0:0:0:
256,320,196953,5,2,0:0:0:0:
422,31,198341,1,2,0:0:0:0:
90,31,199728,1,2,0:0:0:0:
256,192,201115,12,0,202503,0:0:0:0:
