osu file format v14

[General]
AudioFilename: audio.mp3
AudioLeadIn: 0
PreviewTime: 146664
Countdown: 0
SampleSet: Soft
StackLeniency: 0.4
Mode: 0
LetterboxInBreaks: 0
WidescreenStoryboard: 1

[Editor]
Bookmarks: 1347,12445,23543,29092,34642,45740,56838,69324,79035,90133,95682,101231,112329,123428,134526,147012,158110,169208,181694,191405,203890
DistanceSpacing: 0.4
BeatDivisor: 8
GridSize: 32
TimelineZoom: 2.799999

[Metadata]
Title:Kizuato
TitleUnicode:キズアト
Artist:a*ru
ArtistUnicode:a☆ru
Creator:Halfslashed
Version:MrSergio's Lunatic
Source:東方妖々夢 ~ Perfect Cherry Blossom.
Tags:ALiCE'S EMOTiON th7 touhou youyomu ayumi nomiya redalice scar ブクレシュティの人形師 the doll maker of bucuresti overdrive Alice Margatroid アリス・マーガトロイド pcb c83 comiket83 MrSergio
BeatmapID:1251145
BeatmapSetID:569843

[Difficulty]
HPDrainRate:6
CircleSize:4.5
OverallDifficulty:7.5
ApproachRate:9
SliderMultiplier:1.5
SliderTickRate:1

[Events]
//Background and Video events
0,0,"bg.jpg",0,0
//Break Periods
2,123627,133926
//Storyboard Layer 0 (Background)
//Storyboard Layer 1 (Fail)
//Storyboard Layer 2 (Pass)
//Storyboard Layer 3 (Foreground)
//Storyboard Sound Samples

[TimingPoints]
1347,346.820809248555,4,2,4,50,1,0
1347,-133.333333333333,4,2,4,50,0,0
12445,-117.647058823529,4,2,4,60,0,0
22156,-200,4,2,4,60,0,0
23543,-166.666666666667,4,2,4,40,0,0
29005,-166.666666666667,4,2,4,40,0,0
29092,-133.333333333333,4,2,4,60,0,0
31867,-133.333333333333,4,2,4,70,0,0
34641,-90.9090909090909,4,2,4,80,0,1
34901,-90.9090909090909,4,2,4,20,0,1
34988,-90.9090909090909,4,2,4,80,0,1
36289,-90.9090909090909,4,2,4,20,0,1
36376,-90.9090909090909,4,2,4,80,0,1
45393,-100,4,2,4,80,0,0
45740,-90.9090909090909,4,2,4,80,0,1
46000,-90.9090909090909,4,2,4,20,0,1
46087,-90.9090909090909,4,2,4,80,0,1
47387,-90.9090909090909,4,2,4,20,0,1
47474,-90.9090909090909,4,2,4,80,0,1
48427,-90.9090909090909,4,2,4,80,0,1
48514,-90.9090909090909,4,2,4,80,0,1
56838,-90.9090909090909,4,2,4,70,0,0
66549,-71.4285714285714,4,2,4,70,0,0
66809,-71.4285714285714,4,2,4,20,0,0
66896,-71.4285714285714,4,2,4,70,0,0
67156,-71.4285714285714,4,2,4,20,0,0
67242,-100,4,2,4,20,0,0
67243,-100,4,2,4,70,0,0
67936,-100,4,2,4,60,0,0
69323,-100,4,2,4,70,0,1
69497,-100,4,2,4,70,0,0
77907,-100,4,2,4,20,0,0
77994,-100,4,2,4,70,0,0
78254,-100,4,2,4,20,0,0
78341,-100,4,2,4,70,0,0
78861,-100,4,2,4,60,0,0
79034,-117.647058823529,4,2,4,60,0,0
88745,-200,4,2,4,60,0,0
90133,-166.666666666667,4,2,4,40,0,0
95595,-166.666666666667,4,2,4,40,0,0
95682,-133.333333333333,4,2,4,60,0,0
98456,-133.333333333333,4,2,4,70,0,0
101231,-90.9090909090909,4,2,4,80,0,1
101491,-90.9090909090909,4,2,4,20,0,1
101578,-90.9090909090909,4,2,4,80,0,1
102878,-90.9090909090909,4,2,4,20,0,1
102965,-90.9090909090909,4,2,4,80,0,1
111982,-100,4,2,4,80,0,0
112329,-83.3333333333333,4,2,4,80,0,1
112589,-83.3333333333333,4,2,4,20,0,1
112676,-83.3333333333333,4,2,4,80,0,1
113977,-83.3333333333333,4,2,4,20,0,1
114064,-83.3333333333333,4,2,4,80,0,1
123427,-100,4,2,4,50,0,0
133312,-100,4,2,4,25,0,0
133485,-100,4,2,4,30,0,0
133659,-100,4,2,4,35,0,0
133832,-100,4,2,4,40,0,0
134005,-100,4,2,4,45,0,0
134179,-100,4,2,4,50,0,0
134526,-125,4,2,4,30,0,0
140075,-125,4,2,4,40,0,0
142503,-125,4,2,4,55,0,0
142849,-125,4,2,4,40,0,0
143890,-125,4,2,4,65,0,0
144237,-125,4,2,4,70,0,0
144323,-125,4,2,4,40,0,0
144410,-125,4,2,4,45,0,0
144583,-125,4,2,4,50,0,0
144930,-125,4,2,4,55,0,0
145277,-125,4,2,4,60,0,0
145624,-125,4,2,4,70,0,0
146664,-142.857142857143,4,2,4,40,0,0
146925,-142.857142857143,4,2,4,20,0,0
147011,-90.9090909090909,4,2,4,80,0,1
147271,-90.9090909090909,4,2,4,20,0,1
147358,-90.9090909090909,4,2,4,80,0,1
148659,-90.9090909090909,4,2,4,20,0,1
148746,-90.9090909090909,4,2,4,80,0,1
157763,-100,4,2,4,80,0,0
158110,-90.9090909090909,4,2,4,80,0,1
158370,-90.9090909090909,4,2,4,20,0,1
158457,-90.9090909090909,4,2,4,80,0,1
159757,-90.9090909090909,4,2,4,20,0,1
159844,-90.9090909090909,4,2,4,80,0,1
169208,-90.9090909090909,4,2,4,70,0,0
178919,-71.4285714285714,4,2,4,70,0,0
179179,-71.4285714285714,4,2,4,20,0,0
179266,-71.4285714285714,4,2,4,70,0,0
179526,-71.4285714285714,4,2,4,20,0,0
179612,-90.9090909090909,4,2,4,20,0,0
179613,-90.9090909090909,4,2,4,70,0,0
180306,-90.9090909090909,4,2,4,60,0,0
181693,-90.9090909090909,4,2,4,70,0,1
181867,-90.9090909090909,4,2,4,70,0,0
190017,-100,4,2,4,70,0,0
190277,-100,4,2,4,20,0,0
190364,-100,4,2,4,70,0,0
190624,-100,4,2,4,20,0,0
190711,-90.9090909090909,4,2,4,70,0,0
191230,-90.9090909090909,4,2,4,50,0,0
191404,-166.666666666667,4,2,4,50,0,0
201636,-166.666666666667,4,2,4,35,0,0
201809,-166.666666666667,4,2,4,40,0,0
201982,-166.666666666667,4,2,4,45,0,0
202156,-166.666666666667,4,2,4,30,0,0
202329,-166.666666666667,4,2,4,25,0,0
202503,-166.666666666667,4,2,4,20,0,0

[Colours]
Combo1 : 192,20,1
Combo2 : 255,140,26
Combo3 : 129,71,37

[HitObjects]
105,284,1347,6,0,P|145:248|168:186,1,112.500004291535,2|0,0:0|0:0,0:0:0:0:
244,261,1867,2,0,P|203:225|180:163,1,112.500004291535,2|0,0:0|0:0,0:0:0:0:
213,24,2387,1,2,0:0:0:0:
126,11,2560,1,0,0:0:0:0:
227,43,2734,6,0,L|349:30,1,112.500004291535,2|0,0:0|0:0,0:0:0:0:
427,65,3254,2,0,L|305:52,1,112.500004291535,2|0,0:0|0:0,0:0:0:0:
324,250,3774,1,2,0:0:0:0:
340,169,3948,1,0,0:0:0:0:
336,270,4121,6,0,P|279:261|211:291,1,112.500004291535,2|0,0:0|0:0,0:0:0:0:
132,294,4641,2,0,P|188:285|257:315,1,112.500004291535,2|0,0:0|0:0,0:0:0:0:
418,360,5162,1,2,0:0:0:0:
382,281,5335,1,0,0:0:0:0:
252,324,5508,6,0,P|227:280|242:208,1,112.500004291535,2|0,0:0|0:0,0:0:0:0:
249,108,6029,2,0,P|274:152|259:224,1,112.500004291535,2|0,0:0|0:0,0:0:0:0:
162,171,6549,1,2,0:0:0:0:
154,163,6722,1,0,0:0:0:0:
266,211,6896,6,0,L|394:211,1,112.500004291535,2|0,0:0|0:0,0:0:0:0:
470,196,7416,2,0,L|342:196,1,112.500004291535,2|0,0:0|0:0,0:0:0:0:
442,101,7936,1,2,0:0:0:0:
449,92,8110,1,0,0:0:0:0:
280,148,8283,6,0,P|267:112|290:36,1,112.500004291535,2|0,0:0|0:0,0:0:0:0:
239,189,8803,2,0,P|252:153|229:77,1,112.500004291535,2|0,0:0|0:0,0:0:0:0:
42,152,9323,1,2,0:0:0:0:
133,142,9497,1,0,0:0:0:0:
27,170,9670,6,0,L|32:47,1,112.500004291535,2|0,0:0|0:0,0:0:0:0:
150,127,10190,2,0,L|154:239,1,112.500004291535,2|0,0:0|0:0,0:0:0:0:
295,339,10711,1,0,0:0:0:0:
207,368,10884,1,0,0:0:0:0:
320,345,11057,5,2,0:0:0:0:
235,280,11404,1,0,0:0:0:0:
414,330,11751,1,2,0:0:0:0:
341,188,12098,1,0,0:0:0:0:
506,347,12445,6,0,P|482:265|425:247,1,127.50000243187,8|0,1:3|0:0,0:0:0:0:
449,248,12965,1,2,0:0:0:0:
334,209,13138,2,0,P|417:229|461:188,1,127.50000243187,8|2,0:0|0:0,0:0:0:0:
426,84,13659,1,0,0:0:0:0:
389,155,13832,6,0,L|378:16,1,127.50000243187,0|0,1:0|0:0,0:0:0:0:
263,123,14352,1,2,0:0:0:0:
254,140,14439,1,0,0:0:0:0:
245,157,14526,2,0,P|301:173|363:127,1,127.50000243187,8|2,0:0|0:0,0:0:0:0:
164,106,15046,1,0,0:0:0:0:
313,197,15219,6,0,P|325:252|278:308,1,127.50000243187,0|0,1:0|0:0,0:0:0:0:
248,232,15740,1,2,0:0:0:0:
359,279,15913,2,0,P|390:283|421:275,1,63.7500012159348,8|0,0:0|0:0,0:0:0:0:
248,232,16260,1,2,0:0:0:0:
283,334,16433,1,0,1:0:0:0:
283,334,16607,6,0,P|241:349|155:322,1,127.50000243187,0|0,1:0|0:0,0:0:0:0:
117,253,17127,1,0,0:0:0:0:
118,380,17300,2,0,L|117:253,1,127.50000243187,8|0,0:0|1:0,0:0:0:0:
19,166,17820,1,0,0:0:0:0:
94,227,17994,6,0,P|140:239|178:225,1,63.7500012159348,0|0,1:0|0:0,0:0:0:0:
243,166,18341,1,2,0:0:0:0:
135,164,18514,1,0,0:0:0:0:
185,252,18688,1,8,0:0:0:0:
239,136,18861,1,0,0:0:0:0:
185,252,19034,1,0,0:0:0:0:
328,168,19208,1,2,0:0:0:0:
328,168,19381,6,0,L|264:167,1,63.7500012159348,0|0,1:0|0:0,0:0:0:0:
135,164,19728,1,2,0:0:0:0:
292,298,19901,1,0,0:0:0:0:
310,298,19988,1,0,0:0:0:0:
329,298,20075,2,0,P|318:258|288:236,1,63.7500012159348,8|0,0:0|0:0,0:0:0:0:
185,252,20422,1,0,0:0:0:0:
342,159,20595,1,2,0:0:0:0:
342,159,20768,6,0,L|405:158,1,63.7500012159348,0|0,1:0|0:0,0:0:0:0:
371,237,21115,1,2,0:0:0:0:
487,141,21289,1,0,0:0:0:0:
350,78,21462,2,0,B|287:78|287:108|227:108,1,127.50000243187,8|0,0:0|0:0,0:0:0:0:
140,107,21982,1,0,1:0:0:0:
109,269,22156,6,0,P|147:279|184:265,1,75,4|0,1:0|0:0,0:0:0:0:
242,214,22676,1,0,0:0:0:0:
298,346,22849,1,8,0:0:0:0:
298,346,23196,1,8,0:0:0:0:
338,244,23370,1,0,1:0:0:0:
341,254,23456,1,0,1:0:0:0:
345,264,23543,6,0,L|411:261,1,44.999998626709,4|0,0:1|0:0,0:0:0:0:
272,200,23890,2,0,L|241:258,1,44.999998626709,0|0,0:0|0:0,0:0:0:0:
359,173,24237,2,0,L|323:117,1,44.999998626709,0|0,0:0|0:0,0:0:0:0:
197,83,24583,1,0,0:0:0:0:
272,39,24757,1,0,0:0:0:0:
189,102,24930,6,0,L|157:54,1,44.999998626709,2|0,0:0|0:0,0:0:0:0:
128,53,25190,1,0,0:0:0:0:
128,53,25277,1,0,0:0:0:0:
183,181,25451,2,0,P|215:179|236:161,1,44.999998626709,2|0,0:0|0:0,0:0:0:0:
102,134,25797,2,0,P|80:132|60:142,1,44.999998626709
141,302,26144,1,0,0:0:0:0:
172,223,26318,6,0,L|238:225,1,44.999998626709,2|0,0:0|0:0,0:0:0:0:
307,212,26664,2,0,L|275:153,1,44.999998626709,0|0,0:0|0:0,0:0:0:0:
229,106,27011,2,0,L|194:162,1,44.999998626709,0|0,0:0|0:0,0:0:0:0:
399,229,27358,1,2,0:0:0:0:
294,236,27531,1,0,0:0:0:0:
415,254,27705,6,0,L|476:253,1,44.999998626709,2|0,0:0|0:0,0:0:0:0:
490,274,27965,1,0,0:0:0:0:
490,274,28052,2,0,P|495:303|490:323,1,44.999998626709,0|2,0:0|0:0,0:0:0:0:
363,337,28399,1,0,0:0:0:0:
360,350,28745,2,0,P|356:317|330:279,1,67.4999979400635,0|0,0:0|0:0,0:0:0:0:
311,301,29092,6,0,L|239:301,1,56.2500021457673,0|0,1:0|0:0,0:0:0:0:
188,234,29439,2,0,L|240:213,1,56.2500021457673,0|0,1:0|0:0,0:0:0:0:
137,162,29786,2,0,L|86:213,1,56.2500021457673,0|0,1:0|0:0,0:0:0:0:
3,203,30133,2,0,L|24:151,1,56.2500021457673,0|0,1:0|0:0,0:0:0:0:
72,34,30479,6,0,P|85:61|116:79,1,56.2500021457673,0|0,1:0|0:0,0:0:0:0:
144,62,30740,1,0,0:0:0:0:
144,62,30826,2,0,L|206:63,1,56.2500021457673,0|0,1:0|0:0,0:0:0:0:
273,147,31173,2,0,L|211:148,1,56.2500021457673,0|0,1:0|0:0,0:0:0:0:
147,235,31520,2,0,L|209:236,1,56.2500021457673,0|0,1:0|3:0,0:0:0:0:
216,246,31780,1,0,3:0:0:0:
229,256,31867,5,0,1:0:0:0:
299,314,32040,1,0,1:0:0:0:
356,250,32214,1,0,1:0:0:0:
286,192,32387,1,0,1:0:0:0:
369,267,32560,5,0,1:0:0:0:
454,188,32734,1,0,1:0:0:0:
370,108,32907,1,0,1:0:0:0:
370,108,32994,1,0,1:0:0:0:
370,108,33081,5,0,1:0:0:0:
370,108,33427,1,0,1:0:0:0:
492,59,33601,1,0,1:0:0:0:
243,39,33904,6,0,P|247:73|224:114,1,70.3125026822091,8|0,0:3|0:0,0:0:0:0:
208,126,34208,2,0,L|190:125,6,14.0625005364418,0|0|2|0|0|0|0,0:0|0:0|0:0|0:0|0:0|0:0|0:0,0:0:0:0:
333,235,34641,6,0,B|416:213|416:259|497:232,1,165.000005035401,4|8,0:1|0:0,0:0:0:0:
449,157,35162,1,0,0:0:0:0:
380,315,35335,1,2,0:2:0:0:
333,235,35508,1,4,0:3:0:0:
239,359,35682,2,0,P|224:324|240:264,1,82.5000025177003,8|0,0:0|0:0,0:0:0:0:
327,96,36029,6,0,P|345:144|305:250,1,165.000005035401,0|8,1:0|0:0,0:0:0:0:
89,197,36549,1,0,0:0:0:0:
252,160,36722,1,2,0:0:0:0:
206,80,36896,1,4,0:3:0:0:
76,218,37069,2,0,P|60:177|76:130,1,82.5000025177003,8|0,0:0|0:0,0:0:0:0:
176,61,37416,6,0,P|121:119|41:119,1,165.000005035401,0|8,1:0|0:0,0:0:0:0:
140,146,37936,2,0,P|187:161|223:204,1,82.5000025177003,2|0,0:0|0:0,0:0:0:0:
335,70,38283,2,0,P|287:85|251:128,1,82.5000025177003,4|8,0:3|0:0,0:0:0:0:
143,2,38630,1,4,0:3:0:0:
141,230,38803,5,0,1:0:0:0:
262,197,38977,1,0,1:0:0:0:
121,326,39150,1,8,0:0:0:0:
0,293,39324,1,0,3:0:0:0:
234,286,39497,1,0,1:0:0:0:
234,286,39583,1,0,1:0:0:0:
234,286,39670,1,0,1:0:0:0:
262,197,39844,1,8,0:0:0:0:
147,205,40017,1,0,0:0:0:0:
342,270,40190,5,0,1:0:0:0:
342,270,40364,1,0,1:0:0:0:
375,119,40537,2,0,P|317:99|252:124,1,123.75000377655,8|0,0:0|1:0,0:0:0:0:
239,140,40884,1,2,0:0:0:0:
307,17,41057,1,4,0:3:0:0:
323,180,41231,1,8,0:0:0:0:
405,122,41404,1,0,0:0:0:0:
430,277,41578,5,2,0:0:0:0:
430,277,41751,1,4,0:3:0:0:
323,180,41925,2,0,P|263:183|209:240,1,123.75000377655,8|0,0:0|1:0,0:0:0:0:
188,255,42271,2,0,P|195:204|168:166,1,82.5000025177003,2|4,0:0|1:3,0:0:0:0:
19,230,42618,1,8,0:0:0:0:
469,114,42965,5,0,1:0:0:0:
371,75,43138,1,0,1:0:0:0:
263,201,43312,1,0,1:0:0:0:
361,162,43485,1,0,1:0:0:0:
454,288,43659,1,0,1:0:0:0:
356,249,43832,1,0,1:0:0:0:
249,380,44005,1,8,0:0:0:0:
263,201,44179,1,0,3:0:0:0:
262,213,44266,1,0,3:0:0:0:
261,225,44352,5,0,1:0:0:0:
276,26,44526,1,0,1:0:0:0:
332,132,44699,1,8,0:0:0:0:
205,128,44873,1,0,1:0:0:0:
261,225,45046,1,0,3:0:0:0:
266,235,45133,1,0,3:0:0:0:
271,245,45219,1,0,3:0:0:0:
276,255,45306,1,0,3:0:0:0:
281,264,45393,2,0,L|284:223,1,37.5,2|0,0:0|0:0,0:0:0:0:
182,255,45566,2,0,L|181:293,1,37.5,0|0,0:0|0:0,0:0:0:0:
385,287,45740,6,0,P|407:224|348:135,1,165.000005035401,8|8,0:3|0:0,0:0:0:0:
488,195,46260,1,0,0:0:0:0:
443,22,46433,1,2,0:2:0:0:
391,120,46607,1,4,0:3:0:0:
238,28,46780,2,0,P|195:17|150:36,1,82.5000025177003,8|0,0:0|0:0,0:0:0:0:
58,193,47127,6,0,P|99:217|204:174,1,165.000005035401,0|8,1:0|0:0,0:0:0:0:
257,56,47647,1,0,0:0:0:0:
295,247,47820,1,2,0:0:0:0:
229,173,47994,1,4,0:3:0:0:
159,353,48167,2,0,P|119:314|129:233,1,123.75000377655,8|0,0:0|0:0,0:0:0:0:
139,222,48514,6,0,L|37:234,1,82.5000025177003,0|0,1:0|0:0,0:0:0:0:
311,268,48861,1,8,0:0:0:0:
249,200,49034,2,0,L|147:188,1,82.5000025177003,2|0,0:0|0:0,0:0:0:0:
367,169,49381,2,0,L|286:179,1,82.5000025177003,4|8,0:3|0:0,0:0:0:0:
470,191,49728,1,4,0:3:0:0:
231,302,49901,5,0,1:0:0:0:
316,200,50075,1,0,1:0:0:0:
417,330,50248,1,8,0:0:0:0:
324,233,50422,1,0,3:0:0:0:
215,334,50595,1,0,1:0:0:0:
210,313,50682,1,0,1:0:0:0:
205,293,50768,1,0,1:0:0:0:
441,352,50942,2,0,L|458:250,1,82.5000025177003,8|0,0:0|0:0,0:0:0:0:
84,176,51289,5,0,1:0:0:0:
240,174,51462,1,0,1:0:0:0:
151,369,51636,2,0,L|176:234,1,123.75000377655,8|0,0:0|0:0,0:0:0:0:
164,217,51982,1,2,0:0:0:0:
247,301,52156,1,4,0:3:0:0:
235,126,52329,1,8,0:0:0:0:
151,182,52503,1,0,0:0:0:0:
331,248,52676,5,2,0:0:0:0:
331,248,52849,1,4,0:3:0:0:
151,182,53023,2,0,P|90:186|45:231,1,123.75000377655,8|0,0:0|1:0,0:0:0:0:
21,250,53370,2,0,P|23:200|-10:166,1,82.5000025177003,2|4,0:0|1:3,0:0:0:0:
163,320,53716,1,8,0:0:0:0:
375,37,54063,5,0,1:0:0:0:
387,137,54237,1,0,1:0:0:0:
230,90,54410,1,0,1:0:0:0:
217,191,54584,1,0,1:0:0:0:
413,127,54757,1,0,1:0:0:0:
427,227,54931,1,0,1:0:0:0:
192,172,55104,1,8,0:0:0:0:
177,316,55277,1,0,3:0:0:0:
179,299,55364,1,0,3:0:0:0:
181,282,55451,5,0,1:0:0:0:
279,333,55624,1,0,1:0:0:0:
376,267,55797,1,8,0:0:0:0:
441,361,55970,1,0,1:0:0:0:
497,281,56144,5,0,3:0:0:0:
493,264,56231,1,0,3:0:0:0:
489,247,56318,1,0,3:0:0:0:
485,230,56404,1,0,3:0:0:0:
481,213,56491,2,0,L|487:152,2,41.2500012588501,2|0|0,0:0|0:0|0:0,0:0:0:0:
439,358,56838,6,0,P|359:366|253:331,1,165.000005035401,8|8,1:3|0:0,0:0:0:0:
107,332,57358,2,0,P|187:340|293:305,1,165.000005035401,0|0,0:0|1:0,0:0:0:0:
311,187,57878,1,8,0:0:0:0:
286,294,58052,1,2,0:0:0:0:
223,109,58225,6,0,P|156:97|63:138,1,165.000005035401,0|8,1:0|0:0,0:0:0:0:
33,264,58745,2,0,P|19:197|58:103,1,165.000005035401,0|0,0:0|1:0,0:0:0:0:
232,291,59266,1,8,0:0:0:0:
280,180,59439,1,2,0:0:0:0:
445,332,59612,6,0,L|474:152,1,165.000005035401,0|8,1:0|0:0,0:0:0:0:
415,24,60133,2,0,L|441:186,1,165.000005035401,0|0,0:0|1:0,0:0:0:0:
268,312,60653,1,8,0:0:0:0:
296,200,60826,1,2,0:0:0:0:
181,384,61000,6,0,P|165:322|198:226,1,165.000005035401,0|8,1:0|0:0,0:0:0:0:
184,59,61520,2,0,P|200:121|167:217,1,165.000005035401,0|0,0:0|1:0,0:0:0:0:
48,151,62040,1,8,0:0:0:0:
9,256,62214,1,2,0:0:0:0:
195,228,62387,6,0,L|389:227,1,165.000005035401,0|8,1:0|0:0,0:0:0:0:
217,256,62907,2,2,L|23:257,1,165.000005035401,0|0,0:0|1:0,0:0:0:0:
255,167,63427,1,8,0:0:0:0:
307,317,63601,1,2,0:0:0:0:
461,221,63774,6,0,P|453:170|496:55,1,165.000005035401,0|8,1:0|0:0,0:0:0:0:
432,255,64294,2,0,P|433:173|397:100,1,165.000005035401,0|0,0:0|1:0,0:0:0:0:
223,153,64815,1,8,0:0:0:0:
250,36,64988,1,2,0:0:0:0:
57,87,65162,5,0,1:0:0:0:
151,78,65335,1,0,1:0:0:0:
30,64,65508,1,8,0:0:0:0:
195,172,65682,1,0,1:0:0:0:
195,172,66029,1,0,1:0:0:0:
280,18,66202,1,8,0:0:0:0:
304,132,66375,1,0,1:0:0:0:
307,148,66462,1,0,1:0:0:0:
309,164,66549,6,0,P|366:152|322:200,1,157.499995193482,4|0,1:0|0:0,0:0:0:0:
287,208,66896,2,0,P|230:196|274:244,1,157.499995193482,4|0,1:0|0:0,0:0:0:0:
332,301,67242,5,4,1:0:0:0:
319,186,67416,1,0,1:0:0:0:
308,69,67589,1,8,0:0:0:0:
54,301,67936,5,0,1:0:0:0:
146,331,68110,1,0,1:0:0:0:
240,295,68283,1,0,1:0:0:0:
342,331,68457,1,0,1:0:0:0:
434,292,68630,5,0,1:0:0:0:
347,361,68803,1,0,1:0:0:0:
238,262,68977,1,8,0:0:0:0:
125,364,69150,1,0,3:0:0:0:
125,348,69237,1,0,3:0:0:0:
125,333,69323,6,0,P|124:297|75:189,1,150,0|8,1:0|0:0,0:0:0:0:
70,62,69844,2,0,P|70:97|120:206,1,150,2|0,0:0|1:0,0:0:0:0:
293,179,70364,1,8,0:0:0:0:
231,99,70537,1,2,0:0:0:0:
278,205,70711,6,0,L|442:202,1,150,0|8,1:0|0:0,0:0:0:0:
260,233,71231,2,0,L|96:230,1,150,0|0,0:0|1:0,0:0:0:0:
239,62,71751,1,8,0:0:0:0:
284,150,71925,1,2,0:0:0:0:
211,50,72098,6,0,P|151:43|68:94,1,150,0|8,1:0|0:0,0:0:0:0:
21,188,72618,2,0,P|23:114|68:55,1,150,0|0,0:0|1:0,0:0:0:0:
224,216,73138,1,8,0:0:0:0:
286,120,73312,1,2,0:0:0:0:
238,253,73485,6,0,B|279:254|279:254|387:208,1,150,0|8,1:0|0:0,0:0:0:0:
235,285,74005,2,0,B|193:283|193:283|85:329,1,150,0|0,0:0|1:0,0:0:0:0:
37,161,74526,1,8,0:0:0:0:
138,193,74699,1,2,0:0:0:0:
12,163,74873,6,0,P|13:106|74:30,1,150,0|8,1:0|0:0,0:0:0:0:
138,193,75393,2,0,P|139:250|200:326,1,150,0|0,0:0|1:0,0:0:0:0:
354,176,75913,2,0,L|348:85,1,75,8|0,0:0|1:0,0:0:0:0:
299,318,76260,5,8,0:0:0:0:
371,198,76433,1,0,1:0:0:0:
404,290,76607,1,0,1:0:0:0:
494,141,76780,1,8,0:0:0:0:
422,261,76953,1,0,1:0:0:0:
389,169,77127,1,0,1:0:0:0:
385,319,77300,1,8,0:0:0:0:
406,144,77474,1,0,1:0:0:0:
385,319,77647,6,0,P|378:277|305:227,1,112.5,4|0,1:0|0:0,0:0:0:0:
339,192,77994,2,0,P|300:170|214:186,1,112.5,4|0,1:0|0:0,0:0:0:0:
194,169,78341,1,0,1:0:0:0:
304,85,78514,1,4,1:0:0:0:
260,295,78688,1,0,1:0:0:0:
66,215,79034,6,0,P|90:167|62:95,1,127.50000243187,8|0,1:3|0:0,0:0:0:0:
2,47,79555,1,2,0:0:0:0:
92,119,79728,2,0,L|239:119,1,127.50000243187,8|2,0:0|0:0,0:0:0:0:
267,44,80248,1,0,0:0:0:0:
315,164,80422,6,0,P|272:176|191:127,1,127.50000243187,0|0,1:0|0:0,0:0:0:0:
172,37,80942,1,2,0:0:0:0:
172,37,81029,1,0,0:0:0:0:
172,37,81115,2,0,L|178:177,1,127.50000243187,8|2,0:0|0:0,0:0:0:0:
147,258,81636,1,0,0:0:0:0:
113,354,81809,6,0,P|152:343|245:366,1,127.50000243187,0|0,1:0|0:0,0:0:0:0:
316,261,82329,1,2,0:0:0:0:
372,338,82503,2,0,P|333:349|240:326,1,127.50000243187,8|2,0:0|0:0,0:0:0:0:
240,178,83023,1,0,1:0:0:0:
240,178,83196,6,0,L|230:309,1,127.50000243187,0|0,1:0|0:0,0:0:0:0:
148,261,83716,1,0,0:0:0:0:
44,343,83890,1,8,0:0:0:0:
120,383,84063,1,0,0:0:0:0:
44,343,84237,2,0,P|50:299|39:276,1,63.7500012159348,0|0,1:0|0:0,0:0:0:0:
4,203,84583,6,0,P|38:209|80:194,1,63.7500012159348,0|2,1:0|0:0,0:0:0:0:
147,125,84930,1,2,0:0:0:0:
35,121,85104,1,0,0:0:0:0:
90,219,85277,1,8,0:0:0:0:
133,93,85451,1,2,0:0:0:0:
90,219,85624,1,0,0:0:0:0:
247,129,85797,1,2,0:0:0:0:
247,129,85971,6,0,P|304:134|320:126,1,63.7500012159348,0|0,1:0|0:0,0:0:0:0:
387,82,86318,1,2,0:0:0:0:
424,181,86491,1,0,0:0:0:0:
263,163,86664,1,8,0:0:0:0:
311,252,86838,1,2,0:0:0:0:
320,268,86925,1,0,0:0:0:0:
329,284,87011,2,0,P|346:255|342:219,1,63.7500012159348,0|2,0:0|0:0,0:0:0:0:
207,268,87358,6,0,L|113:268,1,63.7500012159348,0|0,1:0|0:0,0:0:0:0:
27,290,87705,1,2,0:0:0:0:
131,291,87878,1,0,0:0:0:0:
6,312,88052,2,0,B|7:239,1,63.7500012159348,8|0,0:0|0:0,0:0:0:0:
132,159,88399,1,0,0:0:0:0:
41,129,88572,1,0,1:0:0:0:
142,185,88745,6,0,P|181:190|222:168,1,75,4|0,1:0|0:0,0:0:0:0:
253,100,89266,1,0,0:0:0:0:
331,221,89439,1,8,0:0:0:0:
331,221,89786,1,8,0:0:0:0:
239,292,89959,1,0,1:0:0:0:
232,301,90046,1,0,1:0:0:0:
223,311,90133,6,0,L|220:257,1,44.999998626709,4|0,0:1|0:0,0:0:0:0:
139,224,90479,2,0,L|136:278,1,44.999998626709,0|0,0:0|0:0,0:0:0:0:
50,322,90826,2,0,L|47:268,1,44.999998626709,0|0,0:0|0:0,0:0:0:0:
155,196,91173,1,0,0:0:0:0:
237,250,91347,1,0,0:0:0:0:
255,145,91520,6,0,P|282:140|309:153,1,44.999998626709,2|0,0:0|0:0,0:0:0:0:
322,171,91780,1,0,0:0:0:0:
322,171,91867,1,0,0:0:0:0:
427,99,92040,2,0,L|368:96,1,44.999998626709,2|0,0:0|0:0,0:0:0:0:
343,192,92387,2,0,L|402:189,1,44.999998626709,0|0,0:0|0:0,0:0:0:0:
441,329,92734,1,0,0:0:0:0:
355,360,92907,6,0,L|358:299,1,44.999998626709,2|0,0:0|0:0,0:0:0:0:
267,263,93254,2,0,L|270:324,1,44.999998626709,0|0,0:0|0:0,0:0:0:0:
174,358,93601,2,0,L|177:297,1,44.999998626709,0|0,0:0|0:0,0:0:0:0:
115,200,93948,1,2,0:0:0:0:
160,287,94121,1,0,0:0:0:0:
264,217,94294,6,0,P|292:213|323:221,1,44.999998626709,2|0,0:0|0:0,0:0:0:0:
336,236,94555,1,0,0:0:0:0:
336,236,94641,2,0,L|336:183,1,44.999998626709,0|2,0:0|0:0,0:0:0:0:
422,93,94988,1,0,0:0:0:0:
434,104,95335,2,0,P|451:69|440:30,1,67.4999979400635,0|0,0:0|0:0,0:0:0:0:
425,22,95682,6,0,L|347:30,1,56.2500021457673,0|0,1:0|0:0,0:0:0:0:
298,110,96029,2,0,L|353:118,1,56.2500021457673,0|0,1:0|0:0,0:0:0:0:
248,201,96375,2,0,L|189:147,1,56.2500021457673,0|0,1:0|0:0,0:0:0:0:
93,152,96722,2,0,L|111:205,1,56.2500021457673,0|0,1:0|0:0,0:0:0:0:
28,23,97069,6,0,L|89:23,1,56.2500021457673,0|0,1:0|0:0,0:0:0:0:
102,59,97329,1,0,0:0:0:0:
102,59,97416,2,0,P|127:71|167:61,1,56.2500021457673,0|0,1:0|0:0,0:0:0:0:
247,140,97763,2,0,P|226:158|199:164,1,56.2500021457673,0|0,1:0|0:0,0:0:0:0:
338,194,98110,2,0,P|357:174|362:133,1,56.2500021457673,0|0,1:0|0:0,0:0:0:0:
388,125,98370,1,0,3:0:0:0:
388,125,98456,5,0,1:0:0:0:
420,219,98630,1,0,1:0:0:0:
307,218,98803,1,0,1:0:0:0:
275,124,98977,1,0,1:0:0:0:
335,236,99150,5,0,1:0:0:0:
191,243,99323,1,0,1:0:0:0:
157,124,99497,1,0,1:0:0:0:
157,124,99583,1,0,1:0:0:0:
157,124,99670,5,0,1:0:0:0:
157,124,100017,1,0,1:0:0:0:
306,109,100190,1,0,1:0:0:0:
408,318,100494,6,0,P|417:285|404:247,1,70.3125026822091,8|0,0:3|0:0,0:0:0:0:
380,235,100797,2,0,L|358:235,6,14.0625005364418,0|0|2|0|0|0|0,0:0|0:0|0:0|0:0|0:0|0:0|0:0,0:0:0:0:
486,110,101231,6,0,B|405:87|405:142|304:101,1,165.000005035401,4|8,0:1|0:0,0:0:0:0:
257,50,101751,1,0,0:0:0:0:
226,181,101925,1,2,0:2:0:0:
299,121,102098,1,4,0:3:0:0:
440,266,102271,2,0,P|453:219|425:164,1,82.5000025177003,8|0,0:0|0:0,0:0:0:0:
339,381,102618,6,0,P|301:323|321:228,1,165.000005035401,0|8,1:0|0:0,0:0:0:0:
413,183,103138,1,0,0:0:0:0:
458,305,103312,1,2,0:0:0:0:
440,203,103485,1,4,0:3:0:0:
288,248,103659,2,0,P|241:255|187:236,1,82.5000025177003,8|0,0:0|0:0,0:0:0:0:
86,191,104005,6,0,P|135:202|188:310,1,165.000005035401,0|8,1:0|0:0,0:0:0:0:
327,148,104526,2,0,P|293:183|287:234,1,82.5000025177003,2|0,0:0|0:0,0:0:0:0:
220,80,104873,1,4,0:3:0:0:
194,194,105046,1,8,0:0:0:0:
327,148,105219,1,4,0:3:0:0:
118,118,105393,5,0,1:0:0:0:
218,172,105566,1,0,1:0:0:0:
129,33,105740,1,8,0:0:0:0:
12,74,105913,1,0,3:0:0:0:
214,193,106086,1,0,1:0:0:0:
218,172,106173,1,0,1:0:0:0:
222,151,106260,1,0,1:0:0:0:
305,214,106433,1,8,0:0:0:0:
122,197,106607,1,0,0:0:0:0:
207,270,106780,5,0,1:0:0:0:
207,270,106953,1,0,1:0:0:0:
336,197,107127,2,0,P|387:188|458:236,1,123.75000377655,8|0,0:0|0:0,0:0:0:0:
467,251,107474,1,2,0:0:0:0:
429,116,107647,1,4,0:3:0:0:
376,277,107820,1,8,0:0:0:0:
308,189,107994,1,0,0:0:0:0:
256,352,108167,5,2,0:0:0:0:
256,352,108341,1,4,0:3:0:0:
141,297,108514,2,0,P|132:246|180:175,1,123.75000377655,8|0,0:0|1:0,0:0:0:0:
130,199,108861,2,0,P|90:207|52:191,1,82.5000025177003,2|4,0:0|1:3,0:0:0:0:
100,20,109208,1,8,0:0:0:0:
469,114,109555,5,0,1:0:0:0:
371,75,109728,1,0,1:0:0:0:
263,201,109902,1,0,1:0:0:0:
361,162,110075,1,0,1:0:0:0:
454,288,110249,1,0,1:0:0:0:
356,249,110422,1,0,1:0:0:0:
249,380,110595,1,8,0:0:0:0:
263,201,110769,1,0,3:0:0:0:
262,213,110856,1,0,3:0:0:0:
261,225,110942,5,0,1:0:0:0:
276,26,111116,1,0,1:0:0:0:
332,132,111289,1,8,0:0:0:0:
205,128,111463,1,0,1:0:0:0:
258,250,111636,1,0,3:0:0:0:
259,237,111722,1,0,3:0:0:0:
260,224,111809,1,0,3:0:0:0:
261,211,111896,1,0,3:0:0:0:
260,199,111982,2,0,L|240:149,1,37.5,2|0,0:0|0:0,0:0:0:0:
169,231,112156,2,0,L|162:281,1,37.5,0|0,0:0|0:0,0:0:0:0:
298,373,112329,6,0,P|356:379|436:284,1,179.999994506836,8|8,0:3|0:0,0:0:0:0:
341,282,112849,1,0,0:0:0:0:
448,265,113023,1,2,0:2:0:0:
376,153,113196,1,4,0:3:0:0:
313,297,113370,2,0,L|214:299,1,89.9999972534181,8|0,0:0|0:0,0:0:0:0:
63,345,113716,6,0,P|116:345|208:250,1,179.999994506836,0|8,1:0|0:0,0:0:0:0:
91,238,114237,1,0,0:0:0:0:
216,233,114410,1,2,0:0:0:0:
156,93,114583,1,4,0:3:0:0:
62,250,114757,2,0,P|56:201|84:160,1,89.9999972534181,8|0,0:0|0:0,0:0:0:0:
105,27,115104,6,0,P|142:62|197:72,1,89.9999972534181,0|0,1:0|0:0,0:0:0:0:
269,8,115451,1,8,0:0:0:0:
274,115,115624,2,0,P|316:101|348:70,1,89.9999972534181,2|0,0:0|0:0,0:0:0:0:
269,8,115971,1,4,0:3:0:0:
375,87,116144,1,8,0:0:0:0:
429,13,116318,1,4,0:3:0:0:
485,156,116491,5,0,1:0:0:0:
384,111,116664,1,0,1:0:0:0:
283,242,116838,1,8,0:0:0:0:
384,197,117011,1,0,3:0:0:0:
490,327,117185,1,0,1:0:0:0:
488,313,117271,1,0,1:0:0:0:
487,299,117358,1,0,1:0:0:0:
296,217,117531,2,0,L|182:218,1,89.9999972534181,8|0,0:0|0:0,0:0:0:0:
88,354,117878,5,0,1:0:0:0:
88,354,118052,1,0,1:0:0:0:
174,243,118225,2,0,P|199:195|170:123,1,134.999995880127,8|0,0:0|0:0,0:0:0:0:
147,96,118572,1,2,0:0:0:0:
108,184,118745,1,4,0:3:0:0:
280,149,118919,1,8,0:0:0:0:
326,59,119092,1,0,0:0:0:0:
367,210,119266,5,2,0:0:0:0:
367,210,119439,1,4,0:3:0:0:
248,134,119612,2,0,P|203:134|133:195,1,134.999995880127,8|0,0:0|1:0,0:0:0:0:
113,219,119959,2,0,L|117:115,1,89.9999972534181,2|4,0:0|1:3,0:0:0:0:
13,17,120306,1,8,0:0:0:0:
258,335,120653,5,0,1:0:0:0:
356,296,120826,1,0,1:0:0:0:
188,251,121000,1,0,1:0:0:0:
90,290,121173,1,0,1:0:0:0:
258,335,121347,1,0,1:0:0:0:
338,261,121520,1,0,1:0:0:0:
162,225,121693,1,8,0:0:0:0:
71,312,121867,1,0,3:0:0:0:
72,298,121953,1,0,3:0:0:0:
74,284,122040,5,0,1:0:0:0:
176,325,122214,1,0,1:0:0:0:
262,252,122387,1,8,0:0:0:0:
353,356,122560,1,0,1:0:0:0:
405,263,122734,1,0,3:0:0:0:
403,248,122820,1,0,3:0:0:0:
402,234,122907,1,0,3:0:0:0:
401,220,122994,1,0,3:0:0:0:
400,206,123081,2,0,L|393:144,2,44.999998626709,2|0|0,0:0|0:0|0:0,0:0:0:0:
489,322,123427,5,2,0:0:0:0:
222,82,134526,5,2,0:3:0:0:
198,168,134873,1,2,0:3:0:0:
169,255,135219,1,2,0:3:0:0:
169,255,135566,2,0,P|161:221|172:175,1,60,2|0,0:0|0:0,0:0:0:0:
222,82,135913,5,2,0:3:0:0:
246,168,136260,1,2,0:3:0:0:
276,252,136607,1,2,0:3:0:0:
276,252,136953,2,0,P|282:214|275:181,1,60,2|0,0:0|0:0,0:0:0:0:
222,82,137300,5,2,0:3:0:0:
286,140,137647,1,2,0:3:0:0:
352,194,137994,1,2,0:3:0:0:
352,194,138341,2,0,P|339:161|307:134,1,60,2|0,0:0|0:0,0:0:0:0:
222,82,138688,5,2,0:3:0:0:
158,140,139035,1,2,0:3:0:0:
94,199,139381,1,2,0:3:0:0:
94,199,139728,2,0,P|103:163|132:139,1,60
222,82,140075,6,0,L|283:86,1,60,2|0,0:3|0:3,0:0:0:0:
363,109,140422,2,0,L|302:113,1,60,2|0,0:3|0:3,0:0:0:0:
275,197,140768,2,0,L|280:129,1,60,2|0,0:3|3:3,0:0:0:0:
301,12,141115,2,0,L|306:80,1,60,2|0,0:3|0:3,0:0:0:0:
184,181,141462,6,0,L|123:185,1,60,2|0,0:3|0:3,0:0:0:0:
43,208,141809,2,0,L|104:212,1,60,2|0,0:3|0:3,0:0:0:0:
131,296,142155,2,0,L|126:228,1,60,2|0,0:3|3:3,0:0:0:0:
105,111,142503,2,0,L|100:179,1,60,2|0,0:3|0:3,0:0:0:0:
216,352,142849,5,2,1:3:0:0:
245,274,143023,1,0,1:0:0:0:
216,196,143196,1,0,1:0:0:0:
245,118,143370,1,0,1:0:0:0:
223,38,143543,1,0,1:0:0:0:
273,119,143716,1,0,1:0:0:0:
191,197,143890,1,0,1:0:0:0:
272,275,144063,1,0,1:0:0:0:
115,370,144237,5,0,1:0:0:0:
94,353,144323,1,0,1:0:0:0:
81,329,144410,1,0,1:0:0:0:
79,302,144497,1,0,1:0:0:0:
86,277,144583,1,0,1:0:0:0:
98,254,144670,1,0,1:0:0:0:
104,228,144757,1,0,1:0:0:0:
99,202,144844,1,0,1:0:0:0:
88,177,144930,2,0,L|51:165,3,30,0|0|0|0,1:0|1:0|1:0|1:0,0:0:0:0:
123,92,145277,2,0,L|160:80,3,30,0|0|0|0,1:0|1:0|1:0|1:0,0:0:0:0:
85,3,145624,5,2,1:3:0:0:
348,282,146664,6,0,P|356:244|331:190,1,78.7499975967408,2|0,0:0|0:0,0:0:0:0:
367,301,147011,6,0,P|375:251|308:158,1,165.000005035401,8|8,0:3|0:0,0:0:0:0:
172,207,147531,1,0,0:0:0:0:
290,141,147705,1,2,0:2:0:0:
151,125,147878,1,4,0:3:0:0:
321,231,148052,2,0,P|368:238|403:223,1,82.5000025177003,8|0,0:0|0:0,0:0:0:0:
295,251,148399,6,0,P|250:240|151:305,1,165.000005035401,0|8,1:0|0:0,0:0:0:0:
82,227,148919,1,0,0:0:0:0:
133,382,149092,1,2,0:0:0:0:
181,287,149266,1,4,0:3:0:0:
277,368,149439,2,0,L|364:361,1,82.5000025177003,8|0,0:0|0:0,0:0:0:0:
158,270,149786,6,0,P|113:275|72:316,1,82.5000025177003,0|0,1:0|0:0,0:0:0:0:
247,354,150133,1,8,0:0:0:0:
188,243,150306,2,0,P|147:222|90:234,1,82.5000025177003,2|0,0:0|0:0,0:0:0:0:
2,299,150653,1,4,0:3:0:0:
98,199,150826,1,8,0:0:0:0:
6,154,151000,1,4,0:3:0:0:
91,346,151173,5,0,1:0:0:0:
106,242,151347,1,0,1:0:0:0:
277,373,151520,1,8,0:0:0:0:
262,269,151694,1,0,3:0:0:0:
113,368,151867,1,0,1:0:0:0:
122,349,151953,1,0,1:0:0:0:
132,330,152040,1,0,1:0:0:0:
306,384,152214,2,0,L|295:302,1,82.5000025177003,8|0,0:0|0:0,0:0:0:0:
447,332,152560,5,0,1:0:0:0:
447,332,152734,1,0,1:0:0:0:
320,289,152907,2,0,P|289:238|308:163,1,123.75000377655,8|0,0:0|1:0,0:0:0:0:
290,145,153254,1,2,0:0:0:0:
375,216,153427,1,4,0:3:0:0:
209,262,153601,1,8,0:0:0:0:
137,184,153774,1,0,0:0:0:0:
80,351,153948,5,2,0:0:0:0:
80,351,154121,1,4,0:3:0:0:
231,285,154294,2,0,P|236:224|186:174,1,123.75000377655,8|0,0:0|1:0,0:0:0:0:
166,177,154641,2,0,P|209:159|228:126,1,82.5000025177003,2|4,0:0|1:3,0:0:0:0:
109,30,154988,1,8,0:0:0:0:
469,114,155335,5,0,1:0:0:0:
371,75,155508,1,0,1:0:0:0:
263,201,155682,1,0,1:0:0:0:
361,162,155855,1,0,1:0:0:0:
454,288,156029,1,0,1:0:0:0:
356,249,156202,1,0,1:0:0:0:
249,380,156375,1,8,0:0:0:0:
263,201,156549,1,0,3:0:0:0:
262,213,156636,1,0,3:0:0:0:
261,225,156722,5,0,1:0:0:0:
276,26,156896,1,0,1:0:0:0:
332,132,157069,1,8,0:0:0:0:
205,128,157243,1,0,1:0:0:0:
258,250,157416,1,0,3:0:0:0:
260,233,157503,1,0,3:0:0:0:
262,216,157589,1,0,3:0:0:0:
264,199,157676,1,0,3:0:0:0:
265,184,157763,2,0,L|310:230,1,37.5,2|0,0:0|0:0,0:0:0:0:
172,217,157936,2,0,L|127:171,1,37.5,0|0,0:0|0:0,0:0:0:0:
255,94,158110,6,0,P|319:83|413:132,1,165.000005035401,8|8,0:3|0:0,0:0:0:0:
291,210,158630,1,0,0:0:0:0:
426,296,158803,1,2,0:2:0:0:
400,152,158977,1,4,0:3:0:0:
271,230,159150,2,0,P|223:235|172:210,1,82.5000025177003,8|0,0:0|0:0,0:0:0:0:
61,294,159497,6,0,P|115:278|184:165,1,165.000005035401,0|8,1:0|0:0,0:0:0:0:
48,168,160017,1,0,0:0:0:0:
162,169,160190,1,2,0:0:0:0:
124,37,160364,1,4,0:3:0:0:
179,194,160537,2,0,P|230:202|277:190,1,82.5000025177003,8|0,0:0|0:0,0:0:0:0:
296,46,160884,6,0,L|307:140,1,82.5000025177003,0|0,1:0|0:0,0:0:0:0:
387,66,161231,1,8,0:0:0:0:
287,206,161404,2,0,L|278:125,1,82.5000025177003,2|0,0:0|0:0,0:0:0:0:
371,154,161751,1,4,0:3:0:0:
193,175,161925,1,8,0:0:0:0:
250,96,162098,1,4,0:3:0:0:
83,105,162271,5,0,1:0:0:0:
167,70,162445,1,0,1:0:0:0:
100,232,162618,1,8,0:0:0:0:
16,197,162792,1,0,3:0:0:0:
116,349,162965,1,0,1:0:0:0:
131,344,163052,1,0,1:0:0:0:
146,337,163138,1,0,1:0:0:0:
296,362,163312,1,8,0:0:0:0:
178,349,163485,1,0,0:0:0:0:
253,203,163659,5,0,1:0:0:0:
253,203,163832,1,0,1:0:0:0:
309,335,164005,2,0,P|364:351|425:311,1,123.75000377655,8|0,0:0|1:0,0:0:0:0:
435,291,164352,1,2,0:0:0:0:
504,359,164526,1,4,0:3:0:0:
349,269,164699,2,0,P|308:257|251:274,1,82.5000025177003,8|0,0:0|0:0,0:0:0:0:
131,297,165046,5,2,0:0:0:0:
131,297,165219,1,4,0:3:0:0:
148,156,165393,2,0,P|189:132|267:172,1,123.75000377655,8|0,0:0|1:0,0:0:0:0:
264,190,165740,2,0,P|283:154|340:123,1,82.5000025177003,2|4,0:0|1:3,0:0:0:0:
461,118,166086,1,8,0:0:0:0:
82,91,166433,5,0,1:0:0:0:
179,59,166607,1,0,1:0:0:0:
281,178,166779,1,0,1:0:0:0:
184,146,166953,1,0,1:0:0:0:
92,268,167127,1,0,1:0:0:0:
189,236,167301,1,0,1:0:0:0:
294,357,167474,1,8,0:0:0:0:
113,289,167647,1,0,3:0:0:0:
110,305,167734,1,0,3:0:0:0:
108,321,167820,5,0,1:0:0:0:
213,286,167994,1,0,1:0:0:0:
283,375,168167,1,8,0:0:0:0:
358,260,168341,1,0,1:0:0:0:
456,353,168514,1,0,3:0:0:0:
458,336,168601,1,0,3:0:0:0:
460,319,168688,1,0,3:0:0:0:
462,302,168774,1,0,3:0:0:0:
464,285,168861,2,0,L|470:214,2,41.2500012588501,2|0|0,0:0|0:0|0:0,0:0:0:0:
266,361,169208,6,0,P|210:359|126:279,1,165.000005035401,8|8,1:3|0:0,0:0:0:0:
120,165,169728,2,0,P|87:239|108:317,1,165.000005035401,0|0,0:0|1:0,0:0:0:0:
317,248,170248,1,8,0:0:0:0:
292,355,170422,1,2,0:0:0:0:
291,227,170595,6,0,P|349:207|453:237,1,165.000005035401,0|8,1:0|0:0,0:0:0:0:
282,260,171115,2,0,P|224:280|120:250,1,165.000005035401,0|0,0:0|1:0,0:0:0:0:
87,83,171636,1,8,0:0:0:0:
36,168,171809,1,2,0:0:0:0:
71,60,171982,6,0,L|253:53,1,165.000005035401,0|8,1:0|0:0,0:0:0:0:
368,176,172503,2,0,L|186:169,1,165.000005035401,0|0,0:0|1:0,0:0:0:0:
86,303,173023,1,8,0:0:0:0:
195,299,173196,1,2,0:0:0:0:
50,324,173370,6,0,P|63:260|13:158,1,165.000005035401,0|8,1:0|0:0,0:0:0:0:
90,350,173890,2,0,P|77:286|127:184,1,165.000005035401,0|0,0:0|1:0,0:0:0:0:
249,350,174410,1,8,0:0:0:0:
280,259,174583,1,2,0:0:0:0:
430,325,174757,6,0,P|447:274|423:154,1,165.000005035401,0|8,1:0|0:0,0:0:0:0:
400,17,175277,2,0,P|419:96|400:175,1,165.000005035401,0|0,0:0|1:0,0:0:0:0:
184,132,175797,1,8,0:0:0:0:
286,96,175970,1,2,0:0:0:0:
161,155,176144,6,0,P|136:100|161:0,1,165.000005035401,0|8,1:0|0:0,0:0:0:0:
142,181,176664,2,0,P|167:236|142:336,1,165.000005035401,0|0,0:0|1:0,0:0:0:0:
30,165,177185,1,8,0:0:0:0:
124,206,177358,1,2,0:0:0:0:
1,179,177531,5,0,1:0:0:0:
76,105,177705,1,0,1:0:0:0:
149,225,177878,1,8,0:0:0:0:
231,71,178052,1,0,1:0:0:0:
231,71,178399,1,0,1:0:0:0:
302,225,178572,1,8,0:0:0:0:
316,123,178745,1,0,1:0:0:0:
319,106,178832,1,0,1:0:0:0:
322,90,178919,6,0,P|384:106|320:122,1,157.499995193482,4|0,1:0|0:0,0:0:0:0:
252,130,179266,2,0,P|190:146|254:162,1,157.499995193482,4|0,1:0|0:0,0:0:0:0:
302,225,179612,5,4,1:0:0:0:
321,126,179786,1,0,1:0:0:0:
339,24,179959,1,8,0:0:0:0:
43,294,180306,5,0,1:0:0:0:
146,265,180479,1,0,1:0:0:0:
250,304,180653,1,0,1:0:0:0:
353,275,180826,1,0,1:0:0:0:
450,318,181000,5,0,1:0:0:0:
353,251,181173,1,0,1:0:0:0:
250,329,181347,1,8,0:0:0:0:
125,242,181520,1,0,3:0:0:0:
120,257,181607,1,0,3:0:0:0:
116,271,181693,6,0,P|84:216|91:114,1,165.000005035401,0|8,1:0|0:0,0:0:0:0:
185,186,182214,2,0,P|217:131|210:29,1,165.000005035401,0|0,0:0|1:0,0:0:0:0:
57,134,182734,1,8,0:0:0:0:
91,47,182907,1,2,0:0:0:0:
31,159,183081,6,0,L|56:325,1,165.000005035401,0|8,1:0|0:0,0:0:0:0:
209,224,183601,2,0,L|233:60,1,165.000005035401,0|0,0:0|1:0,0:0:0:0:
406,199,184121,1,8,0:0:0:0:
404,103,184294,1,2,0:0:0:0:
438,214,184468,6,0,P|438:274|344:345,1,165.000005035401,0|8,1:0|0:0,0:0:0:0:
212,310,184988,2,0,P|248:357|366:355,1,165.000005035401,0|0,0:0|1:0,0:0:0:0:
287,150,185508,1,8,0:0:0:0:
356,223,185682,1,2,0:0:0:0:
265,128,185855,6,0,P|206:125|95:186,1,165.000005035401,0|8,1:0|0:0,0:0:0:0:
52,284,186375,2,0,P|62:202|109:136,1,165.000005035401,0|0,0:0|1:0,0:0:0:0:
249,295,186896,1,8,0:0:0:0:
269,191,187069,1,2,0:0:0:0:
428,288,187242,6,0,P|413:228|447:97,1,165.000005035401,0|8,1:0|0:0,0:0:0:0:
385,322,187763,2,0,P|400:262|366:131,1,165.000005035401,0|0,0:0|1:0,0:0:0:0:
225,199,188283,1,8,0:0:0:0:
251,107,188456,1,0,1:0:0:0:
84,154,188630,5,8,0:0:0:0:
156,274,188803,1,0,1:0:0:0:
189,182,188977,1,0,1:0:0:0:
279,331,189150,1,8,0:0:0:0:
207,211,189323,1,0,1:0:0:0:
174,303,189497,1,0,1:0:0:0:
170,153,189670,1,8,0:0:0:0:
191,328,189844,1,0,1:0:0:0:
170,153,190017,6,0,P|204:127|291:142,1,112.5,4|0,1:0|0:0,0:0:0:0:
296,101,190364,2,0,P|339:112|390:183,1,112.5,4|0,1:0|0:0,0:0:0:0:
416,169,190711,1,0,1:0:0:0:
391,40,190884,1,4,1:0:0:0:
285,222,191058,1,4,1:0:0:0:
84,36,191404,5,8,1:3:0:0:
84,36,191925,2,0,L|87:138,1,89.9999972534181,2|0,0:0|0:0,0:0:0:0:
0,91,192445,1,2,0:0:0:0:
66,154,192618,1,0,0:0:0:0:
193,89,192792,5,2,0:0:0:0:
193,89,193313,2,0,L|196:191,1,89.9999972534181,2|0,0:0|0:0,0:0:0:0:
278,123,193833,1,2,0:0:0:0:
221,196,194006,1,0,0:0:0:0:
363,216,194179,5,2,0:0:0:0:
363,216,194700,2,0,L|366:114,1,89.9999972534181,2|0,0:0|0:0,0:0:0:0:
448,182,195220,1,2,0:0:0:0:
391,109,195393,1,0,0:0:0:0:
264,179,195566,5,2,0:0:0:0:
264,179,196087,2,0,L|267:281,1,89.9999972534181,2|0,0:0|0:0,0:0:0:0:
349,213,196607,1,2,0:0:0:0:
292,286,196780,1,0,0:0:0:0:
162,214,196953,5,2,0:0:0:0:
162,214,197474,2,0,L|159:316,1,89.9999972534181,2|0,0:0|0:0,0:0:0:0:
77,248,197994,1,2,0:0:0:0:
134,321,198167,1,0,0:0:0:0:
258,251,198341,5,2,0:0:0:0:
258,251,198862,2,0,L|261:149,1,89.9999972534181,2|0,0:0|0:0,0:0:0:0:
343,217,199382,1,2,0:0:0:0:
286,144,199555,1,0,0:0:0:0:
150,198,199728,5,2,0:0:0:0:
150,198,200248,2,0,L|147:96,1,89.9999972534181,2|0,0:0|0:0,0:0:0:0:
65,164,200769,1,2,0:0:0:0:
122,91,200942,1,0,0:0:0:0:
251,160,201115,5,8,0:3:0:0:
256,192,201202,12,0,202503,0:3:0:0:
