osu file format v14

[General]
AudioFilename: audio.mp3
AudioLeadIn: 0
PreviewTime: 146664
Countdown: 0
SampleSet: Soft
StackLeniency: 0.5
Mode: 0
LetterboxInBreaks: 0
WidescreenStoryboard: 1

[Editor]
Bookmarks: 1347,12445,23543,29092,34642,45740,56838,69324,79035,90133,95682,101231,112329,123428,134526,147012,158110,169208,181694,191405,203890
DistanceSpacing: 1.3
BeatDivisor: 4
GridSize: 8
TimelineZoom: 1.9

[Metadata]
Title:Kizuato
TitleUnicode:キズアト
Artist:a*ru
ArtistUnicode:a☆ru
Creator:Halfslashed
Version:Hard
Source:東方妖々夢 ~ Perfect Cherry Blossom.
Tags:ALiCE'S EMOTiON th7 touhou youyomu ayumi nomiya redalice scar ブクレシュティの人形師 the doll maker of bucuresti overdrive Alice Margatroid アリス・マーガトロイド pcb c83 comiket83 MrSergio
BeatmapID:1241841
BeatmapSetID:569843

[Difficulty]
HPDrainRate:5
CircleSize:4
OverallDifficulty:6
ApproachRate:7.5
SliderMultiplier:1.3
SliderTickRate:1

[Events]
//Background and Video events
0,0,"bg.jpg",0,0
//Break Periods
2,123627,132487
//Storyboard Layer 0 (Background)
//Storyboard Layer 1 (Fail)
//Storyboard Layer 2 (Pass)
//Storyboard Layer 3 (Foreground)
//Storyboard Sound Samples

[TimingPoints]
1347,346.820809248555,4,2,1,50,1,0
1347,-111.111111111111,4,2,1,50,0,0
12445,-100,4,2,1,60,0,0
23370,-100,4,2,0,60,0,0
23543,-125,4,2,3,40,0,0
29092,-100,4,2,1,60,0,0
31867,-100,4,2,2,70,0,0
33948,-100,4,2,1,70,0,0
34381,-100,4,2,2,50,0,0
34468,-100,4,2,2,30,0,0
34641,-83.3333333333333,4,2,1,80,0,1
44352,-83.3333333333333,4,2,2,80,0,1
44699,-83.3333333333333,4,2,1,80,0,1
44873,-83.3333333333333,4,2,2,80,0,1
45393,-83.3333333333333,4,2,1,80,0,0
45479,-83.3333333333333,4,2,1,60,0,0
45566,-83.3333333333333,4,2,1,40,0,0
45740,-83.3333333333333,4,2,1,80,0,1
55451,-83.3333333333333,4,2,2,80,0,1
55797,-83.3333333333333,4,2,1,80,0,1
55971,-83.3333333333333,4,2,2,80,0,1
56491,-83.3333333333333,4,2,1,80,0,0
56578,-83.3333333333333,4,2,1,60,0,0
56665,-83.3333333333333,4,2,1,40,0,0
56838,-100,4,2,1,70,0,1
57011,-100,4,2,1,70,0,0
66809,-100,4,2,1,20,0,0
66896,-100,4,2,1,70,0,0
67156,-100,4,2,1,20,0,0
67242,-100,4,2,1,70,0,0
67936,-100,4,2,2,60,0,0
68977,-100,4,2,1,60,0,0
69150,-100,4,2,2,60,0,0
69323,-100,4,2,1,70,0,1
69497,-100,4,2,1,70,0,0
76433,-100,4,2,2,70,0,0
76780,-100,4,2,1,70,0,0
76953,-100,4,2,2,70,0,0
77300,-100,4,2,1,70,0,0
77474,-100,4,2,2,70,0,0
77647,-100,4,2,1,70,0,0
77907,-100,4,2,1,20,0,0
77994,-100,4,2,1,70,0,0
78341,-100,4,2,1,70,0,0
78688,-100,4,2,1,70,0,0
78861,-100,4,2,1,60,0,0
89959,-100,4,2,0,60,0,0
90133,-125,4,2,3,40,0,0
95335,-333.333333333333,4,2,3,40,0,0
95682,-100,4,2,1,60,0,0
98456,-100,4,2,2,70,0,0
100537,-100,4,2,1,70,0,0
100971,-100,4,2,2,50,0,0
101058,-100,4,2,2,30,0,0
101231,-83.3333333333333,4,2,1,80,0,1
110942,-83.3333333333333,4,2,2,80,0,1
111289,-83.3333333333333,4,2,1,80,0,1
111462,-83.3333333333333,4,2,2,80,0,1
111982,-83.3333333333333,4,2,1,80,0,0
112069,-83.3333333333333,4,2,1,60,0,0
112156,-83.3333333333333,4,2,1,40,0,0
112329,-83.3333333333333,4,2,1,80,0,1
122040,-83.3333333333333,4,2,2,80,0,1
122387,-83.3333333333333,4,2,1,80,0,1
122560,-83.3333333333333,4,2,2,80,0,1
123081,-83.3333333333333,4,2,1,80,0,0
123167,-83.3333333333333,4,2,1,60,0,0
123254,-83.3333333333333,4,2,1,40,0,0
123427,-100,4,2,1,50,0,0
133312,-111.111111111111,4,2,0,25,0,0
133485,-111.111111111111,4,2,0,30,0,0
133659,-111.111111111111,4,2,0,35,0,0
133832,-111.111111111111,4,2,0,40,0,0
134005,-111.111111111111,4,2,0,45,0,0
134179,-111.111111111111,4,2,3,50,0,0
134526,-111.111111111111,4,2,3,55,0,0
140075,-100,4,2,3,60,0,0
142503,-100,4,2,1,65,0,0
142849,-100,4,2,1,70,0,0
143890,-100,4,2,2,75,0,0
144237,-100,4,2,2,80,0,0
144323,-100,4,2,2,50,0,0
144410,-100,4,2,2,55,0,0
144583,-100,4,2,2,60,0,0
144930,-100,4,2,2,65,0,0
145277,-100,4,2,2,70,0,0
145624,-100,4,2,2,80,0,0
146664,-100,4,2,0,40,0,0
147011,-83.3333333333333,4,2,1,80,0,1
156722,-83.3333333333333,4,2,2,80,0,1
157069,-83.3333333333333,4,2,1,80,0,1
157242,-83.3333333333333,4,2,2,80,0,1
157763,-83.3333333333333,4,2,1,80,0,0
157849,-83.3333333333333,4,2,1,60,0,0
157936,-83.3333333333333,4,2,1,40,0,0
158110,-83.3333333333333,4,2,1,80,0,1
167820,-83.3333333333333,4,2,2,80,0,1
168167,-83.3333333333333,4,2,1,80,0,1
168341,-83.3333333333333,4,2,2,80,0,1
168861,-83.3333333333333,4,2,1,80,0,0
168948,-83.3333333333333,4,2,1,60,0,0
169035,-83.3333333333333,4,2,1,40,0,0
169208,-100,4,2,1,70,0,1
169381,-100,4,2,1,70,0,0
180306,-100,4,2,2,60,0,0
181347,-100,4,2,1,60,0,0
181520,-100,4,2,2,60,0,0
181693,-100,4,2,1,70,0,1
181867,-100,4,2,1,70,0,0
188803,-100,4,2,2,70,0,0
189150,-100,4,2,1,70,0,0
189323,-100,4,2,2,70,0,0
189670,-100,4,2,1,70,0,0
189844,-100,4,2,2,70,0,0
190017,-100,4,2,1,70,0,0
191230,-100,4,2,1,50,0,0
201636,-100,4,2,1,25,0,0
201809,-100,4,2,1,30,0,0
201982,-100,4,2,1,35,0,0
202156,-100,4,2,1,40,0,0
202329,-100,4,2,1,45,0,0
202503,-100,4,2,1,50,0,0

[Colours]
Combo1 : 255,85,28
Combo2 : 255,193,6
Combo3 : 191,136,21

[HitObjects]
82,352,1347,6,0,P|39:313|37:254,1,116.999996429443,6|0,0:0|0:0,0:0:0:0:
64,184,1867,2,0,P|106:222|109:279,1,116.999996429443,0|0,0:0|0:0,0:0:0:0:
157,339,2387,1,0,0:0:0:0:
157,339,2560,1,0,0:0:0:0:
229,316,2734,6,0,L|373:303,1,116.999996429443,2|0,0:0|0:0,0:0:0:0:
344,229,3254,2,0,L|227:218,1,116.999996429443,0|0,0:0|0:0,0:0:0:0:
167,171,3774,1,0,0:0:0:0:
167,171,3948,1,0,0:0:0:0:
217,114,4121,6,0,P|274:116|317:76,1,116.999996429443,2|0,0:0|0:0,0:0:0:0:
349,8,4641,2,0,P|292:5|249:43,1,116.999996429443,0|0,0:0|0:0,0:0:0:0:
173,52,5162,1,0,0:0:0:0:
173,52,5335,1,0,0:0:0:0:
123,109,5508,6,0,L|6:119,1,116.999996429443,2|0,0:0|0:0,0:0:0:0:
10,195,6028,2,0,L|126:205,1,116.999996429443,0|0,0:0|0:0,0:0:0:0:
202,212,6549,1,0,0:0:0:0:
277,218,6722,1,0,0:0:0:0:
380,227,6896,6,0,P|360:280|383:332,1,116.999996429443,2|0,0:0|0:0,0:0:0:0:
438,278,7416,2,0,P|457:225|434:173,1,116.999996429443
360,154,7936,1,0,0:0:0:0:
360,154,8110,1,0,0:0:0:0:
284,143,8283,6,0,L|274:26,1,116.999996429443,2|0,0:0|0:0,0:0:0:0:
197,27,8803,2,0,L|187:143,1,116.999996429443,0|0,0:0|0:0,0:0:0:0:
133,197,9323,1,0,0:0:0:0:
133,197,9497,1,0,0:0:0:0:
177,259,9670,6,0,P|228:234|283:254,1,116.999996429443,2|0,0:0|0:0,0:0:0:0:
337,305,10190,2,0,P|285:329|232:311,1,116.999996429443,0|0,0:0|0:0,0:0:0:0:
158,333,10711,1,0,0:0:0:0:
104,280,10884,1,0,0:0:0:0:
53,188,11057,6,0,L|38:131,1,58.4999982147217,2|0,0:0|0:0,0:0:0:0:
65,59,11404,1,0,0:0:0:0:
189,146,11751,1,2,0:0:0:0:
217,0,12098,1,0,0:0:0:0:
330,96,12445,6,0,P|344:66|366:42,1,65,6|0,1:2|0:0,0:0:0:0:
449,58,12792,1,0,0:0:0:0:
449,58,12965,2,0,P|435:88|414:112,1,65,0|8,0:0|0:2,0:0:0:0:
250,153,13485,1,0,0:0:0:0:
250,153,13659,1,0,0:0:0:0:
165,156,13832,6,0,P|108:188|68:238,1,130,2|0,1:2|0:0,0:0:0:0:
141,283,14352,2,0,P|161:257|187:239,1,65,0|8,0:0|0:2,0:0:0:0:
356,224,14873,1,0,0:0:0:0:
356,224,15046,1,0,0:0:0:0:
438,242,15219,6,0,P|465:258|486:283,1,65,2|0,1:2|0:0,0:0:0:0:
505,366,15566,1,0,0:0:0:0:
422,346,15740,2,0,P|394:329|373:304,1,65,0|8,0:0|0:0,0:0:0:0:
356,224,16086,1,0,0:0:0:0:
356,224,16260,1,0,0:0:0:0:
292,279,16433,1,0,1:2:0:0:
209,196,16607,6,0,P|182:151|175:111,1,65,2|0,1:2|0:0,0:0:0:0:
172,55,16953,1,0,0:0:0:0:
248,92,17127,2,0,P|299:100|338:91,1,65,0|8,0:0|0:2,0:0:0:0:
477,58,17647,1,0,1:2:0:0:
477,58,17994,6,0,L|480:122,1,65,2|0,1:2|0:0,0:0:0:0:
462,209,18341,1,0,0:0:0:0:
462,209,18514,1,0,0:0:0:0:
425,285,18688,2,0,P|443:311|455:341,2,65,8|0|0,0:2|0:0|0:0,0:0:0:0:
358,232,19208,2,0,P|328:219|296:213,1,65,0|2,0:0|1:2,0:0:0:0:
212,221,19555,5,0,0:0:0:0:
128,212,19728,2,0,P|96:202|68:187,1,65,0|0,0:0|0:0,0:0:0:0:
24,115,20075,2,0,P|55:105|83:90,1,65,8|0,0:2|0:0,0:0:0:0:
155,45,20422,1,0,0:0:0:0:
155,45,20595,1,0,0:0:0:0:
238,33,20768,6,0,L|306:63,1,65,2|0,1:2|0:0,0:0:0:0:
379,97,21115,1,0,0:0:0:0:
379,97,21289,1,0,0:0:0:0:
448,48,21462,2,0,P|457:79|459:111,1,65,8|0,0:0|0:0,0:0:0:0:
453,196,21809,1,0,0:0:0:0:
425,275,21982,1,0,1:2:0:0:
348,364,22156,5,6,1:2:0:0:
332,195,22503,1,0,0:0:0:0:
273,256,22676,2,0,P|245:273|215:284,1,65,0|10,0:0|0:0,0:0:0:0:
47,321,23196,1,8,0:0:0:0:
91,245,23370,1,0,1:0:0:0:
91,245,23456,1,0,1:0:0:0:
91,245,23543,6,0,B|92:190|64:144|64:144|35:98|37:44,1,208,6|0,1:2|1:2,0:0:0:0:
130,43,24583,2,0,P|141:88|156:112,1,52,0|0,1:0|0:0,0:0:0:0:
189,150,24930,2,0,P|224:126|303:125,1,104,2|0,1:2|1:2,0:0:0:0:
355,141,25451,1,0,0:0:0:0:
433,192,25797,1,0,0:0:0:0:
508,137,26144,1,0,0:0:0:0:
508,137,26318,6,0,P|523:212|478:274,1,156,2|0,1:2|0:0,0:0:0:0:
401,327,27185,2,0,P|419:348|428:372,2,52,0|0|0,0:0|1:2|0:0,0:0:0:0:
345,279,27705,2,0,P|292:221|273:146,1,156,2|0,1:2|0:0,0:0:0:0:
273,147,28745,1,0,1:2:0:0:
277,151,29092,6,0,P|224:158|161:213,1,130,6|0,1:2|1:2,0:0:0:0:
129,375,29786,1,0,1:2:0:0:
129,375,30133,2,0,P|189:354|219:360,1,65,0|0,1:2|0:0,0:0:0:0:
272,365,30479,1,2,1:2:0:0:
410,268,30826,1,0,1:2:0:0:
362,199,31000,2,0,P|301:178|272:184,1,65,0|0,0:0|1:2,0:0:0:0:
217,187,31347,2,0,P|185:182|156:166,1,65,0|0,0:0|1:2,0:0:0:0:
150,81,31693,6,0,P|182:86|211:102,2,65,0|2|0,0:0|1:2|1:0,0:0:0:0:
80,130,32214,1,0,1:0:0:0:
86,214,32387,1,0,1:0:0:0:
163,248,32560,1,2,1:2:0:0:
95,298,32734,1,0,1:0:0:0:
180,340,32907,1,0,1:0:0:0:
180,340,32994,1,0,1:0:0:0:
180,340,33081,6,0,P|212:330|237:311,1,65,0|2,1:0|0:0,0:0:0:0:
285,241,33427,1,0,1:0:0:0:
322,317,33601,2,0,P|361:276|345:180,1,130,0|8,1:0|0:2,0:0:0:0:
311,44,34294,2,0,L|331:13,2,32.5,8|8|8,2:3|2:3|2:3,0:0:0:0:
270,137,34641,6,0,P|201:101|124:100,1,155.999995239258,6|8,1:2|0:0,0:0:0:0:
27,134,35162,2,0,P|45:168|75:192,1,77.999997619629,0|0,0:0|0:0,0:0:0:0:
171,225,35508,1,0,1:2:0:0:
171,225,35682,2,0,P|205:243|229:273,1,77.999997619629,8|0,0:2|0:2,0:0:0:0:
326,241,36029,6,0,P|302:167|315:91,1,155.999995239258,2|8,1:2|0:0,0:0:0:0:
365,1,36550,2,0,P|395:25|414:58,1,77.999997619629,0|0,0:0|0:0,0:0:0:0:
430,159,36896,1,0,1:2:0:0:
430,159,37070,2,0,P|429:197|413:233,1,77.999997619629,8|0,0:0|0:0,0:0:0:0:
349,311,37416,6,0,P|273:295|198:316,1,155.999995239258,2|8,1:2|0:0,0:0:0:0:
114,372,37936,2,0,P|98:336|98:297,1,77.999997619629,0|0,0:0|0:0,0:0:0:0:
167,223,38283,2,0,P|182:187|182:148,1,77.999997619629,0|8,1:2|0:0,0:0:0:0:
92,101,38630,2,0,P|76:65|76:26,1,77.999997619629,0|2,1:2|1:2,0:0:0:0:
176,47,38977,5,0,1:2:0:0:
266,92,39150,1,8,0:0:0:0:
336,19,39323,1,0,1:2:0:0:
425,68,39497,2,0,L|485:47,2,38.9999988098145,8|0|0,0:0|1:2|1:2,0:0:0:0:
355,141,39844,2,0,P|335:175|330:213,1,77.999997619629,8|0,0:2|0:0,0:0:0:0:
360,316,40190,5,2,1:2:0:0:
360,316,40364,1,0,1:0:0:0:
262,290,40537,2,0,L|172:266,1,77.999997619629,8|0,0:0|1:2,0:0:0:0:
137,256,40797,2,0,L|102:125,1,116.999996429443,0|0,1:2|1:0,0:0:0:0:
92,42,41231,2,0,L|167:62,1,77.999997619629,8|0,0:0|0:0,0:0:0:0:
269,92,41578,5,2,1:2:0:0:
269,92,41751,1,0,1:0:0:0:
347,27,41925,2,0,L|437:51,1,77.999997619629,8|0,0:0|1:2,0:0:0:0:
472,61,42185,2,0,L|507:192,1,116.999996429443,0|0,1:2|1:0,0:0:0:0:
429,244,42618,2,0,L|354:224,1,77.999997619629,8|0,0:0|0:0,0:0:0:0:
255,201,42965,6,0,L|180:221,1,77.999997619629,2|0,1:2|1:2,0:0:0:0:
190,119,43312,2,0,L|115:139,1,77.999997619629,0|2,1:2|1:2,0:0:0:0:
121,37,43659,2,0,L|46:57,1,77.999997619629,0|2,1:2|1:2,0:0:0:0:
10,151,44005,1,8,0:2:0:0:
10,151,44179,1,0,1:0:0:0:
75,228,44352,5,2,1:2:0:0:
179,221,44526,1,0,1:2:0:0:
89,329,44699,1,8,0:0:0:0:
191,322,44873,2,0,L|268:316,1,77.999997619629,2|0,1:2|0:0,0:0:0:0:
377,313,45219,1,0,0:0:0:0:
377,313,45306,1,0,0:0:0:0:
377,313,45393,2,0,P|376:331|369:358,2,38.9999988098145,8|8|8,0:3|0:3|0:3,0:0:0:0:
453,247,45740,6,0,P|464:170|440:96,1,155.999995239258,6|8,1:2|0:0,0:0:0:0:
376,15,46261,2,0,P|349:43|336:79,1,77.999997619629,0|0,0:0|0:0,0:0:0:0:
336,183,46607,1,0,1:2:0:0:
336,183,46781,2,0,P|330:221|309:253,1,77.999997619629,8|0,0:0|0:0,0:0:0:0:
221,306,47127,6,0,P|143:307|74:272,1,155.999995239258,2|8,1:2|0:0,0:0:0:0:
1,201,47648,2,0,P|32:179|69:170,1,77.999997619629,0|0,0:0|0:0,0:0:0:0:
171,183,47994,1,0,1:2:0:0:
171,183,48168,2,0,P|207:195|236:220,1,77.999997619629,8|0,0:0|0:0,0:0:0:0:
257,316,48514,6,0,P|315:366|390:383,1,155.999995239258,2|8,1:2|0:0,0:0:0:0:
488,351,49034,2,0,P|504:315|504:276,1,77.999997619629,0|0,0:0|0:0,0:0:0:0:
411,235,49381,2,0,P|395:199|395:160,1,77.999997619629,0|8,1:2|0:0,0:0:0:0:
470,92,49728,2,0,P|485:56|486:17,1,77.999997619629,0|2,1:2|1:2,0:0:0:0:
387,35,50075,5,0,1:2:0:0:
310,101,50248,1,8,0:0:0:0:
229,38,50422,1,0,1:2:0:0:
164,116,50595,2,0,L|206:153,2,38.9999988098145,8|0|0,0:0|1:0|1:0,0:0:0:0:
84,52,50942,2,0,P|65:86|61:124,1,77.999997619629,8|0,0:0|0:0,0:0:0:0:
86,222,51289,5,2,1:2:0:0:
86,222,51462,1,0,1:0:0:0:
20,299,51636,2,0,L|110:322,1,77.999997619629,8|0,0:0|1:2,0:0:0:0:
131,354,51896,2,0,L|262:389,1,116.999996429443,0|0,1:2|1:2,0:0:0:0:
341,358,52329,2,0,L|431:334,1,77.999997619629,8|0,0:0|0:0,0:0:0:0:
512,297,52676,5,2,1:2:0:0:
512,297,52849,1,0,1:0:0:0:
426,239,53023,2,0,L|336:215,1,77.999997619629,8|0,0:0|1:2,0:0:0:0:
319,178,53283,2,0,L|188:143,1,116.999996429443,0|0,1:2|1:2,0:0:0:0:
128,82,53716,2,0,L|38:105,1,77.999997619629,8|0,0:0|0:0,0:0:0:0:
54,203,54063,6,0,L|144:226,1,77.999997619629,2|0,1:2|1:2,0:0:0:0:
107,321,54410,2,0,L|197:344,1,77.999997619629,0|2,1:2|1:2,0:0:0:0:
216,244,54757,2,0,L|306:267,1,77.999997619629,0|2,1:2|1:2,0:0:0:0:
276,367,55104,1,8,0:2:0:0:
276,367,55277,1,0,1:2:0:0:
374,327,55451,5,2,1:2:0:0:
471,345,55624,1,0,1:2:0:0:
393,225,55797,1,8,0:0:0:0:
491,246,55971,2,0,P|478:171|417:126,1,155.999995239258,2|0,1:2|0:0,0:0:0:0:
325,82,56491,2,0,L|316:26,2,38.9999988098145,8|8|8,0:3|0:3|0:3,0:0:0:0:
307,165,56838,6,0,P|258:217|184:213,1,130,6|8,1:2|0:0,0:0:0:0:
121,194,57358,2,0,P|126:257|173:300,1,130,0|0,0:0|1:2,0:0:0:0:
255,320,57878,1,8,0:0:0:0:
337,300,58052,1,0,0:0:0:0:
401,245,58225,6,0,L|426:116,1,130,2|8,1:2|0:0,0:0:0:0:
346,89,58745,2,0,L|321:218,1,130,0|0,0:0|1:2,0:0:0:0:
239,237,59266,1,8,0:0:0:0:
165,195,59439,1,0,0:0:0:0:
88,229,59612,6,0,P|86:165|128:117,1,130,2|8,1:2|0:0,0:0:0:0:
208,90,60133,2,0,P|164:42|101:37,1,130,0|0,0:0|1:2,0:0:0:0:
32,85,60653,1,8,0:0:0:0:
0,163,60826,1,0,0:0:0:0:
4,248,61000,6,0,L|28:375,1,130,2|8,1:2|0:0,0:0:0:0:
112,356,61520,2,0,L|87:228,1,130,0|0,0:0|1:2,0:0:0:0:
138,160,62040,1,8,0:0:0:0:
138,160,62214,1,0,0:0:0:0:
178,234,62387,6,0,P|239:217|296:247,1,130,2|8,1:2|0:0,0:0:0:0:
344,316,62907,2,0,P|378:263|367:201,1,130,0|0,0:0|1:2,0:0:0:0:
317,133,63427,1,8,0:0:0:0:
237,104,63601,1,0,0:0:0:0:
301,50,63774,6,0,L|445:36,1,130,2|8,1:2|0:0,0:0:0:0:
447,121,64294,2,0,L|317:133,1,130,0|0,0:0|1:2,0:0:0:0:
250,187,64815,1,8,0:0:0:0:
171,157,64988,1,0,0:0:0:0:
98,201,65162,6,0,P|66:202|37:215,1,65,2|0,1:2|1:0,0:0:0:0:
7,293,65508,1,8,0:0:0:0:
90,311,65682,1,0,1:2:0:0:
249,334,66029,1,0,1:2:0:0:
203,261,66202,1,8,0:0:0:0:
294,267,66375,1,0,1:2:0:0:
294,267,66462,1,0,1:2:0:0:
294,267,66549,6,2,P|341:284|398:271,1,97.5,2|0,1:2|0:0,0:0:0:0:
425,258,66896,2,2,P|455:219|461:156,1,97.5,2|0,1:2|0:0,0:0:0:0:
457,131,67242,1,0,1:2:0:0:
457,131,67416,1,0,1:2:0:0:
397,71,67589,1,10,0:0:0:0:
230,46,67936,6,0,L|159:62,2,65,2|0|0,1:2|1:2|1:2,0:0:0:0:
275,117,68456,2,0,L|346:133,2,65,2|0|2,1:2|1:2|1:2,0:0:0:0:
231,190,68977,1,10,0:0:0:0:
282,270,69150,1,2,1:2:0:0:
282,270,69237,1,0,1:2:0:0:
282,270,69323,6,0,P|233:322|159:318,1,130,6|8,1:2|0:0,0:0:0:0:
95,302,69844,2,0,P|40:255|40:181,1,130,0|0,0:0|1:2,0:0:0:0:
45,116,70364,1,8,0:0:0:0:
94,47,70537,1,0,0:0:0:0:
176,28,70711,6,0,L|322:40,1,130,2|8,1:2|0:0,0:0:0:0:
306,123,71231,2,0,L|160:135,1,130,0|0,0:0|1:2,0:0:0:0:
121,197,71751,1,8,0:0:0:0:
185,253,71925,1,0,0:0:0:0:
135,321,72098,6,0,P|196:335|252:305,1,130,2|8,1:2|0:0,0:0:0:0:
307,241,72618,2,0,P|329:181|305:122,1,130,0|0,0:0|1:2,0:0:0:0:
239,70,73138,1,8,0:0:0:0:
239,70,73312,1,0,0:0:0:0:
303,15,73485,6,0,L|449:27,1,130,2|8,1:2|0:0,0:0:0:0:
435,112,74005,2,0,L|289:124,1,130,0|0,0:0|1:2,0:0:0:0:
242,180,74526,1,8,0:0:0:0:
171,133,74699,1,0,0:0:0:0:
163,217,74873,6,0,P|194:272|180:334,1,130,2|8,1:2|0:0,0:0:0:0:
111,284,75393,2,0,P|79:228|93:166,1,130,0|0,0:0|1:2,0:0:0:0:
171,133,75913,1,8,0:0:0:0:
171,133,76086,1,8,0:0:0:0:
129,59,76260,6,0,L|64:64,2,65,10|0|0,0:0|1:2|1:2,0:0:0:0:
213,60,76780,2,0,L|277:65,2,65,10|0|2,0:0|1:2|1:2,0:0:0:0:
171,133,77300,1,8,0:0:0:0:
171,133,77474,1,0,1:2:0:0:
188,215,77647,6,2,P|211:258|266:289,1,97.5,10|0,0:0|0:0,0:0:0:0:
291,294,77994,2,2,P|314:337|369:368,1,97.5,10|0,0:0|0:0,0:0:0:0:
394,376,78341,1,0,1:2:0:0:
475,353,78514,1,8,0:0:0:0:
404,257,78688,1,2,1:2:0:0:
508,122,79034,6,0,P|475:120|445:108,1,65,6|0,1:2|0:0,0:0:0:0:
370,68,79381,1,0,0:0:0:0:
299,20,79555,2,0,P|263:7|229:8,1,65,0|8,0:0|0:0,0:0:0:0:
87,87,80075,1,0,0:0:0:0:
87,87,80248,1,0,0:0:0:0:
37,156,80422,6,0,P|69:162|96:179,1,65,2|0,1:2|0:0,0:0:0:0:
151,243,80768,1,0,0:0:0:0:
198,313,80942,2,0,P|225:329|257:336,1,65,0|8,0:0|0:0,0:0:0:0:
277,168,81462,1,0,0:0:0:0:
277,168,81636,1,0,0:0:0:0:
323,98,81809,6,0,P|353:89|385:92,1,65,2|0,1:2|0:0,0:0:0:0:
458,137,82156,1,0,0:0:0:0:
498,211,82329,2,0,P|504:241|499:273,1,65,0|8,0:0|0:0,0:0:0:0:
466,355,82676,1,0,0:0:0:0:
466,355,82849,1,0,0:0:0:0:
389,318,83023,1,0,1:2:0:0:
284,369,83196,6,0,P|252:368|222:357,1,65,2|0,1:2|0:0,0:0:0:0:
150,310,83543,1,0,0:0:0:0:
111,234,83716,2,0,P|143:233|173:222,1,65,0|8,0:0|0:0,0:0:0:0:
305,115,84237,1,0,1:2:0:0:
305,115,84583,6,0,L|240:106,1,65,2|0,1:2|0:0,0:0:0:0:
156,95,84930,1,0,0:0:0:0:
156,95,85104,1,0,0:0:0:0:
72,79,85277,2,0,P|86:49|107:25,2,65,8|0|0,0:2|0:0|0:0,0:0:0:0:
69,163,85797,2,0,P|77:194|95:221,1,65,0|2,0:0|1:2,0:0:0:0:
170,260,86144,5,0,0:0:0:0:
247,295,86318,2,0,P|278:303|310:300,1,65
387,265,86664,2,0,P|388:233|378:202,1,65,8|0,0:0|0:0,0:0:0:0:
312,159,87011,1,0,0:0:0:0:
312,159,87185,1,0,0:0:0:0:
229,173,87358,6,0,L|241:100,1,65,2|0,1:2|0:0,0:0:0:0:
251,24,87705,1,0,0:0:0:0:
251,24,87878,1,0,0:0:0:0:
173,56,88052,2,0,P|141:64|109:61,1,65,8|0,0:0|0:0,0:0:0:0:
30,30,88399,1,0,0:0:0:0:
42,113,88572,1,0,1:0:0:0:
0,221,88745,5,6,1:2:0:0:
83,368,89092,1,0,0:0:0:0:
145,307,89266,2,0,P|161:278|166:246,1,65,0|10,0:0|0:0,0:0:0:0:
158,78,89786,1,8,0:0:0:0:
248,103,89959,1,0,1:0:0:0:
248,103,90046,1,0,1:0:0:0:
248,103,90133,6,0,B|304:111|347:74|347:74|391:36|447:45,1,208,6|0,1:2|1:2,0:0:0:0:
418,135,91173,2,0,P|413:168|423:203,1,52,0|0,1:0|0:0,0:0:0:0:
441,254,91520,2,0,P|424:284|348:325,1,104,2|0,1:2|1:2,0:0:0:0:
293,323,92040,1,0,0:0:0:0:
200,308,92387,1,0,0:0:0:0:
259,235,92734,1,0,0:0:0:0:
259,235,92907,6,0,P|205:214|121:258,1,156,2|0,1:2|0:0,0:0:0:0:
84,341,93774,2,0,P|70:363|50:380,2,52,0|0|0,0:0|1:2|0:0,0:0:0:0:
155,322,94294,2,0,B|192:299|234:309|234:309|276:319|313:296,1,156,2|0,1:2|0:0,0:0:0:0:
309,304,95335,1,0,1:2:0:0:
309,304,95682,6,0,P|346:251|356:188,1,130,6|0,1:2|1:2,0:0:0:0:
257,59,96375,1,0,1:2:0:0:
257,59,96722,2,0,P|207:73|188:73,1,65,0|0,1:2|0:0,0:0:0:0:
109,60,97069,1,2,1:2:0:0:
170,218,97416,1,0,1:2:0:0:
93,252,97589,2,0,P|72:277|59:306,1,65,0|0,0:0|1:2,0:0:0:0:
142,321,97936,2,0,P|145:353|156:383,1,65,0|0,0:0|1:2,0:0:0:0:
225,334,98283,6,0,P|250:354|279:367,2,65,0|2|0,0:0|1:2|1:2,0:0:0:0:
195,255,98803,1,0,1:2:0:0:
196,170,98977,1,0,1:2:0:0:
233,94,99150,1,2,1:2:0:0:
309,57,99323,1,0,1:2:0:0:
247,17,99497,1,0,1:2:0:0:
247,17,99584,1,0,1:2:0:0:
247,17,99670,6,0,P|214:17|183:26,1,65,0|2,1:2|0:0,0:0:0:0:
109,67,100017,1,0,1:2:0:0:
44,121,100190,2,0,P|15:178|19:249,1,130,0|8,1:2|0:0,0:0:0:0:
120,377,100884,2,0,L|67:370,2,32.5,8|8|8,0:3|0:3|0:3,0:0:0:0:
222,372,101231,6,0,B|261:354|277:314|277:314|293:274|325:260,1,155.999995239258,6|8,1:2|0:0,0:0:0:0:
420,223,101751,2,0,P|400:189|368:168,1,77.999997619629,0|0,0:0|0:0,0:0:0:0:
275,139,102098,1,0,1:2:0:0:
275,139,102271,2,0,P|242:117|223:84,1,77.999997619629,8|0,0:2|0:0,0:0:0:0:
167,0,102618,6,0,B|132:26|125:68|125:68|118:111|90:131,1,155.999995239258,2|8,1:2|0:0,0:0:0:0:
0,176,103138,2,0,P|22:208|56:226,1,77.999997619629,0|0,0:0|0:0,0:0:0:0:
156,245,103485,1,0,1:2:0:0:
156,245,103659,2,0,P|194:245|229:229,1,77.999997619629,8|0,0:0|0:0,0:0:0:0:
275,139,104005,6,0,B|311:115|353:123|353:123|395:131|425:112,1,155.999995239258,2|8,1:2|0:0,0:0:0:0:
488,32,104526,2,0,P|513:60|525:97,1,77.999997619629,0|0,0:0|0:0,0:0:0:0:
512,197,104873,2,0,P|491:229|458:250,1,77.999997619629,0|8,1:2|0:0,0:0:0:0:
362,283,105219,2,0,P|323:282|288:265,1,77.999997619629,0|2,1:2|1:2,0:0:0:0:
201,212,105566,5,0,1:2:0:0:
198,313,105740,1,8,0:0:0:0:
112,259,105913,1,0,1:2:0:0:
108,360,106086,2,0,L|141:380,2,38.9999988098145,8|0|0,0:0|1:2|1:2,0:0:0:0:
21,304,106433,2,0,P|10:268|14:229,1,77.999997619629,8|0,0:0|0:0,0:0:0:0:
63,141,106780,5,2,1:2:0:0:
63,141,106954,1,0,1:0:0:0:
157,175,107127,2,0,L|233:206,1,77.999997619629,8|0,0:0|1:2,0:0:0:0:
277,221,107387,2,0,L|391:174,1,116.999996429443,0|0,1:2|1:2,0:0:0:0:
353,81,107820,2,0,L|277:112,1,77.999997619629,8|0,0:0|0:0,0:0:0:0:
195,65,108167,5,2,1:2:0:0:
195,65,108341,1,0,1:0:0:0:
150,155,108514,2,0,L|119:231,1,77.999997619629,8|0,0:0|1:2,0:0:0:0:
104,275,108774,2,0,L|150:389,1,116.999996429443,0|0,1:2|1:2,0:0:0:0:
249,382,109208,2,0,L|280:306,1,77.999997619629,8|0,0:0|0:0,0:0:0:0:
351,238,109555,6,0,L|427:207,1,77.999997619629,2|0,1:2|1:2,0:0:0:0:
350,137,109901,2,0,L|426:106,1,77.999997619629,0|2,1:2|1:2,0:0:0:0:
350,35,110248,2,0,L|426:4,1,77.999997619629,0|2,1:2|1:2,0:0:0:0:
510,57,110595,1,8,1:2:0:0:
510,57,110768,1,0,1:2:0:0:
512,158,110942,5,2,1:2:0:0:
422,107,111115,1,0,1:2:0:0:
459,243,111289,1,8,0:0:0:0:
373,189,111462,2,0,L|326:263,1,77.999997619629,2|0,1:2|0:0,0:0:0:0:
303,349,111809,1,0,0:0:0:0:
303,349,111896,1,0,0:0:0:0:
303,349,111982,2,0,P|288:360|264:374,2,38.9999988098145,8|8|8,0:3|0:3|0:3,0:0:0:0:
231,276,112329,6,0,B|195:252|153:260|153:260|111:268|81:249,1,155.999995239258,6|8,1:2|0:0,0:0:0:0:
0,187,112849,2,0,P|27:161|64:148,1,77.999997619629,0|0,0:0|0:0,0:0:0:0:
165,135,113196,1,0,1:2:0:0:
165,135,113370,2,0,P|201:122|229:95,1,77.999997619629,8|0,0:0|0:0,0:0:0:0:
285,11,113716,6,0,B|315:29|326:70|326:70|337:112|375:133,1,155.999995239258,2|8,1:2|0:0,0:0:0:0:
462,185,114237,2,0,P|437:213|402:230,1,77.999997619629,0|0,0:0|0:0,0:0:0:0:
301,224,114583,1,0,1:2:0:0:
301,224,114757,2,0,P|262:221|228:202,1,77.999997619629,8|0,0:0|0:0,0:0:0:0:
155,131,115104,6,0,B|124:161|125:204|125:204|125:246|102:273,1,155.999995239258,2|8,1:2|0:0,0:0:0:0:
9,316,115624,2,0,P|33:348|66:368,1,77.999997619629,0|0,0:0|0:0,0:0:0:0:
167,382,115971,2,0,P|205:379|239:360,1,77.999997619629,0|8,1:2|0:0,0:0:0:0:
318,296,116318,2,0,P|329:259|325:220,1,77.999997619629,0|2,1:2|1:2,0:0:0:0:
288,126,116664,5,0,1:2:0:0:
224,205,116838,1,8,0:0:0:0:
188,110,117011,1,0,1:2:0:0:
124,189,117185,2,0,L|141:237,2,38.9999988098145,8|0|0,0:0|1:2|1:2,0:0:0:0:
89,94,117531,2,0,P|55:113|33:145,1,77.999997619629,8|0,0:0|0:0,0:0:0:0:
41,245,117878,5,2,1:2:0:0:
41,245,118052,1,0,1:0:0:0:
107,320,118225,2,0,L|214:339,1,77.999997619629,8|0,0:0|1:2,0:0:0:0:
224,363,118485,2,0,L|368:388,1,116.999996429443,0|0,1:2|1:2,0:0:0:0:
418,318,118919,2,0,L|399:211,1,77.999997619629,8|0,0:0|0:0,0:0:0:0:
389,145,119266,5,2,1:2:0:0:
389,145,119440,1,0,1:0:0:0:
304,91,119612,2,0,L|285:198,1,77.999997619629,8|0,0:0|1:2,0:0:0:0:
264,211,119872,2,0,L|238:355,1,116.999996429443,0|0,1:2|1:2,0:0:0:0:
150,366,120306,2,0,L|43:385,1,77.999997619629,8|0,0:0|0:0,0:0:0:0:
82,278,120653,6,0,L|189:259,1,77.999997619629,2|0,1:2|1:2,0:0:0:0:
145,163,121000,2,0,L|252:144,1,77.999997619629,0|2,1:2|1:2,0:0:0:0:
212,48,121347,2,0,L|319:29,1,77.999997619629,0|2,1:2|1:2,0:0:0:0:
388,19,121693,1,8,0:0:0:0:
388,19,121867,1,0,1:2:0:0:
411,117,122040,5,2,1:2:0:0:
311,136,122214,1,0,1:2:0:0:
425,217,122387,1,8,0:0:0:0:
324,235,122560,2,0,P|251:215|211:144,1,155.999995239258,0|0,1:2|0:0,0:0:0:0:
211,48,123081,2,0,L|216:-5,2,38.9999988098145,8|8|8,0:3|0:3|0:3,0:0:0:0:
144,98,123427,5,6,0:0:0:0:
256,192,133312,12,0,134179,0:0:0:0:
122,356,134526,6,0,P|91:316|84:240,1,116.999996429443,6|0,1:2|1:2,0:0:0:0:
92,174,135046,2,0,P|103:147|124:126,1,58.4999982147217,0|0,0:0|1:2,0:0:0:0:
271,80,135566,1,0,1:2:0:0:
271,80,135740,1,0,0:0:0:0:
313,15,135913,6,0,L|455:31,1,116.999996429443,2|0,1:2|1:2,0:0:0:0:
447,103,136433,2,0,L|517:111,1,58.4999982147217,0|0,0:0|1:2,0:0:0:0:
493,264,136953,1,0,1:2:0:0:
493,264,137127,1,0,0:0:0:0:
420,292,137300,6,0,P|382:247|328:226,1,116.999996429443,2|0,1:2|1:2,0:0:0:0:
252,230,137820,2,0,P|223:235|197:249,1,58.4999982147217,0|0,0:0|1:2,0:0:0:0:
73,335,138341,1,0,1:2:0:0:
73,335,138514,1,0,0:0:0:0:
0,295,138688,6,0,L|16:153,1,116.999996429443,2|0,1:2|1:2,0:0:0:0:
89,185,139208,2,0,L|97:114,1,58.4999982147217,0|0,0:0|1:2,0:0:0:0:
232,192,139728,1,0,1:2:0:0:
296,151,139901,1,0,0:0:0:0:
320,46,140075,6,0,P|365:43|391:26,2,65,2|0|0,1:2|1:2|1:2,0:0:0:0:
238,19,140595,2,0,P|206:19|177:32,2,65,0|0|0,1:2|1:2|1:2,0:0:0:0:
228,107,141115,1,0,1:2:0:0:
228,107,141289,1,0,1:2:0:0:
213,190,141462,6,0,L|284:205,2,65,2|0|0,1:2|1:2|1:2,0:0:0:0:
165,260,141982,2,0,L|236:275,2,65,0|0|0,1:2|1:2|1:2,0:0:0:0:
80,274,142503,1,0,1:2:0:0:
29,206,142676,1,0,1:2:0:0:
88,146,142849,6,0,L|159:131,1,65,2|0,1:2|1:2,0:0:0:0:
175,51,143196,2,0,L|246:36,1,65,0|2,1:2|1:2,0:0:0:0:
297,100,143543,2,0,L|368:85,1,65,0|2,1:2|1:2,0:0:0:0:
443,71,143890,1,2,1:2:0:0:
458,154,144063,1,2,1:2:0:0:
378,240,144237,6,0,L|322:251,3,32.5,2|0|0|0,1:2|1:2|1:2|1:2,0:0:0:0:
305,258,144583,2,0,L|249:269,3,32.5,0|0|0|0,1:2|1:2|1:2|1:2,0:0:0:0:
232,276,144930,2,0,L|176:287,3,32.5,2|0|0|0,1:2|1:2|1:2|1:2,0:0:0:0:
159,291,145277,5,2,1:2:0:0:
149,292,145363,1,0,1:2:0:0:
139,294,145450,1,0,1:2:0:0:
130,296,145537,1,0,1:2:0:0:
120,298,145623,5,0,1:2:0:0:
123,302,146664,5,0,0:0:0:0:
123,302,147011,6,0,P|171:298|273:335,1,155.999995239258,6|8,1:2|0:0,0:0:0:0:
360,384,147531,2,0,P|359:345|380:313,1,77.999997619629,0|0,0:0|0:0,0:0:0:0:
472,270,147878,1,0,1:2:0:0:
472,270,148052,2,0,P|454:237|420:220,1,77.999997619629,8|0,0:0|0:0,0:0:0:0:
317,217,148399,6,0,P|269:207|181:143,1,155.999995239258,2|8,1:2|0:0,0:0:0:0:
162,46,148919,2,0,P|137:75|100:86,1,77.999997619629,0|0,0:0|0:0,0:0:0:0:
0,97,149266,1,0,1:2:0:0:
0,97,149439,2,0,P|26:124|33:162,1,77.999997619629,8|0,0:0|0:0,0:0:0:0:
0,258,149786,6,0,P|18:303|96:379,1,155.999995239258,2|8,1:2|0:0,0:0:0:0:
193,382,150306,2,0,P|171:350|171:312,1,77.999997619629,0|0,0:0|0:0,0:0:0:0:
112,229,150653,2,0,P|134:197|135:159,1,77.999997619629,0|8,1:2|0:0,0:0:0:0:
191,73,151000,2,0,P|168:41|167:3,1,77.999997619629,0|2,1:2|1:2,0:0:0:0:
269,8,151347,5,0,1:2:0:0:
369,0,151520,1,8,0:0:0:0:
388,97,151693,1,0,1:2:0:0:
286,107,151867,2,0,L|329:54,2,38.9999988098145,8|0|0,0:0|1:2|1:2,0:0:0:0:
219,184,152214,2,0,P|211:222|225:258,1,77.999997619629,8|0,0:0|0:0,0:0:0:0:
129,290,152560,5,2,1:2:0:0:
129,290,152734,1,0,1:0:0:0:
38,245,152907,2,0,L|62:155,1,77.999997619629,8|0,0:0|1:2,0:0:0:0:
67,119,153167,2,0,L|194:85,1,116.999996429443,0|0,1:2|1:2,0:0:0:0:
230,0,153601,2,0,L|305:20,1,77.999997619629,8|0,0:0|0:0,0:0:0:0:
376,92,153948,5,2,1:2:0:0:
376,92,154122,1,0,1:0:0:0:
313,170,154294,2,0,L|403:194,1,77.999997619629,8|0,0:0|1:2,0:0:0:0:
439,201,154554,2,0,L|472:327,1,116.999996429443,0|0,1:2|1:2,0:0:0:0:
380,365,154988,2,0,L|304:385,1,77.999997619629,8|0,0:0|0:0,0:0:0:0:
205,356,155335,6,0,L|225:280,1,77.999997619629,2|0,1:2|1:2,0:0:0:0:
124,294,155682,2,0,L|144:218,1,77.999997619629,0|2,1:2|1:2,0:0:0:0:
43,232,156029,2,0,L|63:156,1,77.999997619629,0|2,1:2|1:2,0:0:0:0:
88,58,156375,1,8,0:0:0:0:
88,58,156549,1,0,1:0:0:0:
167,120,156722,5,2,1:2:0:0:
218,32,156896,1,0,1:2:0:0:
256,171,157069,1,8,0:0:0:0:
305,83,157242,2,0,P|336:62|375:64,1,77.999997619629,2|0,1:2|0:0,0:0:0:0:
471,98,157589,1,0,0:0:0:0:
471,98,157676,1,0,0:0:0:0:
471,98,157763,2,0,P|475:80|477:52,2,38.9999988098145,8|8|8,0:3|0:3|0:3,0:0:0:0:
398,169,158110,6,0,P|355:192|289:279,1,155.999995239258,6|8,1:2|0:0,0:0:0:0:
295,377,158630,2,0,P|264:355|226:355,1,77.999997619629,0|0,0:0|0:0,0:0:0:0:
127,383,158977,1,0,1:2:0:0:
127,383,159150,2,0,P|119:345|134:309,1,77.999997619629,8|0,0:0|0:0,0:0:0:0:
196,229,159497,6,0,P|240:208|349:208,1,155.999995239258,2|8,1:2|0:0,0:0:0:0:
438,251,160017,2,0,P|429:213|443:177,1,77.999997619629,0|0,0:0|0:0,0:0:0:0:
497,92,160364,1,0,1:2:0:0:
497,92,160537,2,0,P|459:95|425:77,1,77.999997619629,8|0,0:0|0:0,0:0:0:0:
344,14,160884,6,0,P|266:6|193:30,1,155.999995239258,2|8,1:2|0:0,0:0:0:0:
114,95,161404,2,0,P|152:104|179:131,1,77.999997619629,0|0,0:0|0:0,0:0:0:0:
277,104,161751,2,0,P|303:131|341:139,1,77.999997619629,0|8,1:2|0:0,0:0:0:0:
340,241,162098,2,0,P|377:249|404:276,1,77.999997619629,0|2,1:2|1:2,0:0:0:0:
326,342,162445,5,0,1:2:0:0:
226,330,162618,1,8,0:0:0:0:
237,228,162792,1,0,1:2:0:0:
340,241,162965,2,0,L|294:275,2,38.9999988098145,8|0|0,0:0|1:2|1:2,0:0:0:0:
427,189,163312,2,0,P|443:154|437:116,1,77.999997619629,8|0,0:0|0:0,0:0:0:0:
500,36,163659,5,2,1:2:0:0:
500,36,163833,1,0,1:0:0:0:
400,24,164005,2,0,L|316:7,1,77.999997619629,8|0,0:0|1:2,0:0:0:0:
276,29,164266,2,0,L|159:5,1,116.999996429443,0|0,1:2|1:2,0:0:0:0:
107,91,164699,2,0,L|92:167,1,77.999997619629,8|0,0:0|0:0,0:0:0:0:
175,235,165046,5,2,1:2:0:0:
175,235,165220,1,0,1:0:0:0:
148,332,165393,2,0,L|232:315,1,77.999997619629,8|0,0:0|1:3,0:0:0:0:
272,337,165654,2,0,L|388:313,1,116.999996429443,0|0,1:2|1:3,0:0:0:0:
488,285,166086,2,0,L|471:201,1,77.999997619629,8|0,0:0|0:0,0:0:0:0:
439,113,166433,6,0,L|355:130,1,77.999997619629,2|0,1:2|1:2,0:0:0:0:
337,29,166780,2,0,L|253:46,1,77.999997619629,0|2,1:2|1:2,0:0:0:0:
277,144,167127,2,0,L|193:161,1,77.999997619629,0|2,1:2|1:2,0:0:0:0:
180,60,167474,1,8,0:0:0:0:
180,60,167647,1,0,1:2:0:0:
102,127,167820,5,2,1:2:0:0:
200,159,167994,1,0,1:2:0:0:
72,224,168167,1,8,0:0:0:0:
168,256,168341,2,0,P|249:248|321:293,1,155.999995239258,0|0,1:2|0:0,0:0:0:0:
373,363,168861,2,0,L|327:376,2,38.9999988098145,8|8|8,0:3|0:3|0:3,0:0:0:0:
453,334,169208,6,0,P|461:246|433:200,1,130,6|8,1:2|0:0,0:0:0:0:
371,167,169728,2,0,P|308:181|248:158,1,130,0|0,0:0|1:2,0:0:0:0:
179,110,170248,1,8,0:0:0:0:
95,123,170422,1,0,0:0:0:0:
30,177,170595,6,0,L|50:327,1,130,2|8,1:2|0:0,0:0:0:0:
132,316,171115,2,0,L|149:187,1,130,0|0,0:0|1:2,0:0:0:0:
179,110,171636,1,8,0:0:0:0:
248,158,171809,1,0,0:0:0:0:
294,87,171982,6,0,P|352:60|415:73,1,130,2|8,1:2|0:0,0:0:0:0:
483,124,172503,2,0,P|433:164|415:226,1,130,0|0,0:0|1:2,0:0:0:0:
429,309,173023,1,8,0:0:0:0:
470,383,173196,1,0,0:0:0:0:
385,381,173370,6,0,L|256:364,1,130,2|8,1:2|0:0,0:0:0:0:
214,290,173890,2,0,L|343:273,1,130,0|0,0:0|1:2,0:0:0:0:
415,225,174410,1,8,0:0:0:0:
415,225,174583,1,0,0:0:0:0:
379,147,174757,6,0,P|321:174|257:163,1,130,2|8,1:2|0:0,0:0:0:0:
179,131,175277,2,0,P|215:78|214:13,1,130,0|0,0:0|1:2,0:0:0:0:
299,14,175797,1,8,0:0:0:0:
364,67,175971,1,0,0:0:0:0:
379,147,176144,6,0,L|362:276,1,130,2|8,1:2|0:0,0:0:0:0:
277,274,176664,2,0,L|260:145,1,130,0|0,0:0|1:2,0:0:0:0:
180,114,177185,1,8,0:0:0:0:
102,147,177358,1,0,0:0:0:0:
81,228,177531,6,0,P|120:241|146:273,1,65,2|0,1:2|1:2,0:0:0:0:
151,340,177878,1,8,0:0:0:0:
67,323,178052,1,0,1:2:0:0:
6,165,178399,1,0,1:2:0:0:
39,87,178572,1,8,0:0:0:0:
111,44,178745,1,0,1:2:0:0:
111,44,178832,1,0,1:2:0:0:
111,44,178919,6,2,P|171:30|216:40,1,97.5,2|0,1:2|0:0,0:0:0:0:
245,49,179266,2,2,P|294:85|315:126,1,97.5,2|0,1:2|0:0,0:0:0:0:
321,157,179612,1,0,1:2:0:0:
321,157,179786,1,0,1:2:0:0:
315,241,179959,1,10,0:0:0:0:
430,364,180306,6,0,L|498:370,2,65,2|0|0,1:2|1:2|1:2,0:0:0:0:
436,279,180826,2,0,L|504:285,2,65,2|0|2,1:2|1:2|1:2,0:0:0:0:
360,317,181347,1,10,0:0:0:0:
276,306,181520,1,2,1:2:0:0:
276,306,181607,1,0,1:2:0:0:
276,306,181693,6,0,P|219:275|191:217,1,130,6|8,1:2|0:0,0:0:0:0:
180,133,182214,2,0,P|192:70|240:26,1,130,0|0,0:0|1:2,0:0:0:0:
321,3,182734,1,8,0:0:0:0:
402,24,182907,1,0,0:0:0:0:
462,82,183081,6,0,B|484:209,1,130,2|8,1:2|0:0,0:0:0:0:
399,203,183601,2,0,B|421:330,1,130,0|0,0:0|1:2,0:0:0:0:
348,374,184121,1,8,0:0:0:0:
301,304,184294,1,0,0:0:0:0:
292,220,184468,6,0,P|252:169|191:150,1,130,2|8,1:2|0:0,0:0:0:0:
107,151,184988,2,0,P|46:172|9:225,1,130,0|0,0:0|1:2,0:0:0:0:
19,313,185508,1,8,0:0:0:0:
19,313,185682,1,0,0:0:0:0:
102,294,185855,6,0,B|229:271,1,130,2|8,1:2|0:0,0:0:0:0:
229,356,186375,2,0,B|356:333,1,130,0|0,0:0|1:2,0:0:0:0:
441,322,186896,1,8,0:0:0:0:
390,254,187069,1,0,0:0:0:0:
437,184,187242,6,0,P|404:128|410:64,1,130,2|8,1:2|0:0,0:0:0:0:
335,23,187763,2,0,P|285:63|221:69,1,130,0|0,0:0|1:2,0:0:0:0:
141,41,188283,1,8,0:0:0:0:
141,41,188456,1,8,0:0:0:0:
77,97,188630,6,0,L|12:90,2,65,10|0|0,0:0|1:2|1:2,0:0:0:0:
77,181,189150,2,0,L|12:188,2,65,10|0|2,0:0|1:2|1:2,0:0:0:0:
161,170,189670,1,8,0:0:0:0:
129,248,189844,1,0,1:2:0:0:
182,312,190017,6,2,P|228:272|273:261,1,97.5,10|0,0:0|0:0,0:0:0:0:
304,259,190364,2,2,P|338:207|378:185,1,97.5,10|0,0:0|0:0,0:0:0:0:
408,176,190711,1,0,1:2:0:0:
449,103,190884,1,8,0:0:0:0:
363,24,191057,1,2,1:2:0:0:
197,54,191404,5,6,0:0:0:0:
84,281,191925,2,0,L|214:239,1,130,0|0,0:0|0:0,0:0:0:0:
289,220,192445,1,0,0:0:0:0:
289,220,192618,1,0,0:0:0:0:
270,302,192792,5,2,0:0:0:0:
502,200,193312,2,0,L|372:158,1,130,0|0,0:0|0:0,0:0:0:0:
297,133,193832,1,0,0:0:0:0:
297,133,194005,1,0,0:0:0:0:
325,53,194179,5,2,0:0:0:0:
251,295,194699,2,0,L|220:145,1,130,0|0,0:0|0:0,0:0:0:0:
208,84,195219,1,0,0:0:0:0:
208,84,195393,1,0,0:0:0:0:
252,12,195566,5,2,0:0:0:0:
364,239,196086,2,0,L|390:111,1,130,0|0,0:0|0:0,0:0:0:0:
408,28,196607,1,0,0:0:0:0:
470,84,196780,1,0,0:0:0:0:
461,187,196953,5,2,0:0:0:0:
237,307,197474,2,0,L|100:298,1,130,0|0,0:0|0:0,0:0:0:0:
22,296,197994,1,0,0:0:0:0:
22,296,198167,1,0,0:0:0:0:
68,224,198341,5,2,0:0:0:0:
291,104,198861,2,0,L|420:112,1,130,0|0,0:0|0:0,0:0:0:0:
504,122,199381,1,0,0:0:0:0:
504,122,199555,1,0,0:0:0:0:
455,191,199728,5,2,0:0:0:0:
256,348,200248,2,0,L|256:194,1,130,0|0,0:0|0:0,0:0:0:0:
256,133,200768,1,0,0:0:0:0:
256,48,200942,1,0,0:0:0:0:
171,133,201115,5,2,0:0:0:0:
256,192,201289,12,0,202503,0:0:0:0:
