osu file format v14

[General]
AudioFilename: audio.mp3
AudioLeadIn: 0
PreviewTime: 34327
Countdown: 0
SampleSet: Soft
StackLeniency: 0.4
Mode: 2
LetterboxInBreaks: 0
WidescreenStoryboard: 1

[Editor]
DistanceSpacing: 1
BeatDivisor: 4
GridSize: 16
TimelineZoom: 1.9

[Metadata]
Title:Kizuato
TitleUnicode:キズアト
Artist:a*ru
ArtistUnicode:a☆ru
Creator:Benny-
Version:Cup
Source:東方妖々夢 ~ Perfect Cherry Blossom.
Tags:東方Project ALiCE'S EMOTiON th7 touhou youyomu ayumi nomiya redalice scar ブクレシュティの人形師 the doll maker of bucuresti overdrive Alice Margatroid アリス・マーガトロイド pcb c83 comiket83 Benny BennyBananas Ascendance
BeatmapID:1414779
BeatmapSetID:668807

[Difficulty]
HPDrainRate:3
CircleSize:2.5
OverallDifficulty:6
ApproachRate:6
SliderMultiplier:1.3
SliderTickRate:1

[Events]
//Background and Video events
0,0,"ALICE.jpg",0,0
//Break Periods
//Storyboard Layer 0 (Background)
//Storyboard Layer 1 (Fail)
//Storyboard Layer 2 (Pass)
//Storyboard Layer 3 (Foreground)
//Storyboard Sound Samples

[TimingPoints]
1380,346.820809248555,4,2,1,50,1,0
12478,-100,4,2,1,70,0,0
34674,-100,4,2,1,80,0,1
45426,-100,4,2,1,80,0,0
45773,-100,4,2,1,80,0,1
56524,-100,4,2,1,40,0,0
56871,-100,4,2,1,70,0,1
67969,-100,4,2,1,60,0,0
69356,-100,4,2,1,70,0,1
79067,-100,4,2,1,60,0,0
88778,-100,4,2,1,50,0,0
89125,-100,4,2,1,40,0,0
89472,-100,4,2,1,30,0,0
89819,-100,4,2,1,20,0,0
90166,-100,4,2,1,10,0,0

[Colours]
Combo1 : 148,214,189
Combo2 : 255,255,138
Combo3 : 255,108,108

[HitObjects]
296,312,1380,6,0,P|368:288|288:64,1,390,6|0,0:0|0:0,0:0:0:0:
160,64,2767,2,0,P|72:104|168:320,1,390,2|0,0:0|0:0,0:0:0:0:
288,320,4154,6,0,P|88:296|24:136,1,390,2|0,0:0|0:0,0:0:0:0:
160,136,5541,2,0,P|424:152|488:240,1,390,2|0,0:0|0:0,0:0:0:0:
357,224,6929,6,0,P|269:208|373:16,1,390,2|0,0:0|0:0,0:0:0:0:
216,288,8316,2,0,P|88:256|88:24,1,390,2|0,0:0|0:0,0:0:0:0:
216,48,9703,6,0,P|344:88|240:280,1,390,2|0,0:0|0:0,0:0:0:0:
400,224,11090,2,0,L|389:369,1,130,2|0,0:0|0:0,0:0:0:0:
259,356,11784,2,0,L|131:284,1,130
315,286,12478,6,0,L|72:156,1,260,4|8,1:2|0:0,0:0:0:0:
207,130,13518,1,0,0:0:0:0:
376,117,13865,2,0,P|467:222|388:275,1,260,0|8,1:2|0:0,0:0:0:0:
268,277,14906,1,0,0:0:0:0:
99,244,15252,6,0,L|341:136,1,260,0|8,1:2|0:0,0:0:0:0:
489,248,16293,1,0,0:0:0:0:
490,308,16466,1,0,1:2:0:0:
392,264,16640,2,0,P|311:194|398:100,1,260,0|8,1:2|0:0,0:0:0:0:
224,176,17680,1,0,1:2:0:0:
392,264,18027,6,0,L|440:128,1,130,0|0,1:2|0:0,0:0:0:0:
296,144,18721,2,0,L|256:272,1,130,8|0,0:2|0:0,0:0:0:0:
88,272,19414,2,0,L|232:272,1,130,0|0,1:2|0:0,0:0:0:0:
88,216,20108,2,0,L|80:72,1,130,8|0,0:2|0:0,0:0:0:0:
248,88,20801,6,0,L|280:232,1,130,0|0,1:2|0:0,0:0:0:0:
144,232,21495,2,0,L|296:240,1,130,8|0,0:0|0:0,0:0:0:0:
328,304,22015,1,0,1:2:0:0:
232,312,22189,2,0,P|184:304|232:160,1,260,4|8,1:2|0:0,0:0:0:0:
384,184,23229,1,8,0:0:0:0:
189,250,23576,6,0,P|134:237|241:32,1,390,12|0,0:0|1:0,0:0:0:0:
352,32,24963,2,0,P|448:56|352:256,1,390,0|0,1:0|1:0,0:0:0:0:
224,240,26351,6,0,P|232:192|504:160,1,390,0|0,1:0|1:2,0:0:0:0:
360,208,27738,2,0,P|360:248|80:296,1,390,0|0,1:2|1:2,0:0:0:0:
264,248,29125,5,12,1:2:0:0:
152,224,29472,1,0,1:2:0:0:
40,192,29819,1,0,1:2:0:0:
152,224,30166,1,0,1:2:0:0:
320,192,30512,5,0,1:2:0:0:
208,168,30859,1,0,1:2:0:0:
96,136,31206,1,0,1:2:0:0:
208,168,31553,1,0,1:2:0:0:
376,208,31900,6,0,P|416:160|208:40,1,390,0|4,1:2|0:1,0:0:0:0:
176,80,33114,1,4,0:1:0:0:
312,144,33460,2,0,L|328:216,1,65,4|4,0:1|0:1,0:0:0:0:
193,230,33981,6,0,L|185:246,1,16.25,8|8,0:2|0:0,0:0:0:0:
288,272,34327,1,0,2:3:0:0:
104,288,34674,6,0,P|48:232|128:160,1,195,4|0,1:0|0:0,0:0:0:0:
248,160,35541,2,0,L|272:240,1,65,0|8,1:2|0:2,0:0:0:0:
80,200,36062,2,0,P|152:256|264:248,1,195,0|0,1:2|0:0,0:0:0:0:
128,208,36929,2,0,L|144:128,1,65,0|8,1:2|0:0,0:0:0:0:
320,152,37449,6,0,P|384:104|304:48,1,195,0|0,1:2|0:0,0:0:0:0:
184,64,38316,1,0,1:2:0:0:
368,169,38663,2,0,L|232:129,1,130,0|0,1:2|1:2,0:0:0:0:
168,112,39183,1,8,0:0:0:0:
350,195,39530,2,0,L|316:268,1,65,8|8,0:0|1:2,0:0:0:0:
232,272,39877,1,8,0:2:0:0:
416,296,40223,6,0,P|456:280|456:136,1,195,0|0,1:2|1:2,0:0:0:0:
328,144,41090,2,0,L|264:120,1,65,0|8,1:0|0:0,0:0:0:0:
86,123,41611,2,0,P|22:147|54:259,1,195,0|0,1:2|1:2,0:0:0:0:
182,275,42478,2,0,L|262:259,1,65,0|8,1:0|0:0,0:0:0:0:
424,256,42998,6,0,L|270:102,2,195,2|2|8,1:2|1:2|0:0,0:0:0:0:
229,156,44385,2,0,L|164:173,2,65,4|0|8,1:1|1:0|0:0,0:0:0:0:
303,141,44906,2,0,P|358:146|390:272,1,195,0|0,1:0|0:0,0:0:0:0:
200,288,45773,6,0,P|80:288|32:216,1,195,4|0,1:0|0:0,0:0:0:0:
176,224,46640,2,0,L|200:304,1,65,0|8,1:2|0:0,0:0:0:0:
376,296,47161,2,0,P|280:299|204:242,1,195,0|0,1:2|0:0,0:0:0:0:
344,240,48028,2,0,L|360:160,1,65,0|8,1:2|0:0,0:0:0:0:
176,152,48548,6,0,P|128:96|224:40,1,195,0|0,1:2|0:0,0:0:0:0:
328,64,49415,1,0,1:2:0:0:
152,168,49762,2,0,L|288:128,1,130,0|0,1:2|1:2,0:0:0:0:
344,112,50282,1,8,0:0:0:0:
161,193,50629,2,0,L|192:272,1,65,8|0,0:0|1:0,0:0:0:0:
280,272,50976,1,8,0:0:0:0:
96,296,51322,6,0,P|56:280|56:136,1,195,0|0,1:2|1:2,0:0:0:0:
184,144,52189,2,0,L|248:120,1,65,0|8,1:2|0:0,0:0:0:0:
416,139,52709,2,0,P|480:163|448:275,1,195,0|0,1:2|0:0,0:0:0:0:
320,291,53577,2,0,L|240:275,1,65,0|8,1:2|0:0,0:0:0:0:
88,256,54096,6,0,L|238:113,2,195,2|2|8,1:2|1:2|0:0,0:0:0:0:
283,156,55483,2,0,L|348:173,2,65,4|0|8,1:1|1:0|0:0,0:0:0:0:
209,141,56004,2,0,P|154:146|122:272,1,195,0|0,1:0|0:0,0:0:0:0:
312,272,56871,6,0,P|368:264|432:136,2,195,4|0|8,1:0|0:0|0:0,0:0:0:0:
136,272,58258,2,0,P|120:200|208:128,1,195,0|0,1:2|0:0,0:0:0:0:
400,176,59299,1,8,0:0:0:0:
216,256,59645,6,0,P|104:224|88:144,2,195,0|0|8,1:2|0:0|0:0,0:0:0:0:
400,264,61033,2,0,P|472:256|496:128,1,195,0|0,1:2|0:0,0:0:0:0:
315,104,62073,1,8,0:0:0:0:
144,136,62420,6,0,P|200:80|328:64,1,195,0|0,1:2|0:0,0:0:0:0:
488,128,63460,1,8,0:0:0:0:
304,247,63807,2,0,P|208:232|176:144,2,195,0|0|8,1:2|0:0|0:0,0:0:0:0:
466,262,65195,6,0,L|514:214,2,65,0|0|8,1:2|1:0|0:0,0:0:0:0:
368,288,65715,2,0,P|304:288|232:176,1,195,0|8,1:2|0:0,0:0:0:0:
381,124,66582,1,4,1:0:0:0:
225,224,66929,1,4,1:0:0:0:
380,290,67275,1,4,1:0:0:0:
211,329,67622,1,8,0:0:0:0:
344,344,67969,6,0,P|448:272|376:48,1,390,0|8,1:2|0:0,0:0:0:0:
200,272,69356,6,0,P|144:264|80:136,2,195,4|0|8,1:0|0:0|0:0,0:0:0:0:
376,272,70743,2,0,P|392:200|304:128,1,195,0|0,1:2|0:0,0:0:0:0:
112,176,71784,1,8,0:0:0:0:
296,256,72130,6,0,P|408:224|424:144,2,195,0|0|8,1:2|0:0|0:0,0:0:0:0:
112,264,73518,2,0,P|40:256|16:128,1,195,0|0,1:2|0:0,0:0:0:0:
184,112,74558,1,8,0:0:0:0:
368,136,74905,6,0,P|312:80|184:64,1,195,0|0,1:2|0:0,0:0:0:0:
24,128,75945,1,8,0:0:0:0:
208,247,76293,5,8,0:0:0:0:
400,176,76813,1,10,0:0:0:0:
208,247,77333,1,8,0:0:0:0:
72,256,77680,1,8,0:0:0:0:
224,200,78027,2,0,P|236:161|171:94,1,130,8|0,0:0|1:2,0:0:0:0:
110,89,78547,1,8,0:0:0:0:
344,104,79067,6,0,P|444:137|476:217,2,195,0|0|0,1:0|0:0|1:0,0:0:0:0:
207,207,80455,2,0,L|400:128,2,195,0|0|0,1:0|0:0|1:0,0:0:0:0:
71,217,81842,6,0,P|92:96|145:29,1,195,0|0,1:0|0:0,0:0:0:0:
338,65,82882,1,0,1:0:0:0:
202,204,83229,2,0,L|384:288,2,195,0|0|0,1:0|0:0|1:0,0:0:0:0:
256,192,84616,12,0,88432,1:0:0:0:
256,320,88778,6,0,B|264:312|264:312|248:304|248:304|264:296|264:296|248:288|248:288|264:280|264:280|248:272|248:272|264:264|264:264|248:256|248:256|264:248|264:248|248:240|248:240|264:232|264:232|248:224|248:224|264:216|264:216|248:208|248:208|264:200|264:200|248:192|248:192|264:184|264:184|248:176|248:176|264:168|264:168|248:160|248:160|264:152|264:152|248:144|248:144|264:136|264:136|248:128|248:128|264:120|264:120|248:112|248:112|264:104|264:104|248:96|248:96|264:88|264:88|248:80|248:80,1,520,0|0,1:2|0:2,0:0:0:0:
