osu file format v14

[General]
AudioFilename: audio.mp3
AudioLeadIn: 0
PreviewTime: 34327
Countdown: 0
SampleSet: Soft
StackLeniency: 0.4
Mode: 2
LetterboxInBreaks: 0
WidescreenStoryboard: 1

[Editor]
DistanceSpacing: 1
BeatDivisor: 4
GridSize: 4
TimelineZoom: 1.9

[Metadata]
Title:Kizuato
TitleUnicode:キズアト
Artist:a*ru
ArtistUnicode:a☆ru
Creator:Benny-
Version:Scar
Source:東方妖々夢 ~ Perfect Cherry Blossom.
Tags:東方Project ALiCE'S EMOTiON th7 touhou youyomu ayumi nomiya redalice scar ブクレシュティの人形師 the doll maker of bucuresti overdrive Alice Margatroid アリス・マーガトロイド pcb c83 comiket83 Benny BennyBananas Ascendance
BeatmapID:1414782
BeatmapSetID:668807

[Difficulty]
HPDrainRate:7
CircleSize:4.3
OverallDifficulty:9.1
ApproachRate:9.1
SliderMultiplier:1.6
SliderTickRate:2

[Events]
//Background and Video events
0,0,"ALICE.jpg",0,0
//Break Periods
//Storyboard Layer 0 (Background)
//Storyboard Layer 1 (Fail)
//Storyboard Layer 2 (Pass)
//Storyboard Layer 3 (Foreground)
//Storyboard Sound Samples

[TimingPoints]
1380,346.820809248555,4,2,1,50,1,0
23576,-133.333333333333,4,2,1,40,0,0
29125,-100,4,2,1,60,0,0
33981,-100,4,2,1,50,0,0
34327,-100,4,2,1,40,0,0
34674,-83.3333333333333,4,2,1,80,0,1
45079,-83.3333333333333,4,2,1,40,0,1
45252,-83.3333333333333,4,2,1,50,0,1
45426,-83.3333333333333,4,2,1,60,0,0
45599,-83.3333333333333,4,2,1,40,0,0
45773,-83.3333333333333,4,2,1,80,0,1
56177,-83.3333333333333,4,2,1,40,0,1
56351,-83.3333333333333,4,2,1,50,0,1
56524,-83.3333333333333,4,2,1,60,0,0
56697,-83.3333333333333,4,2,1,40,0,0
56871,-100,4,2,1,70,0,1
67969,-100,4,2,1,60,0,0
69356,-100,4,2,1,70,0,1
79067,-100,4,2,1,60,0,0
88778,-100,4,2,1,50,0,0
88952,-100,4,2,1,45,0,0
89125,-100,4,2,1,40,0,0
89299,-100,4,2,1,35,0,0
89472,-100,4,2,1,30,0,0
89645,-100,4,2,1,25,0,0
89819,-100,4,2,1,20,0,0
89992,-100,4,2,1,15,0,0
90166,-100,4,2,1,10,0,0

[Colours]
Combo1 : 148,214,189
Combo2 : 255,255,138
Combo3 : 255,108,108

[HitObjects]
136,256,1380,6,0,P|120:212|204:144,1,160,6|0,0:0|0:0,0:0:0:0:
312,140,1900,2,0,L|144:140,1,160,0|0,0:0|0:0,0:0:0:0:
272,192,2420,2,0,L|288:288,1,80,0|0,0:0|0:0,0:0:0:0:
124,264,2767,6,0,L|312:264,1,160,2|0,0:0|0:0,0:0:0:0:
404,256,3287,2,0,P|404:200|312:156,1,160,0|0,0:0|0:0,0:0:0:0:
200,156,3807,2,0,L|188:252,1,80,0|0,0:0|0:0,0:0:0:0:
352,236,4154,6,0,P|472:152|472:120,1,160,2|0,0:0|0:0,0:0:0:0:
352,236,4674,2,0,P|308:196|368:120,1,160,0|0,0:0|0:0,0:0:0:0:
472,120,5195,2,0,L|364:116,1,80,0|0,0:0|0:0,0:0:0:0:
232,112,5541,6,0,L|408:108,1,160,2|0,0:0|0:0,0:0:0:0:
272,168,6062,2,0,P|220:216|276:276,1,160,0|0,0:0|0:0,0:0:0:0:
384,276,6582,2,0,L|400:188,1,80,0|0,0:0|0:0,0:0:0:0:
236,180,6929,6,0,L|371:69,1,160,2|0,0:0|0:0,0:0:0:0:
480,88,7449,2,0,P|460:152|368:172,1,160,0|0,0:0|0:0,0:0:0:0:
260,176,7969,2,0,L|352:160,1,80,0|0,0:0|0:0,0:0:0:0:
176,152,8316,6,0,P|108:164|44:248,1,160,2|0,0:0|0:0,0:0:0:0:
168,236,8836,2,0,P|176:192|84:104,1,160,0|0,0:0|0:0,0:0:0:0:
228,104,9356,2,0,L|312:80,1,80,0|0,0:0|0:0,0:0:0:0:
140,76,9703,6,0,L|316:76,1,160,2|0,0:0|0:0,0:0:0:0:
180,152,10223,2,0,P|136:184|192:260,1,160,0|0,0:0|0:0,0:0:0:0:
300,264,10744,2,0,L|216:248,1,80,0|0,0:0|0:0,0:0:0:0:
388,232,11090,5,2,0:0:0:0:
464,216,11264,1,0,0:0:0:0:
496,144,11437,1,0,0:0:0:0:
204,240,11784,2,0,L|36:240,1,160,0|0,0:0|0:0,0:0:0:0:
480,248,12478,6,0,P|472:196|360:140,1,160,4|0,1:2|0:0,0:0:0:0:
268,136,12998,2,0,L|348:128,2,80,0|8|0,0:0|0:2|0:0,0:0:0:0:
388,204,13518,2,0,L|412:288,1,80,0|0,0:0|0:0,0:0:0:0:
152,280,13865,6,0,P|92:268|60:172,1,160,0|0,1:2|0:0,0:0:0:0:
176,160,14385,2,0,L|92:144,2,80,0|8|0,0:0|0:2|0:0,0:0:0:0:
56,172,14906,2,0,L|40:284,1,80,0|0,0:0|0:0,0:0:0:0:
300,252,15252,6,0,L|124:256,1,160,0|0,1:2|0:0,0:0:0:0:
260,196,15773,2,0,L|376:188,2,80,0|8|0,0:0|0:0|0:0,0:0:0:0:
380,176,16293,1,0,0:0:0:0:
216,160,16466,1,0,1:2:0:0:
464,208,16640,6,0,P|480:256|396:328,1,160,0|0,1:2|0:0,0:0:0:0:
324,316,17160,2,0,L|344:224,1,80,0|8,0:0|0:2,0:0:0:0:
456,232,17507,1,0,0:0:0:0:
152,344,17680,2,0,L|112:272,1,80,0|0,1:2|0:0,0:0:0:0:
348,252,18027,5,0,1:2:0:0:
232,208,18200,2,0,L|316:200,2,80,0|0|0,0:0|0:0|0:0,0:0:0:0:
480,196,18721,2,0,L|428:124,1,80,8|0,0:2|0:0,0:0:0:0:
336,120,19067,1,0,0:0:0:0:
456,116,19241,1,0,0:0:0:0:
156,144,19414,5,0,1:2:0:0:
276,144,19588,2,0,L|256:56,1,80,0|0,0:0|0:0,0:0:0:0:
140,64,19934,1,0,0:0:0:0:
384,88,20108,2,0,L|468:148,1,80,8|0,0:2|0:0,0:0:0:0:
292,164,20455,2,0,L|200:172,1,80,0|0,0:0|0:0,0:0:0:0:
476,212,20801,5,0,1:2:0:0:
356,216,20975,2,0,L|249:230,2,80
127,235,21495,2,0,P|80:178|126:113,1,160,8|0,0:0|0:0,0:0:0:0:
360,120,22015,1,0,1:2:0:0:
104,120,22189,6,0,P|56:152|96:236,1,160,4|0,1:2|0:0,0:0:0:0:
208,236,22709,1,0,0:0:0:0:
440,232,22882,1,8,0:0:0:0:
440,232,23229,2,0,L|468:128,1,80,8|8,0:0|0:0,0:0:0:0:
400,128,23489,1,8,0:0:0:0:
150,70,23576,6,0,P|86:78|90:310,1,360.000013732911,12|0,0:0|1:0,0:0:0:0:
190,310,24790,1,0,0:0:0:0:
370,318,24963,6,0,P|417:276|387:217,1,120.000004577637,0|0,1:0|0:0,0:0:0:0:
281,220,25484,2,0,P|293:172|373:156,1,120.000004577637
475,168,26004,2,0,L|483:240,1,60.0000022888184,0|0,1:0|0:0,0:0:0:0:
301,208,26351,6,0,L|117:208,1,180.000006866455,0|0,1:0|0:0,0:0:0:0:
312,248,27218,2,0,L|254:266,2,60.0000022888184,0|0|0,0:0|1:2|0:0,0:0:0:0:
132,233,27738,6,0,L|97:103,1,120.000004577637,0|0,1:2|0:0,0:0:0:0:
222,121,28258,2,0,L|150:237,1,120.000004577637
35,213,28778,1,0,1:2:0:0:
456,296,29125,5,12,1:2:0:0:
328,272,29472,1,0,1:2:0:0:
200,256,29819,1,0,1:2:0:0:
72,224,30166,2,0,L|40:136,1,80,0|0,1:2|0:0,0:0:0:0:
352,136,30512,6,0,P|392:168|352:264,1,160,0|0,1:2|1:2,0:0:0:0:
201,268,31033,2,0,L|171:167,1,80,0|0,0:0|1:2,0:0:0:0:
340,195,31380,2,0,L|379:290,1,80,0|0,0:0|1:2,0:0:0:0:
217,273,31726,1,0,0:0:0:0:
456,368,31900,6,0,L|472:280,1,80,0|0,1:2|1:0,0:0:0:0:
336,296,32247,2,0,L|320:200,1,80,0|0,1:0|1:0,0:0:0:0:
200,240,32593,2,0,L|216:152,1,80,0|0,1:2|1:0,0:0:0:0:
96,152,32940,2,0,L|64:120,1,40,4|0,0:1|1:0,0:0:0:0:
232,152,33114,6,0,L|320:144,2,80,4|0|4,0:1|0:0|0:1,0:0:0:0:
88,88,33634,1,4,0:1:0:0:
496,168,33981,1,8,0:2:0:0:
488,136,34024,1,8,0:0:0:0:
408,96,34154,1,0,0:0:0:0:
328,112,34241,1,0,0:0:0:0:
168,192,34327,5,0,0:0:0:0:
112,176,34413,1,0,0:0:0:0:
83,144,34500,1,0,0:0:0:0:
76,105,34587,1,0,0:0:0:0:
408,104,34674,6,0,P|464:120|432:256,1,191.999994140625,4|8,1:0|0:0,0:0:0:0:
324,235,35195,2,0,P|316:187|428:115,1,191.999994140625,0|0,0:0|1:2,0:0:0:0:
144,120,35715,2,0,L|40:120,1,95.9999970703126,8|0,0:2|0:2,0:0:0:0:
336,192,36062,6,0,P|336:120|224:80,1,191.999994140625,0|8,1:2|0:0,0:0:0:0:
382,82,36582,2,0,P|438:146|374:226,1,191.999994140625,0|0,0:0|1:2,0:0:0:0:
96,112,37102,2,0,L|48:208,1,95.9999970703126,8|0,0:0|0:0,0:0:0:0:
328,208,37449,6,0,P|400:216|440:344,1,191.999994140625,0|8,1:2|0:0,0:0:0:0:
305,324,37969,2,0,P|249:260|329:212,1,191.999994140625,0|0,0:0|1:2,0:0:0:0:
20,200,38489,2,0,L|92:112,1,95.9999970703126,8|0,0:0|1:2,0:0:0:0:
352,136,38836,5,0,1:2:0:0:
207,189,39010,1,0,1:2:0:0:
472,208,39183,2,0,L|504:320,1,95.9999970703126,8|0,0:0|1:2,0:0:0:0:
264,304,39530,2,0,L|200:304,2,47.9999985351563,8|8|8,0:0|1:2|1:2,0:0:0:0:
32,256,39877,2,0,L|16:160,1,95.9999970703126,8|0,0:2|0:0,0:0:0:0:
328,256,40223,6,0,L|440:256,1,95.9999970703126,0|0,1:2|1:2,0:0:0:0:
183,224,40570,1,8,0:0:0:0:
327,166,40744,1,0,1:2:0:0:
275,166,40830,1,0,1:2:0:0:
223,166,40917,1,0,0:0:0:0:
367,89,41090,1,0,1:0:0:0:
120,80,41264,2,0,L|24:80,1,95.9999970703126,8|0,0:0|0:0,0:0:0:0:
336,256,41611,6,0,L|452:256,1,95.9999970703126,0|0,1:2|1:2,0:0:0:0:
200,208,41958,1,8,0:0:0:0:
345,154,42132,1,0,1:2:0:0:
293,154,42218,1,0,1:2:0:0:
241,154,42305,1,0,0:0:0:0:
385,101,42478,1,0,1:0:0:0:
136,184,42652,2,0,L|80:100,1,95.9999970703126,8|0,0:0|0:0,0:0:0:0:
328,80,42998,5,2,1:2:0:0:
472,80,43172,1,0,1:2:0:0:
184,80,43345,1,0,1:2:0:0:
328,152,43518,1,2,1:2:0:0:
40,152,43692,1,0,1:2:0:0:
184,152,43865,1,2,1:2:0:0:
328,80,44038,1,8,0:2:0:0:
40,80,44212,2,0,L|104:80,1,47.9999985351563,0|0,1:0|1:0,0:0:0:0:
328,80,44385,5,4,1:1:0:0:
232,80,44559,1,0,1:2:0:0:
472,80,44732,1,8,0:0:0:0:
184,80,44906,1,0,1:0:0:0:
304,171,45079,2,0,L|361:169,1,47.9999985351563
304,171,45253,2,0,L|233:174,1,47.9999985351563
440,237,45426,1,0,0:0:0:0:
467,204,45513,1,0,0:0:0:0:
440,157,45599,1,0,0:0:0:0:
387,143,45686,1,0,0:0:0:0:
116,112,45773,6,0,P|72:156|128:256,1,191.999994140625,4|8,1:0|0:0,0:0:0:0:
270,193,46293,2,0,L|78:193,1,191.999994140625,0|0,0:0|1:2,0:0:0:0:
392,264,46813,2,0,L|424:168,1,95.9999970703126,8|0,0:0|0:0,0:0:0:0:
104,160,47160,6,0,L|304:160,1,191.999994140625,0|8,1:2|0:0,0:0:0:0:
152,102,47680,2,0,L|360:102,1,191.999994140625,0|0,0:0|1:2,0:0:0:0:
68,200,48200,2,0,L|28:312,1,95.9999970703126,8|0,0:0|0:0,0:0:0:0:
304,296,48547,6,0,P|368:240|296:176,1,191.999994140625,0|8,1:2|0:0,0:0:0:0:
165,169,49067,2,0,L|389:161,1,191.999994140625,0|0,0:0|1:2,0:0:0:0:
40,112,49588,2,0,L|24:232,1,95.9999970703126,8|0,0:0|1:2,0:0:0:0:
264,208,49934,5,0,1:2:0:0:
120,176,50108,1,0,1:2:0:0:
352,176,50281,2,0,L|448:176,1,95.9999970703126,8|0,0:0|1:2,0:0:0:0:
216,104,50628,1,8,0:0:0:0:
264,104,50715,1,8,0:0:0:0:
312,104,50801,1,8,0:0:0:0:
80,104,50975,2,0,L|48:208,1,95.9999970703126,8|0,0:0|0:0,0:0:0:0:
288,216,51322,5,0,1:2:0:0:
144,219,51495,1,0,1:2:0:0:
404,219,51669,1,8,0:0:0:0:
260,148,51842,1,0,1:2:0:0:
320,180,51929,1,0,1:2:0:0:
260,220,52015,1,0,0:0:0:0:
405,100,52189,1,0,1:2:0:0:
112,104,52362,2,0,L|136:208,1,95.9999970703126,8|0,0:0|0:0,0:0:0:0:
368,120,52709,5,0,1:2:0:0:
224,152,52882,1,0,1:2:0:0:
488,240,53056,1,8,0:0:0:0:
344,214,53229,1,0,1:2:0:0:
284,246,53316,1,0,1:2:0:0:
344,286,53403,1,0,0:0:0:0:
200,193,53576,1,0,1:2:0:0:
432,144,53749,2,0,L|488:224,1,95.9999970703126,8|0,0:0|0:0,0:0:0:0:
184,80,54096,5,2,1:2:0:0:
40,80,54270,1,0,1:2:0:0:
328,80,54443,1,0,1:2:0:0:
184,152,54616,1,2,1:2:0:0:
472,152,54790,1,0,1:2:0:0:
328,152,54963,1,2,1:2:0:0:
184,80,55136,1,8,0:2:0:0:
472,80,55310,2,0,L|408:80,1,47.9999985351563,0|0,1:2|0:0,0:0:0:0:
184,80,55483,5,4,1:0:0:0:
328,80,55657,1,0,1:2:0:0:
40,80,55830,1,8,0:0:0:0:
328,80,56004,1,0,1:0:0:0:
208,171,56177,2,0,L|151:169,1,47.9999985351563
208,171,56351,2,0,L|279:174,1,47.9999985351563
72,237,56524,1,0,0:0:0:0:
45,204,56611,1,0,0:0:0:0:
72,157,56697,1,0,0:0:0:0:
125,143,56784,1,0,0:0:0:0:
432,192,56871,6,0,P|400:144|304:124,1,160,4|8,1:0|0:0,0:0:0:0:
448,116,57391,2,0,P|488:104|456:8,1,160,0|0,0:0|1:2,0:0:0:0:
212,104,57911,2,0,L|300:104,1,80,8|0,0:0|0:0,0:0:0:0:
48,156,58258,6,0,P|8:176|52:264,1,160,0|8,1:2|0:0,0:0:0:0:
188,260,58778,2,0,P|148:204|36:212,1,160,0|0,0:0|1:2,0:0:0:0:
312,168,59299,2,0,L|336:280,1,80,8|0,0:0|0:0,0:0:0:0:
56,244,59645,6,0,L|224:244,1,160,0|8,1:2|0:0,0:0:0:0:
364,256,60166,2,0,L|188:256,1,160,0|0,0:0|1:2,0:0:0:0:
456,224,60686,2,0,L|468:136,1,80,8|0,0:0|0:0,0:0:0:0:
188,144,61033,6,0,P|136:84|192:40,1,160,0|8,1:2|0:0,0:0:0:0:
328,48,61553,2,0,P|376:80|320:152,1,160,0|0,0:0|1:2,0:0:0:0:
28,152,62073,2,0,L|112:152,1,80,8|0,0:0|0:0,0:0:0:0:
384,156,62420,6,0,P|448:168|488:256,1,160,0|8,1:2|0:0,0:0:0:0:
344,248,62940,2,0,P|352:200|464:168,1,160,0|0,0:0|1:2,0:0:0:0:
158,147,63460,2,0,L|46:147,1,80,8|0,0:0|0:0,0:0:0:0:
392,128,63807,6,0,P|424:168|352:232,1,160,0|8,1:2|0:0,0:0:0:0:
216,228,64327,2,0,P|264:164|360:164,1,160,0|0,0:0|1:2,0:0:0:0:
92,152,64848,2,0,L|68:56,1,80,8|0,0:0|0:0,0:0:0:0:
376,72,65195,5,0,1:2:0:0:
256,60,65368,1,0,1:0:0:0:
136,48,65541,1,8,0:0:0:0:
424,57,65715,2,0,P|459:89|417:193,1,160,0|0,1:2|1:2,0:0:0:0:
144,160,66235,2,0,L|48:160,1,80,8|0,0:0|1:2,0:0:0:0:
24,160,66495,1,8,1:2:0:0:
272,240,66582,6,0,P|288:200|240:120,1,120,4|0,1:0|0:0,0:0:0:0:
84,132,66929,2,0,P|76:76|136:40,1,120,4|0,1:0|0:0,0:0:0:0:
272,60,67275,2,0,L|176:60,1,80,4|0,1:0|1:2,0:0:0:0:
472,124,67622,2,0,P|496:172|444:232,1,120,8|0,0:0|0:0,0:0:0:0:
288,224,67969,5,0,1:2:0:0:
368,192,68143,1,0,1:2:0:0:
256,224,68316,1,0,1:2:0:0:
400,192,68489,1,0,1:2:0:0:
224,224,68663,1,0,1:2:0:0:
432,192,68836,1,0,1:2:0:0:
160,184,69010,2,0,L|52:168,1,80,8|0,0:0|1:2,0:0:0:0:
120,192,69270,1,0,1:2:0:0:
384,224,69356,6,0,P|384:168|288:128,1,160,4|8,1:0|0:0,0:0:0:0:
444,120,69876,2,0,P|484:108|452:12,1,160,0|0,0:0|1:2,0:0:0:0:
212,104,70396,2,0,L|300:104,1,80,8|0,0:0|0:0,0:0:0:0:
48,156,70743,6,0,P|8:176|52:264,1,160,0|8,1:2|0:0,0:0:0:0:
188,256,71264,2,0,P|136:212|36:208,1,160,0|0,0:0|1:2,0:0:0:0:
312,168,71784,2,0,L|336:280,1,80,8|0,0:0|0:0,0:0:0:0:
56,244,72131,6,0,L|224:248,1,160,0|8,1:2|0:0,0:0:0:0:
360,252,72651,2,0,L|184:252,1,160,0|0,0:0|1:2,0:0:0:0:
456,224,73171,2,0,L|468:136,1,80,8|0,0:0|0:0,0:0:0:0:
188,144,73518,6,0,P|136:84|192:40,1,160,0|8,1:2|0:0,0:0:0:0:
328,48,74038,2,0,P|376:80|320:152,1,160,0|0,0:0|1:2,0:0:0:0:
28,152,74558,2,0,L|112:152,1,80,8|0,0:0|0:0,0:0:0:0:
384,156,74905,6,0,P|448:168|488:256,1,160,0|8,1:2|0:0,0:0:0:0:
340,244,75426,2,0,P|348:204|460:164,1,160,0|0,0:0|1:2,0:0:0:0:
216,96,75946,1,8,0:0:0:0:
456,96,76119,1,8,0:0:0:0:
216,96,76293,5,10,0:0:0:0:
336,136,76466,1,0,1:2:0:0:
216,96,76640,1,0,1:2:0:0:
456,232,76813,1,10,0:0:0:0:
336,280,76986,1,0,1:2:0:0:
456,232,77160,1,2,1:2:0:0:
128,264,77333,1,8,0:0:0:0:
248,200,77507,1,0,1:2:0:0:
16,232,77680,6,0,P|40:184|112:168,1,120,8|0,0:0|0:0,0:0:0:0:
264,160,78027,2,0,P|256:120|144:80,1,160,8|0,0:0|1:2,0:0:0:0:
400,72,78547,2,0,P|424:120|336:216,1,200,8|0,0:0|0:0,0:0:0:0:
132,212,79067,6,0,P|68:204|108:64,1,240,0|0,1:2|0:0,0:0:0:0:
232,64,79934,1,0,0:0:0:0:
364,112,80108,2,0,L|356:208,1,80,0|0,1:0|0:0,0:0:0:0:
232,196,80455,6,0,P|168:240|252:340,1,240,0|0,1:2|0:0,0:0:0:0:
408,336,81322,1,0,0:0:0:0:
292,304,81495,2,0,L|296:204,1,80,0|0,1:0|0:0,0:0:0:0:
424,220,81842,6,0,L|168:204,1,240,0|0,1:2|0:0,0:0:0:0:
36,160,82709,1,0,0:0:0:0:
152,200,82882,2,0,L|140:296,1,80,0|0,1:0|0:0,0:0:0:0:
24,296,83229,6,0,L|288:288,1,240,0|0,1:0|0:0,0:0:0:0:
404,276,84096,1,0,0:0:0:0:
264,244,84270,2,0,L|272:144,1,80,0|0,1:2|0:0,0:0:0:0:
400,144,84616,1,0,1:0:0:0:
256,192,84790,12,0,88432,1:0:0:0:
452,268,88778,6,0,P|448:220|48:264,1,640,0|0,1:2|0:2,0:0:0:0:
